osu file format v14

[General]
AudioFilename: audio.mp3
AudioLeadIn: 0
PreviewTime: 815
Countdown: 1
SampleSet: Soft
StackLeniency: 0.7
Mode: 0
LetterboxInBreaks: 0
WidescreenStoryboard: 0

[Editor]
Bookmarks: 9168
DistanceSpacing: 1.1
BeatDivisor: 8
GridSize: 16
TimelineZoom: 2.699999

[Metadata]
Title:Magnetism
TitleUnicode:Magnetism
Artist:ReX
ArtistUnicode:ReX
Creator:Cheri
Version:Expert
Source:Project FX
Tags:Icekalt DJ Lucky Hailie ylvy Ayanokorin Instrumental Lego_Man Lego Man bor In_Your_Heart In Your Heart Free Hong Kong Free_Hong_Kong
BeatmapID:1837462
BeatmapSetID:878574

[Difficulty]
HPDrainRate:5
CircleSize:3.5
OverallDifficulty:8.7
ApproachRate:9
SliderMultiplier:1.8
SliderTickRate:1

[Events]
//Background and Video events
0,0,"background.jpg",0,0
//Break Periods
//Storyboard Layer 0 (Background)
//Storyboard Layer 1 (Fail)
//Storyboard Layer 2 (Pass)
//Storyboard Layer 3 (Foreground)
//Storyboard Layer 4 (Overlay)
//Storyboard Sound Samples

[TimingPoints]
1565,375,4,2,0,50,1,0
7565,-125,4,2,0,40,0,0
18065,-166.666666666667,4,2,0,35,0,0
24065,-100,4,2,0,60,0,0
28565,-250,4,2,0,30,0,0
46565,-250,4,2,0,50,0,0
47690,-100,4,2,0,50,0,0
52565,-83.3333333333333,4,2,0,70,0,1
57065,-250,4,2,0,50,0,0
58565,-250,4,2,0,40,0,0
70565,-125,4,2,0,50,0,0
81065,-166.666666666667,4,2,0,40,0,0
87065,-100,4,2,0,60,0,0
91565,-71.4285714285714,4,2,0,80,0,1
97190,-55.5555555555556,4,2,0,90,0,1
97377,-71.4285714285714,4,2,0,50,0,0

[Colours]
Combo1 : 250,87,69
Combo2 : 128,0,0
Combo3 : 125,2,67
Combo4 : 128,0,128

[HitObjects]
481,16,1565,5,4,0:0:0:0:
210,92,1752,1,0,3:0:0:0:
229,106,1815,1,0,3:0:0:0:
251,105,1877,1,0,3:0:0:0:
273,84,1940,1,0,1:0:0:0:
444,205,2127,2,0,P|381:196|334:187,1,90,4|0,3:0|0:0,0:0:0:0:
222,19,2502,1,0,3:0:0:0:
26,177,2690,2,0,L|19:237,1,45,0|0,3:0|0:0,0:0:0:0:
182,364,2877,1,0,1:0:0:0:
163,350,2924,1,0,3:0:0:0:
160,329,2971,1,0,3:0:0:0:
196,289,3065,5,4,3:0:0:0:
444,205,3252,2,0,L|473:194,2,30,0|0|0,3:0|3:0|3:0,0:0:0:0:
260,137,3440,1,0,1:0:0:0:
71,333,3627,2,0,L|117:226,1,90,4|0,3:0|0:0,0:0:0:0:
251,66,4002,1,0,3:0:0:0:
203,129,4096,1,0,3:0:0:0:
90,145,4190,1,0,3:0:0:0:
115,221,4283,1,0,3:0:0:0:
71,333,4377,1,0,1:0:0:0:
376,170,4565,6,0,L|431:177,1,45,4|0,3:0|0:0,0:0:0:0:
477,371,4752,1,0,3:0:0:0:
449,354,4814,1,0,3:0:0:0:
452,321,4877,1,0,3:0:0:0:
476,305,4940,1,0,1:0:0:0:
174,313,5127,1,4,3:0:0:0:
286,94,5315,1,4,3:0:0:0:
265,90,5408,1,4,3:0:0:0:
319,98,5502,1,0,1:0:0:0:
38,215,5690,2,0,L|72:207,1,22.5,0|0,0:0|0:0,0:0:0:0:
27,223,5783,2,0,L|58:218,1,22.5,2|0,0:0|0:0,0:0:0:0:
19,232,5877,2,0,L|56:227,1,22.5,2|0,0:0|0:0,0:0:0:0:
13,238,5971,2,0,L|51:236,1,22.5,2|0,0:0|0:0,0:0:0:0:
82,293,6065,5,0,3:0:0:0:
104,247,6158,1,0,3:0:0:0:
103,204,6252,1,0,3:0:0:0:
92,151,6346,1,0,3:0:0:0:
56,109,6439,1,0,1:0:0:0:
79,152,6533,1,0,3:0:0:0:
123,177,6627,1,8,3:0:0:0:
185,178,6721,1,8,3:0:0:0:
247,159,6815,1,8,3:0:0:0:
207,199,6908,1,8,3:0:0:0:
187,244,7002,1,8,3:0:0:0:
176,295,7096,1,8,3:0:0:0:
181,343,7189,1,8,3:0:0:0:
160,305,7283,1,8,3:0:0:0:
125,265,7377,1,8,3:0:0:0:
73,243,7471,1,8,3:0:0:0:
45,306,7565,6,0,P|32:241|29:221,1,72,2|0,0:0|0:0,0:0:0:0:
23,171,7846,1,0,0:0:0:0:
27,166,7940,1,8,0:0:0:0:
144,47,8127,2,0,P|199:26|221:26,1,72,2|8,0:0|0:0,0:0:0:0:
211,38,8361,1,0,0:0:0:0:
363,30,8502,1,0,0:0:0:0:
319,226,8690,2,0,L|310:168,1,36,8|0,0:0|0:0,0:0:0:0:
334,155,8877,1,2,0:0:0:0:
433,323,9065,2,0,L|433:274,1,36,8|0,0:0|0:0,0:0:0:0:
462,251,9252,1,2,0:0:0:0:
433,287,9346,1,0,0:0:0:0:
433,323,9440,1,8,0:0:0:0:
216,201,9627,1,2,0:0:0:0:
46,340,9815,1,8,0:0:0:0:
55,315,9908,1,0,0:0:0:0:
61,276,10002,1,2,0:0:0:0:
47,89,10190,5,8,0:0:0:0:
45,112,10283,1,0,0:0:0:0:
57,144,10377,1,2,0:0:0:0:
81,165,10471,1,0,0:0:0:0:
128,175,10565,1,10,0:0:0:0:
410,99,10752,1,2,0:0:0:0:
374,121,10846,1,0,0:0:0:0:
339,42,10940,1,8,0:0:0:0:
493,151,11127,2,0,P|449:185|399:202,1,108,2|0,0:0|0:0,0:0:0:0:
286,309,11502,1,0,1:0:0:0:
286,330,11549,1,2,0:0:0:0:
289,343,11596,1,0,0:0:0:0:
162,314,11690,1,4,3:0:0:0:
85,173,11877,1,4,3:0:0:0:
60,169,11971,1,4,3:0:0:0:
7,205,12065,5,2,0:0:0:0:
3,180,12127,1,2,0:0:0:0:
1,151,12190,1,2,0:0:0:0:
16,112,12252,5,0,3:0:0:0:
44,75,12346,1,0,0:0:0:0:
76,39,12440,1,8,0:0:0:0:
406,42,12627,1,6,3:0:0:0:
250,166,12815,1,8,0:0:0:0:
1,151,13002,2,0,P|34:188|48:197,1,36,2|0,0:0|0:0,0:0:0:0:
49,360,13190,1,8,0:0:0:0:
118,263,13377,1,0,0:0:0:0:
226,41,13565,5,10,0:0:0:0:
221,37,13752,1,2,0:0:0:0:
226,59,13846,1,0,0:0:0:0:
215,82,13940,1,8,0:0:0:0:
183,85,14033,1,0,0:0:0:0:
151,62,14127,5,2,3:0:0:0:
140,65,14174,1,2,3:0:0:0:
125,70,14221,1,2,3:0:0:0:
33,168,14315,5,8,0:0:0:0:
68,179,14408,1,0,0:0:0:0:
88,205,14502,1,2,0:0:0:0:
93,245,14596,1,0,0:0:0:0:
76,283,14690,1,8,0:0:0:0:
106,312,14783,5,0,0:0:0:0:
174,348,14877,1,2,0:0:0:0:
256,333,14971,1,2,0:0:0:0:
322,304,15065,2,0,P|349:310|371:321,1,36,8|0,0:0|0:0,0:0:0:0:
475,292,15252,5,2,3:0:0:0:
482,248,15346,1,0,0:0:0:0:
436,179,15440,1,8,0:0:0:0:
322,34,15627,6,0,L|321:100,1,36,2|0,0:0|0:0,0:0:0:0:
279,146,15815,1,8,0:0:0:0:
264,180,15909,1,0,0:0:0:0:
189,209,16002,1,0,1:0:0:0:
132,351,16190,5,4,3:0:0:0:
128,297,16283,1,0,0:0:0:0:
95,244,16377,1,8,3:0:0:0:
38,228,16471,1,0,0:0:0:0:
14,78,16565,5,8,3:0:0:0:
203,72,16752,5,2,0:0:0:0:
149,125,16846,1,0,0:0:0:0:
69,145,16940,1,8,0:0:0:0:
340,35,17127,5,4,3:0:0:0:
187,265,17315,5,0,3:0:0:0:
207,181,17408,1,4,3:0:0:0:
201,92,17502,1,8,3:0:0:0:
454,44,17690,1,8,0:0:0:0:
361,340,17877,2,0,B|349:294|341:304,1,24,2|0,0:0|0:0,0:0:0:0:
87,343,18065,5,4,3:0:0:0:
76,334,18252,1,2,0:0:0:0:
78,327,18346,1,0,0:0:0:0:
83,320,18440,1,2,0:0:0:0:
144,193,18627,1,0,0:0:0:0:
125,160,18721,1,2,0:0:0:0:
112,152,18768,1,2,0:0:0:0:
93,148,18815,1,8,3:0:0:0:
7,245,19002,1,2,0:0:0:0:
144,193,19190,2,0,B|186:205|202:197|192:183,1,53.9999983520508,2|0,0:0|0:0,0:0:0:0:
211,163,19502,1,0,0:0:0:0:
219,154,19565,1,4,3:0:0:0:
346,84,19752,2,0,L|345:118,1,26.9999991760254,2|0,0:0|0:0,0:0:0:0:
383,213,19940,2,0,L|381:260,1,26.9999991760254,8|0,3:0|0:0,0:0:0:0:
352,322,20127,1,0,0:0:0:0:
321,340,20221,1,0,0:0:0:0:
278,334,20315,1,8,3:0:0:0:
167,316,20502,1,0,0:0:0:0:
77,377,20690,1,2,0:0:0:0:
0,329,20877,1,0,0:0:0:0:
26,138,21065,2,0,P|48:179|34:195,1,53.9999983520508,8|0,3:0|0:0,0:0:0:0:
11,198,21346,1,0,0:0:0:0:
43,225,21440,1,2,0:0:0:0:
206,215,21627,1,2,0:0:0:0:
226,227,21721,1,0,0:0:0:0:
266,232,21815,1,0,1:0:0:0:
404,241,22002,1,2,0:0:0:0:
426,272,22096,1,2,0:0:0:0:
476,255,22190,1,2,0:0:0:0:
472,198,22283,1,0,0:0:0:0:
415,190,22377,1,2,0:0:0:0:
359,175,22471,1,0,0:0:0:0:
339,104,22565,1,4,3:0:0:0:
215,138,22752,1,2,0:0:0:0:
170,154,22846,1,0,0:0:0:0:
111,136,22940,1,0,1:0:0:0:
33,361,23127,1,8,3:0:0:0:
16,314,23221,1,8,3:0:0:0:
31,237,23315,1,0,1:0:0:0:
135,173,23502,1,2,3:2:0:0:
148,147,23596,1,2,3:2:0:0:
146,91,23690,1,10,3:3:0:0:
90,59,23783,1,2,3:2:0:0:
56,110,23877,1,2,3:2:0:0:
89,161,23971,1,0,3:0:0:0:
198,127,24065,5,4,3:0:0:0:
430,57,24252,1,2,0:0:0:0:
441,61,24346,1,0,0:0:0:0:
463,81,24440,2,0,L|466:146,1,45,8|0,0:0|0:0,0:0:0:0:
492,347,24627,5,4,3:0:0:0:
272,287,24815,1,8,3:0:0:0:
261,305,24908,1,0,0:0:0:0:
239,328,25002,2,0,L|165:310,1,45,0|0,1:0|0:0,0:0:0:0:
26,214,25190,5,4,3:0:0:0:
50,166,25283,1,0,0:0:0:0:
111,118,25377,1,8,0:0:0:0:
188,102,25471,1,2,0:0:0:0:
195,317,25565,6,0,L|141:335,1,45,4|0,3:0|0:0,0:0:0:0:
221,241,25752,1,2,0:0:0:0:
289,283,25846,1,0,0:0:0:0:
261,384,25940,1,8,0:0:0:0:
198,358,26033,1,2,0:0:0:0:
175,340,26080,1,2,0:0:0:0:
160,310,26127,1,4,3:0:0:0:
299,189,26315,1,2,0:0:0:0:
465,337,26502,5,4,3:0:0:0:
426,307,26596,1,0,0:0:0:0:
395,256,26690,1,4,3:0:0:0:
391,195,26783,1,2,0:0:0:0:
435,137,26877,1,8,1:0:0:0:
512,107,26971,1,2,0:0:0:0:
418,19,27065,5,6,0:0:0:0:
183,47,27252,1,2,0:0:0:0:
152,86,27346,1,0,0:0:0:0:
102,89,27440,1,8,0:0:0:0:
512,107,27627,5,4,3:0:0:0:
356,354,27815,1,8,3:0:0:0:
285,316,27908,1,4,3:0:0:0:
246,247,28002,1,4,3:0:0:0:
248,158,28096,1,2,0:0:0:0:
310,76,28190,5,8,0:0:0:0:
126,297,28377,1,2,0:0:0:0:
122,307,28471,1,2,0:0:0:0:
97,339,28565,6,0,B|71:308|40:237|49:234|61:262,1,108,8|0,3:0|0:0,0:0:0:0:
125,68,29315,2,0,B|138:158|123:177|123:177|118:164,1,108,8|0,0:0|0:0,0:0:0:0:
258,26,30065,5,2,0:0:0:0:
261,50,30440,1,8,0:3:0:0:
359,77,30627,1,0,0:0:0:0:
360,93,30815,1,0,3:0:0:0:
463,124,31002,1,0,0:0:0:0:
488,273,31190,5,2,0:0:0:0:
368,250,31377,1,0,0:0:0:0:
232,223,31565,1,8,0:3:0:0:
175,238,31752,1,0,0:0:0:0:
165,260,31940,1,0,0:0:0:0:
155,281,32127,1,2,0:0:0:0:
158,290,32315,1,8,0:0:0:0:
77,334,32502,1,0,0:0:0:0:
0,378,32690,1,2,0:0:0:0:
9,349,32877,1,0,0:0:0:0:
41,262,33065,5,2,3:2:0:0:
142,231,33252,1,0,0:0:0:0:
238,201,33440,1,8,0:3:0:0:
341,168,33627,1,0,0:0:0:0:
464,130,33815,1,10,0:0:0:0:
481,112,34190,1,2,0:0:0:0:
315,75,34565,5,2,0:3:0:0:
216,117,34752,1,0,0:0:0:0:
113,156,34940,1,2,0:0:0:0:
7,195,35127,1,2,0:0:0:0:
20,166,35315,1,8,0:3:0:0:
35,152,35502,1,0,0:0:0:0:
52,134,35690,1,0,0:0:0:0:
73,111,35877,1,0,0:0:0:0:
155,56,36065,5,10,0:0:0:0:
202,80,36252,1,0,0:0:0:0:
258,72,36440,1,8,0:3:0:0:
299,158,36627,5,2,0:0:0:0:
295,174,36721,1,2,0:0:0:0:
291,192,36815,1,2,0:3:0:0:
303,227,37096,5,2,0:0:0:0:
314,251,37190,1,2,0:0:0:0:
428,314,37377,5,0,0:0:0:0:
441,340,37471,1,2,0:0:0:0:
452,362,37565,1,8,0:3:0:0:
332,347,37752,1,2,0:0:0:0:
300,347,37846,1,0,0:0:0:0:
265,348,37940,1,2,0:0:0:0:
150,343,38127,1,0,3:0:0:0:
77,297,38252,5,2,0:0:0:0:
62,295,38315,1,8,0:3:0:0:
83,201,38502,1,0,0:0:0:0:
110,89,38690,1,2,0:0:0:0:
123,85,38877,1,0,0:0:0:0:
243,38,39065,5,2,0:0:0:0:
333,91,39252,1,0,0:0:0:0:
444,167,39440,1,8,0:0:0:0:
448,207,39533,1,0,0:0:0:0:
418,218,39627,1,2,0:0:0:0:
384,192,39721,1,0,0:0:0:0:
395,152,39815,5,8,0:0:0:0:
346,133,39908,1,0,0:0:0:0:
306,160,40002,1,2,0:0:0:0:
281,201,40096,1,0,0:0:0:0:
237,211,40189,1,2,0:0:0:0:
194,192,40283,1,0,0:0:0:0:
156,166,40377,1,2,0:0:0:0:
110,173,40471,1,0,0:0:0:0:
72,203,40565,5,8,0:0:0:0:
66,225,40752,1,0,0:0:0:0:
59,252,40940,1,0,0:0:0:0:
53,277,41127,1,0,0:0:0:0:
151,352,41315,5,8,0:0:0:0:
146,334,41502,1,4,3:0:0:0:
140,317,41690,1,0,0:0:0:0:
134,299,41877,1,0,0:0:0:0:
100,192,42065,5,8,0:0:0:0:
196,217,42252,1,4,3:0:0:0:
297,248,42440,1,8,3:0:0:0:
394,274,42627,1,0,0:0:0:0:
498,305,42815,1,0,3:0:0:0:
510,133,43002,5,4,0:3:0:0:
508,145,43049,1,4,0:3:0:0:
388,133,43190,1,0,3:0:0:0:
285,173,43377,1,0,0:0:0:0:
226,296,43565,1,8,1:3:0:0:
226,296,43940,1,0,3:0:0:0:
190,318,44127,1,0,3:0:0:0:
151,301,44315,1,8,3:0:0:0:
142,283,44408,1,0,3:0:0:0:
144,261,44502,1,0,3:0:0:0:
183,228,44690,1,0,0:0:0:0:
231,247,44877,5,2,3:0:0:0:
239,282,44971,1,0,3:0:0:0:
217,321,45065,1,0,0:0:0:0:
101,302,45252,1,2,0:0:0:0:
84,180,45440,1,8,3:0:0:0:
187,136,45627,1,0,3:0:0:0:
301,216,45815,1,8,0:0:0:0:
326,225,45908,1,0,3:0:0:0:
375,214,46002,1,4,3:0:0:0:
470,3,46190,1,10,0:0:0:0:
211,83,46377,1,2,0:0:0:0:
184,59,46471,1,2,0:0:0:0:
184,45,46518,1,2,0:0:0:0:
200,26,46565,5,4,3:0:0:0:
82,291,46752,2,0,P|61:321|50:326,1,36,2|0,0:0|0:0,0:0:0:0:
248,183,47127,1,4,3:0:0:0:
256,222,47221,1,0,0:0:0:0:
227,258,47315,1,8,0:0:0:0:
50,191,47502,1,2,0:0:0:0:
299,86,47690,2,0,L|350:45,1,45,8|0,0:0|0:0,0:0:0:0:
454,207,47877,1,2,0:0:0:0:
359,370,48065,5,4,3:0:0:0:
175,192,48252,2,0,L|167:129,1,45,2|0,0:0|0:0,0:0:0:0:
334,57,48440,1,8,0:0:0:0:
170,281,48627,1,4,3:0:0:0:
132,252,48721,1,4,3:0:0:0:
107,197,48815,1,8,0:0:0:0:
109,167,48908,1,0,0:0:0:0:
122,141,49002,1,2,0:0:0:0:
147,117,49096,1,0,0:0:0:0:
209,93,49190,1,8,0:0:0:0:
291,341,49377,1,2,0:0:0:0:
254,363,49471,1,0,0:0:0:0:
196,359,49565,5,8,0:0:0:0:
404,263,49752,2,0,P|442:268|490:280,1,45,2|0,0:0|0:0,0:0:0:0:
512,76,49940,1,8,0:0:0:0:
242,44,50127,1,4,3:0:0:0:
274,83,50221,1,0,0:0:0:0:
314,100,50314,1,8,0:0:0:0:
368,109,50408,1,0,0:0:0:0:
320,126,50502,1,2,0:0:0:0:
276,141,50596,1,0,0:0:0:0:
209,137,50690,1,8,0:0:0:0:
223,198,50783,1,0,0:0:0:0:
210,257,50877,1,2,0:0:0:0:
169,293,50971,1,0,0:0:0:0:
183,359,51065,5,4,3:0:0:0:
45,119,51252,1,2,0:0:0:0:
84,139,51346,1,2,0:0:0:0:
128,128,51440,1,10,0:0:0:0:
165,108,51533,1,0,0:0:0:0:
222,114,51627,1,4,3:0:0:0:
222,114,52002,1,2,0:0:0:0:
481,51,52190,2,0,L|458:107,1,45,8|0,1:0|0:0,0:0:0:0:
508,294,52377,1,2,0:0:0:0:
160,361,52565,5,4,3:0:0:0:
184,66,52752,1,0,0:0:0:0:
218,131,52846,1,0,0:0:0:0:
311,146,52940,1,8,1:0:0:0:
43,54,53127,6,0,L|109:86,1,53.9999983520508,2|0,0:0|0:0,0:0:0:0:
302,232,53315,1,4,3:0:0:0:
286,155,53408,1,0,0:0:0:0:
331,87,53502,1,0,3:0:0:0:
265,342,53690,1,8,1:0:0:0:
470,71,53877,1,2,0:0:0:0:
415,96,53971,1,0,0:0:0:0:
331,87,54065,6,0,L|321:168,1,53.9999983520508,4|0,3:0|0:0,0:0:0:0:
190,282,54252,1,2,0:0:0:0:
116,307,54346,1,0,0:0:0:0:
61,366,54440,1,8,3:0:0:0:
180,149,54627,1,2,0:0:0:0:
254,162,54721,1,0,0:0:0:0:
324,140,54815,1,8,3:0:0:0:
56,73,55002,1,2,0:0:0:0:
380,48,55190,2,0,P|354:88|318:150,1,107.999996704102,8|0,1:3|0:0,0:0:0:0:
451,341,55565,5,6,0:0:0:0:
150,257,55752,1,2,0:0:0:0:
204,201,55846,1,0,0:0:0:0:
223,126,55940,2,0,L|215:78,1,35.9999989013672,8|0,1:0|0:0,0:0:0:0:
82,349,56127,2,0,L|162:325,1,53.9999983520508,2|0,0:0|0:0,0:0:0:0:
396,384,56315,1,4,3:0:0:0:
223,126,56502,1,2,0:0:0:0:
259,190,56596,1,0,0:0:0:0:
333,222,56690,1,8,1:0:0:0:
367,258,56783,1,0,0:0:0:0:
369,300,56877,1,2,0:0:0:0:
352,329,56971,1,0,0:0:0:0:
335,367,57065,2,0,B|324:309|337:283|323:239,1,126,4|0,3:0|0:0,0:0:0:0:
308,206,57815,5,2,0:0:0:0:
266,192,57908,1,0,0:0:0:0:
222,202,58002,1,4,3:0:0:0:
117,299,58190,1,0,3:0:0:0:
27,218,58377,1,8,1:0:0:0:
7,86,58565,5,2,0:0:0:0:
84,84,58752,1,0,0:0:0:0:
159,114,58940,1,8,0:3:0:0:
235,133,59127,1,0,0:0:0:0:
259,138,59221,1,0,0:0:0:0:
289,132,59315,1,2,3:0:0:0:
371,100,59502,1,0,0:0:0:0:
405,87,59596,1,0,0:0:0:0:
450,92,59690,1,2,0:0:0:0:
446,186,59877,5,0,0:0:0:0:
415,192,59971,1,0,0:0:0:0:
373,188,60065,1,8,0:3:0:0:
279,184,60252,5,0,0:0:0:0:
251,207,60346,1,0,0:0:0:0:
236,235,60440,1,8,0:0:0:0:
198,311,60627,1,2,0:0:0:0:
158,344,60721,1,0,0:0:0:0:
113,356,60815,1,8,0:0:0:0:
31,318,61002,1,0,0:0:0:0:
42,294,61096,1,0,0:0:0:0:
63,270,61190,1,2,0:0:0:0:
191,200,61377,1,0,0:0:0:0:
197,172,61471,1,0,0:0:0:0:
179,142,61565,5,2,3:2:0:0:
235,47,61752,5,0,0:0:0:0:
244,56,61846,1,0,0:0:0:0:
247,69,61940,1,8,0:3:0:0:
327,140,62127,5,0,0:0:0:0:
334,148,62221,1,0,0:0:0:0:
338,179,62315,1,10,0:0:0:0:
340,277,62502,5,0,0:0:0:0:
323,309,62596,1,2,0:0:0:0:
282,318,62690,1,2,0:0:0:0:
256,312,62783,1,0,0:0:0:0:
229,312,62877,1,2,0:0:0:0:
205,325,62971,1,0,0:0:0:0:
186,361,63065,1,2,0:3:0:0:
95,284,63252,5,0,0:0:0:0:
87,243,63346,1,0,0:0:0:0:
99,203,63440,1,8,0:0:0:0:
132,183,63533,1,2,0:0:0:0:
162,184,63627,1,2,0:0:0:0:
195,201,63721,1,0,0:0:0:0:
235,204,63815,1,8,0:3:0:0:
256,211,63908,1,0,0:0:0:0:
278,215,64002,1,0,0:0:0:0:
310,216,64096,1,2,0:0:0:0:
350,199,64190,1,0,0:0:0:0:
390,100,64377,1,0,0:0:0:0:
311,19,64565,5,2,0:3:0:0:
191,44,64940,5,2,0:0:0:0:
174,64,65033,1,0,0:0:0:0:
148,83,65127,1,2,0:0:0:0:
119,95,65221,1,0,0:0:0:0:
73,133,65315,1,8,0:3:0:0:
133,316,65596,5,0,0:0:0:0:
140,296,65690,1,0,0:0:0:0:
142,278,65783,1,0,0:0:0:0:
133,255,65877,1,0,0:0:0:0:
101,234,65971,1,0,0:0:0:0:
64,246,66065,1,2,0:3:0:0:
210,264,66252,5,0,0:0:0:0:
246,253,66346,1,0,0:0:0:0:
271,216,66440,1,2,0:0:0:0:
358,122,66627,5,2,0:0:0:0:
394,102,66721,1,2,0:0:0:0:
436,104,66815,1,8,0:3:0:0:
471,248,67002,5,0,0:0:0:0:
411,253,67096,1,2,0:0:0:0:
367,226,67190,1,0,0:0:0:0:
182,106,67377,5,2,0:0:0:0:
190,151,67471,1,2,0:0:0:0:
173,207,67565,1,2,0:3:0:0:
90,347,67752,5,0,0:0:0:0:
78,332,67846,1,0,0:0:0:0:
69,310,67940,1,2,0:0:0:0:
69,286,68033,1,0,0:0:0:0:
77,266,68127,1,2,0:0:0:0:
93,253,68221,1,0,0:0:0:0:
150,236,68315,1,8,0:3:0:0:
209,133,68502,5,0,0:0:0:0:
206,111,68596,1,2,0:0:0:0:
191,90,68690,1,2,0:0:0:0:
171,89,68783,1,2,0:0:0:0:
166,108,68877,1,0,0:0:0:0:
171,126,68971,1,0,0:0:0:0:
205,147,69065,1,8,0:3:0:0:
364,102,69252,5,0,0:0:0:0:
382,135,69346,1,2,0:0:0:0:
385,176,69440,1,8,0:0:0:0:
325,347,69627,5,0,0:0:0:0:
274,316,69721,1,2,0:0:0:0:
251,261,69814,1,0,3:0:0:0:
318,47,70002,1,0,0:0:0:0:
68,85,70190,6,0,L|88:87,1,18,0|0,3:0|3:0,0:0:0:0:
251,261,70377,2,0,L|219:256,1,18,0|0,1:0|0:0,0:0:0:0:
385,198,70565,6,0,P|372:133|369:113,1,72,2|0,0:0|0:0,0:0:0:0:
405,76,70846,1,0,0:0:0:0:
409,69,70940,1,8,0:0:0:0:
436,266,71127,2,0,P|410:303|393:334,1,72,2|8,0:0|0:0,0:0:0:0:
410,348,71361,1,0,0:0:0:0:
211,304,71502,1,0,0:0:0:0:
102,124,71690,2,0,L|93:182,1,36,8|0,0:0|0:0,0:0:0:0:
117,195,71877,1,2,0:0:0:0:
238,56,72065,2,0,L|230:110,1,36,8|0,0:0|0:0,0:0:0:0:
271,132,72252,1,2,0:0:0:0:
232,91,72346,1,0,0:0:0:0:
238,56,72440,1,8,0:0:0:0:
395,210,72627,1,2,0:0:0:0:
162,320,72815,1,8,0:0:0:0:
193,302,72908,1,0,0:0:0:0:
234,306,73002,1,2,0:0:0:0:
409,113,73190,5,8,0:0:0:0:
379,113,73283,1,0,0:0:0:0:
348,126,73377,1,2,0:0:0:0:
325,154,73471,1,0,0:0:0:0:
320,203,73565,1,10,0:0:0:0:
108,163,73752,1,2,0:0:0:0:
126,116,73846,1,0,0:0:0:0:
176,97,73940,1,8,0:0:0:0:
131,316,74127,2,0,P|95:315|33:261,1,108,2|0,0:0|0:0,0:0:0:0:
184,191,74502,1,0,1:0:0:0:
187,169,74549,1,0,3:0:0:0:
210,158,74596,1,0,3:0:0:0:
160,304,74690,1,4,3:0:0:0:
340,209,74877,1,4,3:0:0:0:
369,238,74971,1,4,3:0:0:0:
412,253,75065,5,2,0:0:0:0:
424,228,75127,1,2,0:0:0:0:
435,195,75190,1,2,0:0:0:0:
425,148,75252,5,0,3:0:0:0:
444,116,75346,1,0,0:0:0:0:
477,74,75440,1,8,0:0:0:0:
152,43,75627,1,6,3:0:0:0:
248,230,75815,1,8,0:0:0:0:
365,25,76002,2,0,P|398:62|412:71,1,36,2|0,0:0|0:0,0:0:0:0:
508,200,76190,1,8,0:0:0:0:
280,45,76377,1,0,0:0:0:0:
228,218,76565,5,10,0:0:0:0:
248,230,76752,1,2,0:0:0:0:
253,252,76846,1,0,0:0:0:0:
238,275,76940,1,8,0:0:0:0:
239,295,77033,1,0,0:0:0:0:
278,327,77127,5,2,3:0:0:0:
283,336,77174,1,2,3:0:0:0:
289,349,77221,1,2,3:0:0:0:
454,150,77315,5,8,0:0:0:0:
426,123,77408,1,0,0:0:0:0:
384,123,77502,1,2,0:0:0:0:
348,151,77596,1,0,0:0:0:0:
310,171,77690,1,8,0:0:0:0:
251,157,77783,5,0,0:0:0:0:
193,102,77877,1,2,0:0:0:0:
112,88,77971,1,2,0:0:0:0:
39,143,78065,2,0,P|61:170|81:183,1,36,8|0,0:0|0:0,0:0:0:0:
161,329,78252,5,2,3:0:0:0:
183,285,78346,1,0,0:0:0:0:
177,225,78440,1,8,0:0:0:0:
456,342,78627,6,0,L|411:298,1,36,2|0,0:0|0:0,0:0:0:0:
318,174,78815,1,8,0:0:0:0:
284,221,78909,1,0,0:0:0:0:
282,282,79002,1,0,1:0:0:0:
462,132,79190,5,4,3:0:0:0:
432,85,79283,1,0,0:0:0:0:
384,71,79377,1,8,3:0:0:0:
322,73,79471,1,0,0:0:0:0:
248,31,79565,5,8,3:0:0:0:
329,246,79752,5,2,0:0:0:0:
250,241,79846,1,0,0:0:0:0:
189,164,79940,1,8,0:0:0:0:
439,347,80127,5,4,3:0:0:0:
179,102,80315,5,0,3:0:0:0:
209,201,80408,1,4,3:0:0:0:
161,276,80502,1,8,3:0:0:0:
7,62,80690,1,8,0:0:0:0:
305,42,80877,2,0,B|300:66|287:88,1,36,2|0,0:0|0:0,0:0:0:0:
323,212,81065,5,4,3:0:0:0:
317,200,81252,1,2,0:0:0:0:
319,193,81346,1,0,0:0:0:0:
323,185,81440,1,2,0:0:0:0:
456,97,81627,1,0,0:0:0:0:
441,57,81721,1,2,0:0:0:0:
433,46,81768,1,2,0:0:0:0:
410,34,81815,1,8,3:0:0:0:
311,122,82002,1,2,0:0:0:0:
425,249,82190,2,0,B|467:261|492:249|473:239,1,53.9999983520508,2|0,0:0|0:0,0:0:0:0:
485,216,82502,1,0,0:0:0:0:
477,207,82565,1,4,3:0:0:0:
293,214,82752,2,0,L|260:188,1,26.9999991760254,2|0,0:0|0:0,0:0:0:0:
141,170,82940,2,0,L|132:128,1,26.9999991760254,8|0,3:0|0:0,0:0:0:0:
185,30,83127,1,0,0:0:0:0:
142,42,83221,1,0,0:0:0:0:
96,28,83315,1,8,3:0:0:0:
19,142,83502,1,0,0:0:0:0:
97,246,83690,1,2,0:0:0:0:
211,181,83877,1,0,0:0:0:0:
309,233,84065,2,0,P|331:274|317:290,1,53.9999983520508,8|0,3:0|0:0,0:0:0:0:
364,327,84346,1,0,0:0:0:0:
428,326,84440,1,2,0:0:0:0:
345,242,84627,1,2,0:0:0:0:
309,233,84721,1,0,0:0:0:0:
263,248,84815,1,0,1:0:0:0:
138,308,85002,1,2,0:0:0:0:
93,323,85096,1,2,0:0:0:0:
48,304,85190,1,2,0:0:0:0:
35,254,85283,1,0,0:0:0:0:
68,214,85377,1,2,0:0:0:0:
121,193,85471,1,0,0:0:0:0:
117,133,85565,1,4,3:0:0:0:
282,138,85752,1,2,0:0:0:0:
283,90,85846,1,0,0:0:0:0:
234,58,85940,1,0,1:0:0:0:
444,16,86127,1,8,3:0:0:0:
424,65,86221,1,8,3:0:0:0:
445,110,86315,1,0,1:0:0:0:
452,272,86502,1,2,3:2:0:0:
427,323,86596,1,2,3:2:0:0:
372,333,86690,1,10,3:3:0:0:
329,295,86783,1,2,3:2:0:0:
339,235,86877,1,2,3:2:0:0:
399,214,86971,1,0,3:0:0:0:
452,272,87065,5,4,3:0:0:0:
424,65,87252,1,2,0:0:0:0:
437,67,87346,1,0,0:0:0:0:
468,68,87440,2,0,L|489:24,1,45,8|0,0:0|0:0,0:0:0:0:
198,23,87627,5,4,3:0:0:0:
236,246,87815,1,8,3:0:0:0:
244,271,87908,1,0,0:0:0:0:
260,293,88002,2,0,L|308:289,1,45,0|0,1:0|0:0,0:0:0:0:
482,356,88190,5,4,3:0:0:0:
490,281,88283,1,0,0:0:0:0:
450,204,88377,1,8,0:0:0:0:
370,172,88471,1,2,0:0:0:0:
260,293,88565,6,0,L|240:243,1,45,2|0,0:0|0:0,0:0:0:0:
310,348,88752,1,2,0:0:0:0:
248,365,88846,1,0,0:0:0:0:
247,157,88940,1,8,0:0:0:0:
195,173,89033,1,2,0:0:0:0:
174,189,89080,1,2,0:0:0:0:
161,217,89127,1,4,3:0:0:0:
4,79,89315,1,2,0:0:0:0:
372,48,89502,5,4,3:0:0:0:
343,95,89596,1,0,0:0:0:0:
336,147,89690,1,4,3:0:0:0:
354,209,89783,1,2,0:0:0:0:
423,245,89877,1,8,1:0:0:0:
502,224,89971,1,2,0:0:0:0:
484,310,90065,5,6,0:0:0:0:
270,96,90252,1,2,0:0:0:0:
352,75,90346,1,0,0:0:0:0:
405,117,90440,1,8,0:0:0:0:
76,199,90627,5,4,3:0:0:0:
398,23,90815,1,8,3:0:0:0:
405,117,90908,1,4,3:0:0:0:
363,185,91002,1,4,3:0:0:0:
281,218,91096,1,2,0:0:0:0:
172,208,91190,5,8,0:0:0:0:
474,62,91377,1,2,0:0:0:0:
499,103,91471,1,2,0:0:0:0:
505,199,91565,6,0,P|437:188|401:166,1,62.9999980773926,4|0,3:0|0:0,0:0:0:0:
393,184,91752,1,0,3:0:0:0:
345,202,91815,1,0,0:0:0:0:
324,238,91877,1,0,3:0:0:0:
319,296,91940,1,8,1:0:0:0:
86,91,92127,2,0,L|112:194,1,62.9999980773926,2|0,0:0|0:0,0:0:0:0:
26,241,92315,1,4,3:0:0:0:
186,34,92502,1,2,0:0:0:0:
430,164,92690,2,0,L|383:206,1,62.9999980773926,4|0,3:0|0:0,0:0:0:0:
209,316,92877,1,0,3:0:0:0:
195,294,92924,1,0,3:0:0:0:
202,261,92971,1,2,0:0:0:0:
140,155,93065,6,0,L|242:186,1,62.9999980773926,4|0,3:0|0:0,0:0:0:0:
403,95,93252,1,2,0:0:0:0:
389,82,93299,1,0,0:0:0:0:
362,74,93346,1,2,0:0:0:0:
200,173,93440,1,0,1:0:0:0:
346,288,93627,1,0,0:0:0:0:
492,61,93815,1,4,3:0:0:0:
146,56,94002,5,2,0:0:0:0:
227,102,94096,1,0,0:0:0:0:
268,190,94190,2,0,L|275:104,1,62.9999980773926,4|0,3:0|0:0,0:0:0:0:
346,288,94377,2,0,L|369:206,1,62.9999980773926,8|0,1:0|0:0,0:0:0:0:
512,384,94565,5,4,3:0:0:0:
387,133,94752,1,0,3:0:0:0:
350,133,94815,1,0,0:0:0:0:
318,115,94877,1,2,0:0:0:0:
301,75,94940,1,8,0:0:0:0:
31,188,95127,2,0,L|122:173,1,62.9999980773926,2|0,0:0|0:0,0:0:0:0:
318,22,95315,1,8,1:0:0:0:
118,215,95502,1,8,0:0:0:0:
496,206,95690,5,4,3:0:0:0:
419,187,95783,1,0,0:0:0:0:
385,116,95877,1,0,3:0:0:0:
420,44,95971,1,0,0:0:0:0:
498,35,96065,5,8,1:0:0:0:
485,317,96252,1,0,3:0:0:0:
432,315,96346,1,0,3:0:0:0:
372,287,96440,1,4,3:0:0:0:
338,226,96533,1,0,0:0:0:0:
283,170,96627,1,0,3:0:0:0:
205,173,96721,1,2,0:0:0:0:
139,229,96815,1,4,3:0:0:0:
8,354,97002,6,0,L|65:283,1,62.9999980773926,2|0,0:0|0:0,0:0:0:0:
289,32,97190,2,0,B|242:133|242:133|233:209,1,161.999995056153,4|0,0:0|0:0,0:0:0:0:
