osu file format v14

[General]
AudioFilename: how.mp3
AudioLeadIn: 0
PreviewTime: 296
Countdown: 0
SampleSet: Soft
StackLeniency: 0.2
Mode: 0
LetterboxInBreaks: 0
WidescreenStoryboard: 1

[Editor]
Bookmarks: 11943,12473,14767,23237,34532,40179,51473,62767,74061,75473
DistanceSpacing: 3
BeatDivisor: 4
GridSize: 4
TimelineZoom: 2.5

[Metadata]
Title:Heart of Witch
TitleUnicode:Heart of Witch
Artist:ReX
ArtistUnicode:ReX
Creator:DT-sama
Version:
Source:DJMAX Portable Black Square
Tags:
BeatmapID:1233971
BeatmapSetID:583111

[Difficulty]
HPDrainRate:4
CircleSize:4
OverallDifficulty:9
ApproachRate:9
SliderMultiplier:1.8
SliderTickRate:1

[Events]
//Background and Video events
0,0,"BG.jpg",0,0
//Break Periods
//Storyboard Layer 0 (Background)
//Storyboard Layer 1 (Fail)
//Storyboard Layer 2 (Pass)
//Storyboard Layer 3 (Foreground)
//Storyboard Sound Samples

[TimingPoints]
-762,352.941176470588,4,2,1,65,1,0
5943,-66.6666666666667,4,2,1,65,0,0
6296,-100,4,2,1,65,0,0
64179,-83.3333333333333,4,2,1,65,0,0
65590,-71.4285714285714,4,2,1,65,0,0
67002,-62.5,4,2,1,65,0,0
68414,-100,4,2,1,65,0,0
69826,-83.3333333333333,4,2,1,65,0,0
71237,-100,4,2,1,65,0,0

[Colours]
Combo1 : 255,83,255
Combo2 : 255,155,155
Combo3 : 249,0,94
Combo4 : 182,63,134

[HitObjects]
196,284,296,5,0,0:0:0:0:
292,260,385,1,0,0:0:0:0:
324,168,473,1,0,0:0:0:0:
292,76,561,1,0,0:0:0:0:
196,48,649,5,0,0:0:0:0:
404,236,826,1,0,0:0:0:0:
324,168,1002,1,0,0:0:0:0:
292,76,1179,1,0,0:0:0:0:
116,100,1355,6,0,L|68:208,1,90
236,240,1708,5,0,0:0:0:0:
324,168,1885,1,0,0:0:0:0:
292,76,2061,5,0,0:0:0:0:
144,180,2237,1,0,0:0:0:0:
236,344,2414,5,0,0:0:0:0:
432,192,2590,1,0,0:0:0:0:
64,112,2767,5,0,0:0:0:0:
100,84,2855,1,0,0:0:0:0:
144,84,2943,1,0,0:0:0:0:
184,108,3032,1,0,0:0:0:0:
244,148,3120,5,0,0:0:0:0:
284,172,3208,1,0,0:0:0:0:
328,172,3296,1,0,0:0:0:0:
360,140,3385,1,0,0:0:0:0:
388,68,3473,5,0,0:0:0:0:
376,332,3649,1,0,0:0:0:0:
312,244,3826,1,0,0:0:0:0:
248,160,4002,2,0,L|188:116,1,45
176,64,4179,2,0,P|152:108|64:124,1,135
24,172,4532,2,0,P|12:192|32:264,1,90
120,240,4885,5,0,0:0:0:0:
120,284,4973,1,0,0:0:0:0:
148,320,5061,1,0,0:0:0:0:
192,336,5149,1,0,0:0:0:0:
212,260,5237,5,0,0:0:0:0:
236,288,5326,1,0,0:0:0:0:
272,296,5414,1,0,0:0:0:0:
304,284,5502,1,0,0:0:0:0:
328,224,5590,5,0,0:0:0:0:
352,240,5679,1,0,0:0:0:0:
404,260,5767,5,0,0:0:0:0:
420,236,5855,1,0,0:0:0:0:
436,152,5943,6,0,P|504:216|456:312,1,202.500007724762
400,352,6296,5,0,0:0:0:0:
284,108,6473,1,0,0:0:0:0:
240,108,6561,1,0,0:0:0:0:
200,132,6649,1,0,0:0:0:0:
120,324,6826,5,0,0:0:0:0:
340,220,7003,1,0,0:0:0:0:
340,176,7091,1,0,0:0:0:0:
316,136,7179,1,0,0:0:0:0:
116,80,7355,5,0,0:0:0:0:
228,276,7532,1,0,0:0:0:0:
272,276,7620,1,0,0:0:0:0:
312,252,7708,1,0,0:0:0:0:
352,80,7885,5,0,0:0:0:0:
172,164,8062,1,0,0:0:0:0:
172,208,8150,1,0,0:0:0:0:
196,248,8238,1,0,0:0:0:0:
228,276,8326,1,0,0:0:0:0:
280,232,8414,5,0,0:0:0:0:
348,224,8502,1,0,0:0:0:0:
404,260,8590,1,0,0:0:0:0:
472,256,8679,1,0,0:0:0:0:
484,188,8767,5,0,0:0:0:0:
352,80,8943,1,0,0:0:0:0:
108,196,9120,5,0,0:0:0:0:
280,240,9296,1,0,0:0:0:0:
352,168,9385,1,0,0:0:0:0:
352,80,9473,1,0,0:0:0:0:
64,240,9649,5,0,0:0:0:0:
292,232,9826,1,0,0:0:0:0:
352,168,9914,1,0,0:0:0:0:
356,88,10002,1,0,0:0:0:0:
32,280,10179,5,0,0:0:0:0:
300,224,10355,1,0,0:0:0:0:
352,168,10443,1,0,0:0:0:0:
356,96,10532,1,0,0:0:0:0:
0,320,10708,5,0,0:0:0:0:
308,220,10885,1,0,0:0:0:0:
352,168,10973,1,0,0:0:0:0:
356,96,11061,1,0,0:0:0:0:
312,48,11149,1,0,0:0:0:0:
232,92,11237,5,0,0:0:0:0:
140,96,11326,1,0,0:0:0:0:
68,40,11414,1,0,0:0:0:0:
16,112,11502,1,0,0:0:0:0:
64,188,11590,6,0,L|56:228,4,22.5
204,356,11943,5,0,0:0:0:0:
256,92,12120,1,0,0:0:0:0:
388,216,12296,1,0,0:0:0:0:
424,60,12473,5,0,0:0:0:0:
164,224,12650,1,0,0:0:0:0:
384,296,12826,1,0,0:0:0:0:
104,76,13002,5,0,0:0:0:0:
308,28,13355,5,0,0:0:0:0:
256,292,13532,1,0,0:0:0:0:
124,168,13708,1,0,0:0:0:0:
88,324,13885,5,0,0:0:0:0:
348,160,14062,1,0,0:0:0:0:
128,88,14238,1,0,0:0:0:0:
408,308,14414,5,0,0:0:0:0:
196,376,14767,5,0,0:0:0:0:
257,67,14944,1,0,0:0:0:0:
412,212,15120,1,0,0:0:0:0:
454,29,15297,5,0,0:0:0:0:
150,221,15474,1,0,0:0:0:0:
407,305,15650,1,0,0:0:0:0:
79,48,15826,5,0,0:0:0:0:
80,260,16179,5,0,0:0:0:0:
164,288,16267,1,0,0:0:0:0:
252,272,16355,1,0,0:0:0:0:
300,196,16443,1,0,0:0:0:0:
456,132,16532,5,0,0:0:0:0:
448,160,16620,1,0,0:0:0:0:
440,184,16708,1,0,0:0:0:0:
432,208,16796,1,0,0:0:0:0:
396,356,16885,5,0,0:0:0:0:
336,324,16973,1,0,0:0:0:0:
304,264,17061,1,0,0:0:0:0:
300,196,17149,1,0,0:0:0:0:
340,64,17237,5,0,0:0:0:0:
321,54,17325,1,0,0:0:0:0:
301,45,17413,1,0,0:0:0:0:
282,36,17502,1,0,0:0:0:0:
160,40,17590,5,0,0:0:0:0:
176,328,17767,1,0,0:0:0:0:
400,176,17943,1,0,0:0:0:0:
240,108,18120,5,0,0:0:0:0:
272,272,18296,1,0,0:0:0:0:
400,176,18473,1,0,0:0:0:0:
96,204,18649,5,0,0:0:0:0:
364,328,19002,5,0,0:0:0:0:
372,56,19179,1,0,0:0:0:0:
96,204,19355,1,0,0:0:0:0:
208,336,19532,5,0,0:0:0:0:
276,172,19708,1,0,0:0:0:0:
96,204,19885,1,0,0:0:0:0:
364,328,20061,5,0,0:0:0:0:
136,40,20414,5,0,0:0:0:0:
220,76,20502,1,0,0:0:0:0:
256,156,20590,1,0,0:0:0:0:
224,240,20679,1,0,0:0:0:0:
148,292,20767,5,0,0:0:0:0:
212,268,20855,1,0,0:0:0:0:
280,280,20943,5,0,0:0:0:0:
336,16,21120,1,0,0:0:0:0:
164,160,21296,1,0,0:0:0:0:
484,296,21473,5,0,0:0:0:0:
344,172,21826,5,0,0:0:0:0:
235,150,21914,1,0,0:0:0:0:
130,191,22002,1,0,0:0:0:0:
62,279,22090,1,0,0:0:0:0:
209,363,22179,5,0,0:0:0:0:
214,298,22267,1,0,0:0:0:0:
182,237,22355,1,0,0:0:0:0:
130,191,22443,1,0,0:0:0:0:
228,18,22532,5,0,0:0:0:0:
232,61,22620,1,0,0:0:0:0:
232,106,22708,1,0,0:0:0:0:
235,150,22796,1,0,0:0:0:0:
390,211,22885,5,0,0:0:0:0:
374,198,22973,1,0,0:0:0:0:
359,185,23061,1,0,0:0:0:0:
344,172,23149,1,0,0:0:0:0:
348,67,23237,5,0,0:0:0:0:
104,320,23590,5,0,0:0:0:0:
128,232,23679,1,0,0:0:0:0:
204,184,23767,1,0,0:0:0:0:
292,196,23855,1,0,0:0:0:0:
238,353,23943,5,0,0:0:0:0:
214,287,24032,1,0,0:0:0:0:
231,221,24120,1,0,0:0:0:0:
292,196,24208,1,0,0:0:0:0:
328,304,24296,5,0,0:0:0:0:
288,280,24385,1,0,0:0:0:0:
276,236,24473,1,0,0:0:0:0:
292,196,24561,1,0,0:0:0:0:
340,232,24649,5,0,0:0:0:0:
319,235,24737,1,0,0:0:0:0:
302,224,24826,1,0,0:0:0:0:
290,203,24914,1,0,0:0:0:0:
320,124,25002,5,0,0:0:0:0:
292,112,25090,1,0,0:0:0:0:
264,100,25179,1,0,0:0:0:0:
236,88,25267,1,0,0:0:0:0:
212,16,25355,5,0,0:0:0:0:
196,24,25443,1,0,0:0:0:0:
180,32,25532,1,0,0:0:0:0:
164,40,25620,1,0,0:0:0:0:
96,88,25708,6,0,L|60:128,1,45
100,220,25885,2,0,L|100:280,1,45
240,272,26061,6,0,P|204:208|224:136,1,135
384,76,26414,5,0,0:0:0:0:
344,100,26502,1,0,0:0:0:0:
328,144,26590,1,0,0:0:0:0:
332,188,26679,1,0,0:0:0:0:
356,280,26767,5,0,0:0:0:0:
400,252,26855,1,0,0:0:0:0:
420,204,26943,1,0,0:0:0:0:
412,152,27032,1,0,0:0:0:0:
384,76,27120,5,0,0:0:0:0:
448,84,27208,1,0,0:0:0:0:
488,132,27296,1,0,0:0:0:0:
484,196,27385,1,0,0:0:0:0:
456,280,27473,5,0,0:0:0:0:
413,263,27561,1,0,0:0:0:0:
342,275,27649,1,0,0:0:0:0:
301,262,27737,1,0,0:0:0:0:
274,182,27826,5,0,0:0:0:0:
241,170,27914,1,0,0:0:0:0:
170,212,28002,1,0,0:0:0:0:
141,199,28090,1,0,0:0:0:0:
143,119,28179,5,0,0:0:0:0:
100,128,28267,1,0,0:0:0:0:
20,96,28355,1,0,0:0:0:0:
4,143,28443,1,0,0:0:0:0:
3,239,28532,5,0,0:0:0:0:
46,289,28620,1,0,0:0:0:0:
120,342,28708,1,0,0:0:0:0:
184,320,28796,1,0,0:0:0:0:
240,225,28885,5,0,0:0:0:0:
408,60,29237,5,0,0:0:0:0:
412,152,29326,1,0,0:0:0:0:
368,232,29414,1,0,0:0:0:0:
284,268,29502,1,0,0:0:0:0:
108,264,29590,5,0,0:0:0:0:
128,188,29679,1,0,0:0:0:0:
188,144,29767,1,0,0:0:0:0:
264,144,29855,1,0,0:0:0:0:
284,368,29943,5,0,0:0:0:0:
215,352,30032,1,0,0:0:0:0:
170,303,30120,1,0,0:0:0:0:
172,235,30208,1,0,0:0:0:0:
217,37,30296,5,0,0:0:0:0:
264,70,30385,1,0,0:0:0:0:
277,126,30473,1,0,0:0:0:0:
244,172,30561,1,0,0:0:0:0:
27,138,30649,5,0,0:0:0:0:
65,109,30737,1,0,0:0:0:0:
113,110,30826,1,0,0:0:0:0:
158,135,30914,1,0,0:0:0:0:
188,268,31002,5,0,0:0:0:0:
148,264,31090,1,0,0:0:0:0:
112,244,31179,1,0,0:0:0:0:
96,208,31267,1,0,0:0:0:0:
158,135,31355,5,0,0:0:0:0:
176,124,31443,1,0,0:0:0:0:
196,112,31532,1,0,0:0:0:0:
216,100,31620,1,0,0:0:0:0:
312,32,31708,5,0,0:0:0:0:
112,344,32061,5,0,0:0:0:0:
116,232,32149,1,0,0:0:0:0:
176,136,32237,1,0,0:0:0:0:
284,108,32326,1,0,0:0:0:0:
388,332,32414,5,0,0:0:0:0:
308,292,32502,1,0,0:0:0:0:
276,208,32590,1,0,0:0:0:0:
292,120,32679,1,0,0:0:0:0:
416,4,32767,5,0,0:0:0:0:
412,72,32855,1,0,0:0:0:0:
372,124,32943,1,0,0:0:0:0:
304,132,33032,1,0,0:0:0:0:
92,120,33120,5,0,0:0:0:0:
164,68,33208,1,0,0:0:0:0:
252,76,33296,1,0,0:0:0:0:
312,144,33385,1,0,0:0:0:0:
456,236,33473,5,0,0:0:0:0:
368,308,33561,1,0,0:0:0:0:
256,292,33649,1,0,0:0:0:0:
192,200,33737,1,0,0:0:0:0:
360,56,33826,5,0,0:0:0:0:
464,96,33914,1,0,0:0:0:0:
424,200,34002,1,0,0:0:0:0:
320,160,34090,1,0,0:0:0:0:
216,80,34179,5,0,0:0:0:0:
88,120,34267,1,0,0:0:0:0:
68,252,34355,1,0,0:0:0:0:
160,352,34443,1,0,0:0:0:0:
388,128,34708,5,0,0:0:0:0:
200,248,35061,5,0,0:0:0:0:
192,268,35149,1,0,0:0:0:0:
188,308,35237,5,0,0:0:0:0:
220,324,35326,1,0,0:0:0:0:
256,324,35414,1,0,0:0:0:0:
288,308,35502,1,0,0:0:0:0:
344,248,35590,1,0,0:0:0:0:
312,232,35679,1,0,0:0:0:0:
276,232,35767,1,0,0:0:0:0:
244,248,35855,1,0,0:0:0:0:
288,308,35943,5,0,0:0:0:0:
415,180,36120,1,0,0:0:0:0:
288,53,36296,1,0,0:0:0:0:
160,180,36473,1,0,0:0:0:0:
272,180,36649,1,0,0:0:0:0:
272,67,36826,5,0,0:0:0:0:
252,60,36914,1,0,0:0:0:0:
159,67,37002,1,0,0:0:0:0:
172,84,37090,1,0,0:0:0:0:
220,152,37179,1,0,0:0:0:0:
232,136,37267,1,0,0:0:0:0:
236,52,37355,5,0,0:0:0:0:
80,208,37532,5,0,0:0:0:0:
384,248,37885,5,0,0:0:0:0:
360,232,37973,1,0,0:0:0:0:
296,200,38061,5,0,0:0:0:0:
252,208,38149,1,0,0:0:0:0:
220,240,38237,1,0,0:0:0:0:
212,284,38326,1,0,0:0:0:0:
300,328,38414,1,0,0:0:0:0:
236,304,38502,1,0,0:0:0:0:
172,316,38590,1,0,0:0:0:0:
128,368,38679,1,0,0:0:0:0:
40,328,38767,6,0,P|40:264|112:192,1,135
176,244,39120,5,0,0:0:0:0:
220,232,39208,1,0,0:0:0:0:
248,200,39296,1,0,0:0:0:0:
252,156,39385,1,0,0:0:0:0:
172,168,39473,1,0,0:0:0:0:
128,156,39561,1,0,0:0:0:0:
100,124,39649,1,0,0:0:0:0:
96,80,39738,1,0,0:0:0:0:
104,0,39826,5,0,0:0:0:0:
148,12,39914,1,0,0:0:0:0:
176,44,40002,1,0,0:0:0:0:
180,88,40091,1,0,0:0:0:0:
172,168,40179,5,0,0:0:0:0:
136,332,40355,2,0,P|248:320|276:272,1,135
284,172,40708,5,0,0:0:0:0:
304,148,40796,1,0,0:0:0:0:
368,88,40885,5,0,0:0:0:0:
396,136,40973,1,0,0:0:0:0:
388,188,41061,1,0,0:0:0:0:
348,224,41149,1,0,0:0:0:0:
469,237,41237,5,0,0:0:0:0:
428,256,41325,1,0,0:0:0:0:
384,251,41413,1,0,0:0:0:0:
348,224,41501,1,0,0:0:0:0:
304,148,41590,5,0,0:0:0:0:
96,320,41767,1,0,0:0:0:0:
276,320,41943,1,0,0:0:0:0:
96,96,42120,2,0,P|184:144|232:128,1,135
328,56,42473,5,0,0:0:0:0:
352,120,42561,1,0,0:0:0:0:
332,184,42649,1,0,0:0:0:0:
272,216,42737,1,0,0:0:0:0:
204,200,42826,1,0,0:0:0:0:
144,228,42914,1,0,0:0:0:0:
132,296,43002,5,0,0:0:0:0:
264,116,43179,1,0,0:0:0:0:
220,280,43532,5,0,0:0:0:0:
248,296,43620,1,0,0:0:0:0:
320,344,43708,5,0,0:0:0:0:
344,296,43796,1,0,0:0:0:0:
328,244,43885,1,0,0:0:0:0:
284,216,43973,1,0,0:0:0:0:
165,97,44061,5,0,0:0:0:0:
174,160,44149,1,0,0:0:0:0:
220,204,44237,1,0,0:0:0:0:
284,216,44326,1,0,0:0:0:0:
264,116,44414,5,0,0:0:0:0:
456,36,44767,5,0,0:0:0:0:
432,96,44855,1,0,0:0:0:0:
412,156,44943,1,0,0:0:0:0:
392,216,45032,1,0,0:0:0:0:
324,384,45120,5,0,0:0:0:0:
304,344,45208,1,0,0:0:0:0:
284,304,45296,1,0,0:0:0:0:
264,264,45385,1,0,0:0:0:0:
212,124,45473,5,0,0:0:0:0:
196,152,45561,1,0,0:0:0:0:
180,180,45649,1,0,0:0:0:0:
164,208,45737,1,0,0:0:0:0:
68,264,45826,5,0,0:0:0:0:
164,208,46002,1,0,0:0:0:0:
264,264,46179,1,0,0:0:0:0:
392,216,46355,1,0,0:0:0:0:
500,360,46532,5,0,0:0:0:0:
292,148,46708,1,0,0:0:0:0:
172,276,46885,1,0,0:0:0:0:
68,180,47061,1,0,0:0:0:0:
172,80,47237,5,0,0:0:0:0:
249,281,47414,1,0,0:0:0:0:
450,204,47590,1,0,0:0:0:0:
372,2,47767,1,0,0:0:0:0:
103,262,47943,5,0,0:0:0:0:
172,80,48120,1,0,0:0:0:0:
353,150,48296,1,0,0:0:0:0:
283,332,48473,1,0,0:0:0:0:
103,262,48649,5,0,0:0:0:0:
156,188,48737,1,0,0:0:0:0:
240,152,48826,1,0,0:0:0:0:
328,172,48914,1,0,0:0:0:0:
416,332,49002,5,0,0:0:0:0:
344,312,49090,1,0,0:0:0:0:
308,244,49179,1,0,0:0:0:0:
328,172,49267,1,0,0:0:0:0:
484,88,49355,5,0,0:0:0:0:
460,152,49443,1,0,0:0:0:0:
396,180,49532,1,0,0:0:0:0:
328,172,49620,1,0,0:0:0:0:
264,32,49708,5,0,0:0:0:0:
316,60,49796,1,0,0:0:0:0:
340,116,49885,1,0,0:0:0:0:
328,172,49973,1,0,0:0:0:0:
220,228,50061,5,0,0:0:0:0:
244,188,50149,1,0,0:0:0:0:
284,168,50237,1,0,0:0:0:0:
328,172,50326,1,0,0:0:0:0:
412,192,50414,5,0,0:0:0:0:
388,232,50502,1,0,0:0:0:0:
348,252,50590,1,0,0:0:0:0:
304,248,50679,1,0,0:0:0:0:
220,228,50767,5,0,0:0:0:0:
164,192,50855,1,0,0:0:0:0:
96,192,50943,1,0,0:0:0:0:
40,232,51032,1,0,0:0:0:0:
16,320,51120,5,0,0:0:0:0:
104,300,51208,1,0,0:0:0:0:
152,224,51296,1,0,0:0:0:0:
136,136,51385,1,0,0:0:0:0:
68,36,51473,5,0,0:0:0:0:
88,60,51561,1,0,0:0:0:0:
176,48,51649,1,0,0:0:0:0:
196,72,51737,1,0,0:0:0:0:
244,152,51826,1,0,0:0:0:0:
68,348,52002,5,0,0:0:0:0:
244,152,52179,1,0,0:0:0:0:
92,184,52355,1,0,0:0:0:0:
464,304,52532,5,0,0:0:0:0:
460,320,52708,5,0,0:0:0:0:
456,336,52796,1,0,0:0:0:0:
420,332,52885,5,0,0:0:0:0:
400,308,52973,1,0,0:0:0:0:
312,320,53061,1,0,0:0:0:0:
292,296,53149,1,0,0:0:0:0:
244,216,53238,1,0,0:0:0:0:
68,20,53414,5,0,0:0:0:0:
244,216,53591,1,0,0:0:0:0:
92,184,53767,1,0,0:0:0:0:
376,16,53944,5,0,0:0:0:0:
412,224,54120,5,0,0:0:0:0:
400,236,54208,1,0,0:0:0:0:
364,252,54296,5,0,0:0:0:0:
340,232,54385,1,0,0:0:0:0:
264,192,54473,1,0,0:0:0:0:
244,216,54561,1,0,0:0:0:0:
284,296,54649,1,0,0:0:0:0:
376,16,54826,5,0,0:0:0:0:
284,296,55002,1,0,0:0:0:0:
216,104,55179,1,0,0:0:0:0:
488,332,55355,5,0,0:0:0:0:
396,256,55532,5,0,0:0:0:0:
404,220,55620,1,0,0:0:0:0:
376,128,55708,5,0,0:0:0:0:
292,100,55796,1,0,0:0:0:0:
204,116,55884,1,0,0:0:0:0:
156,192,55972,1,0,0:0:0:0:
0,256,56061,5,0,0:0:0:0:
8,228,56149,1,0,0:0:0:0:
16,204,56237,1,0,0:0:0:0:
24,180,56325,1,0,0:0:0:0:
60,32,56414,5,0,0:0:0:0:
120,64,56502,1,0,0:0:0:0:
152,124,56590,1,0,0:0:0:0:
156,192,56678,1,0,0:0:0:0:
116,324,56766,5,0,0:0:0:0:
135,334,56854,1,0,0:0:0:0:
155,343,56942,1,0,0:0:0:0:
174,352,57031,1,0,0:0:0:0:
324,304,57119,5,0,0:0:0:0:
388,280,57208,1,0,0:0:0:0:
420,220,57296,1,0,0:0:0:0:
420,153,57385,1,0,0:0:0:0:
400,88,57473,1,0,0:0:0:0:
120,384,57649,5,0,0:0:0:0:
412,72,57826,1,0,0:0:0:0:
120,92,58002,1,0,0:0:0:0:
488,348,58179,5,0,0:0:0:0:
404,164,58355,5,0,0:0:0:0:
368,180,58443,1,0,0:0:0:0:
312,232,58532,5,0,0:0:0:0:
272,176,58620,1,0,0:0:0:0:
208,160,58708,1,0,0:0:0:0:
140,172,58796,1,0,0:0:0:0:
92,224,58885,1,0,0:0:0:0:
440,16,59061,5,0,0:0:0:0:
76,240,59238,1,0,0:0:0:0:
348,336,59414,1,0,0:0:0:0:
64,44,59591,5,0,0:0:0:0:
344,228,59767,5,0,0:0:0:0:
320,192,59855,1,0,0:0:0:0:
256,120,59943,5,0,0:0:0:0:
204,196,60032,1,0,0:0:0:0:
116,208,60120,1,0,0:0:0:0:
40,160,60208,1,0,0:0:0:0:
136,44,60296,5,0,0:0:0:0:
116,108,60385,1,0,0:0:0:0:
140,172,60473,1,0,0:0:0:0:
204,196,60561,1,0,0:0:0:0:
256,120,60649,5,0,0:0:0:0:
200,296,60826,5,0,0:0:0:0:
384,368,61002,5,0,0:0:0:0:
392,332,61090,1,0,0:0:0:0:
400,296,61179,1,0,0:0:0:0:
408,260,61267,1,0,0:0:0:0:
344,172,61355,5,0,0:0:0:0:
235,150,61443,1,0,0:0:0:0:
130,191,61531,1,0,0:0:0:0:
62,279,61619,1,0,0:0:0:0:
209,363,61708,5,0,0:0:0:0:
214,298,61796,1,0,0:0:0:0:
182,237,61884,1,0,0:0:0:0:
130,191,61972,1,0,0:0:0:0:
228,18,62061,5,0,0:0:0:0:
232,61,62149,1,0,0:0:0:0:
232,106,62237,1,0,0:0:0:0:
235,150,62325,1,0,0:0:0:0:
390,211,62414,5,0,0:0:0:0:
374,198,62502,1,0,0:0:0:0:
359,185,62590,1,0,0:0:0:0:
344,172,62678,1,0,0:0:0:0:
304,80,62767,5,0,0:0:0:0:
200,268,62943,5,0,0:0:0:0:
188,288,63032,1,0,0:0:0:0:
112,304,63120,5,0,0:0:0:0:
96,264,63208,1,0,0:0:0:0:
100,220,63296,1,0,0:0:0:0:
128,184,63385,1,0,0:0:0:0:
296,184,63473,2,0,P|212:164|176:128,1,135
384,88,63826,2,0,P|456:64|528:88,1,135
428,216,64179,6,0,P|422:260|320:312,1,161.999995056153
112,304,64532,5,0,0:0:0:0:
84,256,64620,1,0,0:0:0:0:
92,204,64708,1,0,0:0:0:0:
124,160,64797,1,0,0:0:0:0:
296,184,64885,2,0,P|212:164|168:92,1,161.999995056153
384,88,65238,2,0,P|456:64|536:92,1,161.999995056153
428,216,65591,6,0,P|422:260|304:320,1,188.999994232178
112,304,65943,5,0,0:0:0:0:
80,252,66031,1,0,0:0:0:0:
80,188,66119,1,0,0:0:0:0:
116,136,66208,1,0,0:0:0:0:
296,184,66296,2,0,P|212:164|160:72,1,188.999994232178
384,88,66649,2,0,P|456:64|564:116,1,188.999994232178
428,216,67002,6,0,P|422:260|264:324,1,216
112,304,67355,5,0,0:0:0:0:
68,248,67443,1,0,0:0:0:0:
72,176,67531,1,0,0:0:0:0:
116,116,67620,1,0,0:0:0:0:
296,184,67708,2,0,P|212:164|156:48,1,216
384,88,68061,2,0,P|456:64|580:128,1,216
448,212,68414,6,0,P|428:275|375:314,1,135
196,272,68767,5,0,0:0:0:0:
172,236,68855,1,0,0:0:0:0:
172,192,68943,1,0,0:0:0:0:
192,152,69032,1,0,0:0:0:0:
260,68,69120,2,0,P|284:120|256:208,1,135
344,112,69473,5,0,0:0:0:0:
360,128,69561,1,0,0:0:0:0:
376,144,69649,1,0,0:0:0:0:
392,160,69737,1,0,0:0:0:0:
479,220,69826,6,0,P|456:297|392:344,1,161.999995056153
176,292,70179,5,0,0:0:0:0:
148,249,70267,1,0,0:0:0:0:
148,196,70355,1,0,0:0:0:0:
172,148,70444,1,0,0:0:0:0:
253,48,70532,2,0,P|282:110|248:216,1,161.999995056153
354,100,70885,5,0,0:0:0:0:
373,120,70973,1,0,0:0:0:0:
392,139,71061,1,0,0:0:0:0:
412,158,71149,1,0,0:0:0:0:
444,256,71237,5,0,0:0:0:0:
376,318,71326,1,0,0:0:0:0:
287,338,71414,1,0,0:0:0:0:
205,298,71502,1,0,0:0:0:0:
92,163,71590,5,0,0:0:0:0:
162,128,71679,1,0,0:0:0:0:
235,145,71767,1,0,0:0:0:0:
285,201,71855,1,0,0:0:0:0:
129,363,71943,5,0,0:0:0:0:
96,301,72032,1,0,0:0:0:0:
104,234,72120,1,0,0:0:0:0:
156,192,72208,1,0,0:0:0:0:
335,96,72296,5,0,0:0:0:0:
341,153,72385,1,0,0:0:0:0:
307,200,72473,1,0,0:0:0:0:
251,205,72561,1,0,0:0:0:0:
134,20,72649,5,0,0:0:0:0:
181,28,72737,1,0,0:0:0:0:
212,65,72826,1,0,0:0:0:0:
222,116,72914,1,0,0:0:0:0:
142,226,73002,5,0,0:0:0:0:
119,193,73090,1,0,0:0:0:0:
110,152,73179,1,0,0:0:0:0:
127,116,73267,1,0,0:0:0:0:
222,116,73355,5,0,0:0:0:0:
242,122,73443,1,0,0:0:0:0:
265,129,73532,1,0,0:0:0:0:
287,136,73620,1,0,0:0:0:0:
401,165,73708,5,0,0:0:0:0:
384,252,73796,1,0,0:0:0:0:
304,296,73885,1,0,0:0:0:0:
216,288,73973,1,0,0:0:0:0:
127,116,74061,5,0,0:0:0:0:
416,332,74414,5,0,0:0:0:0:
384,248,74502,1,0,0:0:0:0:
312,192,74590,1,0,0:0:0:0:
220,192,74679,1,0,0:0:0:0:
160,344,74767,5,0,0:0:0:0:
224,320,74855,1,0,0:0:0:0:
244,256,74943,1,0,0:0:0:0:
220,192,75032,1,0,0:0:0:0:
116,128,75120,5,0,0:0:0:0:
136,168,75208,1,0,0:0:0:0:
176,192,75296,1,0,0:0:0:0:
220,192,75385,1,0,0:0:0:0:
308,172,75473,5,0,0:0:0:0:
288,132,75561,1,0,0:0:0:0:
248,108,75649,1,0,0:0:0:0:
204,108,75738,1,0,0:0:0:0:
220,192,75826,5,0,0:0:0:0:
264,244,75914,1,0,0:0:0:0:
328,260,76002,1,0,0:0:0:0:
392,244,76090,1,0,0:0:0:0:
480,176,76179,5,0,0:0:0:0:
408,204,76267,1,0,0:0:0:0:
388,276,76355,1,0,0:0:0:0:
416,348,76443,1,0,0:0:0:0:
492,364,76532,5,0,0:0:0:0:
416,348,76620,1,0,0:0:0:0:
340,352,76708,1,0,0:0:0:0:
264,340,76796,1,0,0:0:0:0:
204,276,76885,5,0,0:0:0:0:
400,24,77237,5,0,0:0:0:0:
396,136,77325,1,0,0:0:0:0:
336,232,77413,1,0,0:0:0:0:
228,260,77502,1,0,0:0:0:0:
124,36,77590,5,0,0:0:0:0:
204,76,77678,1,0,0:0:0:0:
236,160,77766,1,0,0:0:0:0:
220,248,77855,1,0,0:0:0:0:
96,364,77943,5,0,0:0:0:0:
100,296,78031,1,0,0:0:0:0:
140,244,78119,1,0,0:0:0:0:
208,236,78208,1,0,0:0:0:0:
420,248,78296,5,0,0:0:0:0:
348,300,78384,1,0,0:0:0:0:
260,292,78472,1,0,0:0:0:0:
200,224,78561,1,0,0:0:0:0:
56,132,78649,5,0,0:0:0:0:
144,60,78737,1,0,0:0:0:0:
256,76,78825,1,0,0:0:0:0:
320,168,78913,1,0,0:0:0:0:
152,312,79002,5,0,0:0:0:0:
48,272,79090,1,0,0:0:0:0:
88,168,79178,1,0,0:0:0:0:
192,208,79266,1,0,0:0:0:0:
296,288,79355,5,0,0:0:0:0:
424,248,79443,1,0,0:0:0:0:
444,116,79531,1,0,0:0:0:0:
352,16,79619,1,0,0:0:0:0:
240,92,79708,5,0,0:0:0:0:
188,264,80061,5,0,0:0:0:0:
188,264,80149,1,0,0:0:0:0:
322,264,80237,1,0,0:0:0:0:
322,264,80326,1,0,0:0:0:0:
322,128,80414,1,0,0:0:0:0:
322,128,80502,1,0,0:0:0:0:
187,128,80590,1,0,0:0:0:0:
187,128,80679,1,0,0:0:0:0:
190,290,80767,5,0,0:0:0:0:
188,288,80855,1,0,0:0:0:0:
348,262,80943,1,0,0:0:0:0:
348,262,81032,1,0,0:0:0:0:
320,101,81120,5,0,0:0:0:0:
320,104,81208,1,0,0:0:0:0:
160,129,81296,1,0,0:0:0:0:
160,128,81385,1,0,0:0:0:0:
199,317,81473,5,0,0:0:0:0:
199,317,81561,1,0,0:0:0:0:
375,253,81649,1,0,0:0:0:0:
375,253,81737,1,0,0:0:0:0:
310,74,81826,1,0,0:0:0:0:
310,74,81914,1,0,0:0:0:0:
133,139,82002,1,0,0:0:0:0:
132,140,82090,1,0,0:0:0:0:
216,343,82179,5,0,0:0:0:0:
402,236,82267,1,0,0:0:0:0:
293,47,82355,1,0,0:0:0:0:
106,155,82443,1,0,0:0:0:0:
256,196,82532,5,0,0:0:0:0:
68,328,83237,5,0,0:0:0:0:
256,196,83767,5,0,0:0:0:0:
68,328,83855,1,0,0:0:0:0:
256,196,83943,5,0,0:0:0:0:
