osu file format v14

[General]
AudioFilename: audio.mp3
AudioLeadIn: 0
PreviewTime: 63254
Countdown: 0
SampleSet: Drum
StackLeniency: 0.7
Mode: 0
LetterboxInBreaks: 0
WidescreenStoryboard: 1

[Editor]
DistanceSpacing: 0.8
BeatDivisor: 4
GridSize: 32
TimelineZoom: 3.499998

[Metadata]
Title:entelecheia
TitleUnicode:entelecheia
Artist:Rche
ArtistUnicode:Rche
Creator:VINXIS
Version:Muya's Extra
Source:beatmania IIDX 22 PENDUAL
Tags:todestrieb electronic video game music vgm edm dance sacred trance piano instrumental bemani zektbach tomosuke funaki reflec beat groovin'!! upper 舟木智介 apaffy kisata fanzhen0019 Macuilxochitl Muya dubturt uberzolik xlolicore- lolicore
BeatmapID:2486692
BeatmapSetID:1163688

[Difficulty]
HPDrainRate:8
CircleSize:5
OverallDifficulty:9
ApproachRate:9
SliderMultiplier:1.8
SliderTickRate:1

[Events]
//Background and Video events
0,0,"entelecheia.jpg",0,0
//Break Periods
//Storyboard Layer 0 (Background)
//Storyboard Layer 1 (Fail)
//Storyboard Layer 2 (Pass)
//Storyboard Layer 3 (Foreground)
//Storyboard Layer 4 (Overlay)
//Storyboard Sound Samples

[TimingPoints]
1065,324.324324324324,4,2,1,60,1,0
1065,-100,4,2,1,60,0,0
6254,-100,4,2,1,60,0,0
11443,-100,4,2,1,70,0,0
19551,-100,4,2,1,80,0,0
32200,-100,4,2,1,100,0,0
63416,-100,4,3,1,60,0,0
68524,-100,4,2,1,60,0,0
72416,-100,4,2,1,60,0,0
72740,-100,4,2,1,80,0,0
73389,-100,4,2,1,80,0,0
73713,-100,4,2,2,100,0,0
77605,-100,4,2,2,100,0,0
78902,-100,4,2,2,100,0,0
82794,-100,4,2,2,100,0,0
84092,-100,4,2,2,100,0,0
87983,-100,4,2,2,100,0,0
89281,-100,4,2,2,100,0,0
94551,-100,4,2,2,60,0,0
105983,-100,4,2,2,5,0,0

[Colours]
Combo1 : 17,254,176
Combo2 : 173,255,95
Combo3 : 255,88,100
Combo4 : 255,94,55

[HitObjects]
4,52,1065,5,6,1:2:0:0:
8,69,1146,1,0,0:0:0:0:
15,85,1227,1,0,0:0:0:0:
24,100,1308,1,0,0:0:0:0:
36,113,1389,1,0,0:0:0:0:
50,124,1470,2,0,L|102:120,2,45
64,188,1713,5,2,0:0:0:0:
63,205,1794,1,0,0:0:0:0:
61,223,1875,1,0,0:0:0:0:
56,239,1956,1,0,0:0:0:0:
51,255,2037,1,0,0:0:0:0:
44,271,2119,2,0,L|-14:266,2,45
116,256,2362,5,2,0:0:0:0:
141,247,2443,1,0,0:0:0:0:
167,245,2524,1,0,0:0:0:0:
192,251,2605,1,0,0:0:0:0:
216,264,2686,1,0,0:0:0:0:
233,283,2767,2,0,L|226:327,2,45
288,244,3010,5,2,0:0:0:0:
268,225,3092,1,0,0:0:0:0:
256,200,3174,1,0,0:0:0:0:
250,174,3255,1,0,0:0:0:0:
251,146,3336,1,0,0:0:0:0:
261,120,3416,2,0,L|286:64,2,45
316,160,3659,5,2,0:0:0:0:
332,167,3740,1,0,0:0:0:0:
349,171,3821,1,0,0:0:0:0:
366,172,3902,1,0,0:0:0:0:
383,170,3983,1,0,0:0:0:0:
400,166,4064,2,0,L|446:142,2,45
436,224,4308,5,2,0:0:0:0:
427,240,4389,1,0,0:0:0:0:
421,256,4470,1,0,0:0:0:0:
417,273,4551,1,0,0:0:0:0:
415,290,4632,1,0,0:0:0:0:
416,307,4713,2,0,L|437:370,2,45
359,343,4956,5,2,0:0:0:0:
335,329,5037,1,0,0:0:0:0:
308,323,5119,1,0,0:0:0:0:
281,324,5200,1,0,0:0:0:0:
255,332,5281,1,0,0:0:0:0:
232,347,5362,2,0,L|204:384,2,45
172,320,5605,5,2,0:0:0:0:
145,327,5686,1,0,0:0:0:0:
118,326,5767,1,0,0:0:0:0:
91,320,5848,1,0,0:0:0:0:
67,306,5929,1,0,0:0:0:0:
48,287,6010,2,0,L|28:236,2,45
128,232,6254,6,0,L|121:177,15,45,2|0|0|0|2|0|0|0|2|0|0|0|2|0|0|0,0:0|0:0|0:0|0:0|0:0|0:0|0:0|0:0|0:0|0:0|0:0|0:0|0:0|0:0|0:0|0:0,0:0:0:0:
219,199,7551,6,0,L|227:144,15,45,2|0|0|0|2|0|0|0|2|0|0|0|2|0|0|0,0:0|0:0|0:0|0:0|0:0|0:0|0:0|0:0|0:0|0:0|0:0|0:0|0:0|0:0|0:0|0:0,0:0:0:0:
315,190,8848,6,0,L|336:139,15,45,2|0|0|0|2|0|0|0|2|0|0|0|2|0|0|0,0:0|0:0|0:0|0:0|0:0|0:0|0:0|0:0|0:0|0:0|0:0|0:0|0:0|0:0|0:0|0:0,0:0:0:0:
410,206,10146,6,0,L|444:163,15,45,2|0|0|0|2|0|0|0|2|0|0|0|2|0|0|0,0:0|0:0|0:0|0:0|0:0|0:0|0:0|0:0|0:0|0:0|0:0|0:0|0:0|0:0|0:0|0:0,0:0:0:0:
484,120,11443,5,6,1:2:0:0:
408,16,11605,2,0,B|388:48|388:48|416:104,1,90,0|0,0:0|1:0,0:0:0:0:
512,200,11929,1,0,0:0:0:0:
464,280,12092,2,0,L|472:400,1,90,0|0,1:0|0:0,0:0:0:0:
368,328,12416,5,2,1:2:0:0:
296,320,12578,1,0,0:0:0:0:
224,312,12740,1,0,1:0:0:0:
344,264,12902,1,0,0:0:0:0:
256,376,13064,1,0,1:0:0:0:
136,296,13226,1,0,0:0:0:0:
0,208,13389,6,0,B|32:232|32:232|80:216,1,90,2|0,1:2|0:0,0:0:0:0:
136,144,13713,1,0,1:0:0:0:
248,264,13875,2,0,L|344:272,1,90,0|0,0:0|1:0,0:0:0:0:
408,216,14200,1,0,0:0:0:0:
508,296,14362,5,2,1:2:0:0:
428,152,14524,2,0,P|376:156|344:196,1,90,0|0,0:0|1:0,0:0:0:0:
320,264,14848,1,0,0:0:0:0:
164,204,15010,2,0,B|172:92,1,90,0|0,1:0|0:0,0:0:0:0:
236,52,15335,5,2,1:2:0:0:
80,8,15497,2,0,B|64:48|64:48|88:96,1,90,0|0,0:0|1:0,0:0:0:0:
244,172,15821,1,2,0:0:0:0:
300,0,15984,1,0,1:0:0:0:
144,48,16146,1,0,0:0:0:0:
360,152,16308,2,0,L|376:280,1,90,2|0,1:2|0:2,0:0:0:0:
496,268,16632,5,2,1:2:0:0:
400,352,16794,1,0,0:0:0:0:
464,200,16956,1,0,1:0:0:0:
512,292,17119,5,2,0:0:0:0:
392,360,17281,1,0,1:0:0:0:
432,184,17443,1,0,0:0:0:0:
296,228,17605,5,2,1:2:0:0:
192,116,17767,1,0,0:0:0:0:
208,204,17929,1,0,1:0:0:0:
144,172,18092,5,2,0:0:0:0:
284,88,18254,1,0,1:0:0:0:
240,300,18416,1,0,0:0:0:0:
92,232,18578,5,2,1:2:0:0:
264,160,18740,1,0,0:0:0:0:
264,160,18902,1,0,1:0:0:0:
48,108,19064,5,2,0:0:0:0:
264,160,19227,1,0,1:0:0:0:
264,160,19389,1,0,0:0:0:0:
168,88,19551,5,2,1:2:0:0:
392,8,19713,5,0,1:0:0:0:
384,152,19875,1,2,1:2:0:0:
312,40,20037,5,0,1:0:0:0:
328,112,20199,1,2,1:2:0:0:
456,64,20361,5,0,1:0:0:0:
224,24,20524,1,2,1:2:0:0:
184,184,20686,5,0,1:0:0:0:
472,152,20848,1,2,1:2:0:0:
336,240,21010,1,0,1:0:0:0:
380,64,21173,5,2,1:2:0:0:
428,312,21335,1,0,1:0:0:0:
360,372,21497,1,2,1:2:0:0:
344,368,21578,1,0,1:0:0:0:
328,364,21659,1,0,1:0:0:0:
312,360,21740,1,0,1:0:0:0:
296,356,21821,1,4,1:0:0:0:
40,324,22146,5,0,0:0:0:0:
16,256,22308,1,0,0:0:0:0:
48,192,22470,1,0,0:0:0:0:
80,128,22632,1,0,0:0:0:0:
56,60,22794,1,0,0:0:0:0:
264,120,23119,5,2,0:0:0:0:
292,188,23281,1,0,0:0:0:0:
220,180,23443,1,0,0:0:0:0:
220,180,23605,1,0,0:0:0:0:
176,240,23767,1,0,0:0:0:0:
248,248,23929,1,0,0:0:0:0:
320,256,24091,1,0,0:0:0:0:
472,368,24416,5,2,0:0:0:0:
464,296,24578,1,0,0:0:0:0:
408,252,24740,1,0,0:0:0:0:
420,180,24902,1,0,0:0:0:0:
432,108,25064,1,0,0:0:0:0:
244,0,25389,1,0,0:0:0:0:
256,72,25551,1,0,0:0:0:0:
312,164,25713,5,2,0:0:0:0:
244,184,25875,1,0,0:0:0:0:
190,150,26037,1,0,0:0:0:0:
190,150,26362,1,0,0:0:0:0:
190,150,26686,1,0,0:0:0:0:
32,248,27011,5,2,0:0:0:0:
20,320,27173,1,0,0:0:0:0:
76,364,27335,1,0,0:0:0:0:
88,292,27497,1,0,0:0:0:0:
204,236,27659,1,2,0:0:0:0:
216,248,27740,1,0,0:0:0:0:
228,260,27821,1,0,0:0:0:0:
220,284,27902,1,0,0:0:0:0:
212,308,27983,1,0,0:0:0:0:
144,336,28146,1,0,0:0:0:0:
296,376,28308,5,2,0:0:0:0:
364,360,28470,1,0,0:0:0:0:
316,308,28632,1,0,0:0:0:0:
296,376,28794,1,0,0:0:0:0:
424,284,28956,1,2,0:0:0:0:
436,304,29037,1,0,0:0:0:0:
448,324,29119,1,0,0:0:0:0:
432,316,29200,1,0,0:0:0:0:
416,308,29281,1,0,0:0:0:0:
400,300,29362,1,0,0:0:0:0:
384,292,29443,1,0,0:0:0:0:
224,224,29605,5,2,0:0:0:0:
236,152,29767,1,0,0:0:0:0:
264,48,29929,1,0,0:0:0:0:
248,40,30010,1,0,0:0:0:0:
232,32,30092,1,0,0:0:0:0:
240,56,30173,1,0,0:0:0:0:
248,80,30254,1,2,0:0:0:0:
316,108,30416,1,0,0:0:0:0:
364,52,30578,1,0,0:0:0:0:
432,80,30740,1,0,0:0:0:0:
496,232,30902,6,0,P|448:240|400:208,1,90,2|0,0:0|0:0,0:0:0:0:
272,360,31227,2,0,P|306:330|378:346,1,90
356,168,31551,2,0,B|332:192|332:192|340:248,1,90,2|0,0:0|0:0,0:0:0:0:
404,384,31875,2,0,B|428:360|428:360|420:304,1,90
264,272,32200,5,4,1:0:0:0:
246,275,32281,1,0,0:0:0:0:
228,278,32362,1,0,0:0:0:0:
210,281,32443,1,0,0:0:0:0:
192,284,32524,1,8,1:0:0:0:
158,270,32605,1,0,0:0:0:0:
140,238,32686,1,0,0:0:0:0:
140,202,32767,1,0,0:0:0:0:
159,171,32848,1,2,1:2:0:0:
192,158,32929,1,0,0:0:0:0:
227,163,33010,1,0,0:0:0:0:
254,186,33092,1,0,0:0:0:0:
284,205,33173,1,8,1:0:0:0:
319,211,33254,1,0,0:0:0:0:
354,206,33335,1,0,0:0:0:0:
384,187,33416,1,0,0:0:0:0:
401,155,33497,5,2,1:2:0:0:
397,139,33578,1,0,0:0:0:0:
393,123,33659,1,0,0:0:0:0:
401,87,33740,1,0,0:0:0:0:
409,51,33821,1,8,1:0:0:0:
312,0,33983,1,0,0:0:0:0:
320,36,34064,1,2,0:3:0:0:
244,84,34227,1,2,0:3:0:0:
226,85,34308,1,0,0:0:0:0:
208,84,34389,1,0,0:0:0:0:
190,81,34470,1,8,1:0:0:0:
112,36,34632,1,0,0:0:0:0:
0,124,34794,5,2,1:2:0:0:
16,128,34875,1,0,0:0:0:0:
32,132,34956,1,0,0:0:0:0:
60,156,35037,1,0,0:0:0:0:
72,192,35119,1,8,1:0:0:0:
64,228,35200,1,0,0:0:0:0:
44,256,35281,1,0,0:0:0:0:
120,380,35443,1,2,1:2:0:0:
192,328,35605,1,0,0:0:0:0:
197,310,35686,1,0,0:0:0:0:
200,292,35767,1,8,1:0:0:0:
168,208,35929,1,0,0:0:0:0:
256,116,36092,5,2,1:2:0:0:
252,100,36173,1,0,0:0:0:0:
248,84,36254,1,0,0:0:0:0:
244,68,36335,1,0,0:0:0:0:
240,52,36416,1,8,1:0:0:0:
256,20,36497,1,0,0:0:0:0:
288,4,36578,1,0,0:0:0:0:
324,4,36659,1,0,0:0:0:0:
356,20,36740,1,2,1:2:0:0:
372,60,36821,1,0,0:0:0:0:
360,104,36902,1,0,0:0:0:0:
320,128,36983,1,0,0:0:0:0:
300,168,37064,1,8,1:0:0:0:
308,212,37146,1,0,0:0:0:0:
340,244,37227,1,0,0:0:0:0:
384,244,37308,1,0,0:0:0:0:
428,228,37389,5,2,1:2:0:0:
504,280,37551,1,0,0:0:0:0:
508,296,37632,1,0,0:0:0:0:
512,312,37713,1,8,1:0:0:0:
388,384,37875,1,0,0:0:0:0:
392,368,37956,1,0,0:0:0:0:
396,352,38037,1,2,1:2:0:0:
371,324,38119,1,0,0:0:0:0:
336,315,38200,1,0,0:0:0:0:
301,323,38281,1,0,0:0:0:0:
274,347,38362,1,8,1:0:0:0:
239,355,38443,1,0,0:0:0:0:
203,348,38524,1,0,0:0:0:0:
56,240,38686,5,2,1:2:0:0:
108,164,38848,1,0,0:0:0:0:
112,180,38929,1,0,0:0:0:0:
124,168,39010,1,8,1:0:0:0:
128,184,39092,1,0,0:0:0:0:
140,172,39173,1,0,0:0:0:0:
132,136,39254,1,0,0:0:0:0:
124,100,39335,1,2,1:2:0:0:
144,60,39416,1,0,0:0:0:0:
188,52,39497,1,0,0:0:0:0:
228,72,39578,1,0,0:0:0:0:
236,116,39659,1,8,1:0:0:0:
228,132,39740,1,0,0:0:0:0:
220,148,39821,1,0,0:0:0:0:
212,164,39902,1,0,0:0:0:0:
204,180,39983,5,2,1:2:0:0:
212,216,40064,1,0,0:0:0:0:
220,252,40146,1,0,0:0:0:0:
236,248,40227,5,0,0:0:0:0:
232,276,40308,1,8,1:0:0:0:
228,304,40389,1,0,0:0:0:0:
212,300,40470,5,0,0:0:0:0:
220,336,40551,1,0,0:0:0:0:
212,352,40632,5,2,1:2:0:0:
248,344,40713,1,0,0:0:0:0:
280,356,40794,1,0,0:0:0:0:
300,384,40875,1,0,0:0:0:0:
312,372,40956,5,8,1:0:0:0:
356,384,41037,1,0,0:0:0:0:
400,380,41119,1,0,0:0:0:0:
440,360,41200,1,0,0:0:0:0:
464,324,41281,5,0,1:0:0:0:
436,288,41362,1,0,0:0:0:0:
420,284,41443,5,0,1:0:0:0:
413,238,41524,1,0,0:0:0:0:
401,226,41605,5,8,1:0:0:0:
418,183,41686,1,0,0:0:0:0:
413,166,41767,5,0,0:0:0:0:
449,137,41848,1,0,0:0:0:0:
452,120,41929,5,0,1:0:0:0:
416,92,42010,1,0,0:0:0:0:
372,96,42092,1,0,1:0:0:0:
340,128,42173,1,0,1:0:0:0:
332,144,42254,5,8,1:0:0:0:
296,156,42335,1,0,1:0:0:0:
260,148,42416,1,0,1:0:0:0:
232,124,42497,1,0,1:0:0:0:
236,108,42578,6,0,B|232:180|232:180|204:200|204:200|200:276,1,180,4|8,1:0|1:0,0:0:0:0:
128,376,43064,1,2,0:2:0:0:
88,312,43227,2,0,P|96:264|120:232,1,90,0|0,1:0|0:0,0:0:0:0:
56,96,43551,1,8,1:0:0:0:
0,140,43713,2,0,B|-15:180|-15:180|16:228,1,90,0|0,0:0|1:0,0:0:0:0:
168,296,44037,6,0,B|272:288,1,90,2|8,0:2|1:0,0:0:0:0:
312,240,44362,1,0,0:0:0:0:
424,360,44524,2,0,B|380:376|380:376|344:352,1,90,0|0,1:0|0:0,0:0:0:0:
280,172,44848,2,0,B|324:156|324:156|360:180,1,90,8|0,1:0|1:0,0:0:0:0:
480,228,45173,6,0,B|412:220|412:220|380:248|380:248|312:240,1,180,2|8,1:2|1:0,0:0:0:0:
200,304,45659,1,2,0:0:0:0:
180,232,45821,2,0,P|148:204|100:188,1,90,0|0,1:0|0:0,0:0:0:0:
0,316,46146,1,8,1:0:0:0:
48,372,46308,2,0,B|92:380|92:380|136:340,1,90,0|0,0:0|1:0,0:0:0:0:
244,244,46632,6,0,L|251:154,1,90,2|8,0:0|1:0,0:0:0:0:
224,88,46956,1,0,0:0:0:0:
352,56,47119,2,0,B|376:96|376:96|360:136,1,90,2|0,1:2|0:0,0:0:0:0:
428,284,47443,2,0,B|404:244|404:244|420:204,1,90,8|0,1:0|1:0,0:0:0:0:
504,88,47767,6,0,B|464:48|464:48|486:169,1,180,2|8,1:2|1:0,0:0:0:0:
500,296,48254,1,2,0:0:0:0:
428,284,48416,2,0,P|380:300|348:324,1,90,0|0,1:0|0:0,0:0:0:0:
192,224,48740,1,8,1:0:0:0:
256,188,48902,2,0,P|300:192|344:212,1,90,0|0,0:0|1:2,0:0:0:0:
216,312,49227,2,0,L|120:320,1,90,2|8,0:0|1:0,0:0:0:0:
76,268,49551,1,0,0:0:0:0:
56,128,49713,6,0,B|24:156|24:156|32:212,1,90,2|0,1:2|0:0,0:0:0:0:
126,319,50037,2,0,B|158:291|158:291|150:235,1,90,8|0,1:0|1:0,0:0:0:0:
176,84,50362,6,0,B|244:88|244:88|272:124|272:124|340:128,1,180,2|8,1:2|1:0,0:0:0:0:
472,88,50848,1,2,0:0:0:0:
428,28,51010,2,0,P|380:24|340:56,1,90,0|0,1:0|0:0,0:0:0:0:
208,168,51335,1,8,1:0:0:0:
272,200,51497,2,0,P|292:236|304:288,1,90,0|0,0:0|1:0,0:0:0:0:
112,384,51821,2,0,P|120:328|144:272,1,90,2|8,0:0|1:0,0:0:0:0:
192,256,52146,1,0,0:0:0:0:
268,360,52308,6,0,B|232:336|232:336|185:350,1,90,2|0,1:2|0:0,0:0:0:0:
20,216,52632,2,0,B|56:240|56:240|102:225,1,90,8|0,1:0|1:0,0:0:0:0:
208,168,52956,6,0,L|220:76,1,90,6|0,1:2|0:0,0:0:0:0:
80,32,53281,5,8,1:0:0:0:
64,40,53362,1,0,0:0:0:0:
48,48,53443,1,0,0:0:0:0:
52,64,53524,1,0,0:0:0:0:
56,80,53605,1,2,1:2:0:0:
132,128,53767,1,0,0:0:0:0:
292,24,53929,5,8,1:0:0:0:
308,28,54010,1,0,0:0:0:0:
324,32,54092,1,0,0:0:0:0:
340,36,54173,1,0,0:0:0:0:
356,40,54254,1,2,1:2:0:0:
444,60,54416,1,0,0:0:0:0:
512,156,54578,5,8,1:0:0:0:
496,152,54659,1,0,0:0:0:0:
480,148,54740,1,0,0:0:0:0:
468,160,54821,1,0,0:0:0:0:
456,172,54902,1,2,1:2:0:0:
376,216,55064,1,0,0:0:0:0:
216,184,55227,5,8,1:0:0:0:
220,200,55308,1,0,0:0:0:0:
224,216,55389,1,2,1:3:0:0:
228,232,55470,1,0,0:0:0:0:
232,248,55551,1,2,1:2:0:0:
304,304,55713,1,0,0:0:0:0:
156,368,55875,5,8,1:0:0:0:
140,364,55956,1,0,0:0:0:0:
124,360,56037,1,0,0:0:0:0:
116,344,56119,1,0,0:0:0:0:
108,328,56200,1,2,1:2:0:0:
136,244,56362,1,0,0:0:0:0:
300,164,56524,5,8,1:0:0:0:
304,148,56605,1,0,0:0:0:0:
308,132,56686,1,0,0:0:0:0:
312,116,56767,1,0,0:0:0:0:
316,100,56848,1,2,1:2:0:0:
284,16,57010,1,0,0:0:0:0:
160,68,57173,5,8,1:0:0:0:
148,80,57254,1,0,0:0:0:0:
136,92,57335,1,0,0:0:0:0:
140,108,57416,1,0,0:0:0:0:
144,124,57497,1,2,1:2:0:0:
212,180,57659,1,0,0:0:0:0:
384,116,57821,1,8,1:0:0:0:
400,120,57902,1,0,0:0:0:0:
416,124,57983,1,2,1:3:0:0:
432,128,58064,1,0,0:0:0:0:
448,132,58146,6,0,L|456:12,2,90,2|0|8,1:2|0:0|1:0,0:0:0:0:
480,192,58551,1,0,0:0:0:0:
476,208,58632,1,0,0:0:0:0:
468,224,58713,1,0,0:0:0:0:
456,236,58794,2,0,L|388:224,1,45,2|0,1:2|0:0,0:0:0:0:
352,260,58956,2,0,L|284:248,1,45
256,208,59119,5,8,1:0:0:0:
238,209,59200,1,0,0:0:0:0:
221,215,59281,1,0,0:0:0:0:
206,225,59362,1,0,0:0:0:0:
196,240,59443,2,0,L|172:336,2,90,2|0|8,1:2|0:0|1:0,0:0:0:0:
136,208,59848,1,0,0:0:0:0:
132,192,59929,1,0,0:0:0:0:
128,176,60010,1,0,0:0:0:0:
124,160,60092,2,0,L|112:112,1,45,2|0,1:2|0:0,0:0:0:0:
52,84,60254,2,0,L|40:36,1,45
140,4,60416,5,8,1:0:0:0:
156,2,60497,1,0,0:0:0:0:
174,4,60578,1,2,1:3:0:0:
189,11,60659,1,0,0:0:0:0:
202,23,60740,2,0,L|196:80,1,45,2|0,1:2|0:0,0:0:0:0:
328,164,60902,2,0,P|360:156|376:148,1,45
320,76,61064,5,8,1:0:0:0:
303,75,61145,1,0,0:0:0:0:
286,78,61226,1,0,0:0:0:0:
271,87,61307,1,0,0:0:0:0:
259,100,61388,2,0,L|264:156,1,45,2|0,1:2|0:0,0:0:0:0:
368,248,61551,2,0,L|363:304,1,45
304,384,61713,1,8,1:0:0:0:
288,380,61794,1,0,0:0:0:0:
272,376,61875,1,0,0:0:0:0:
256,372,61956,1,0,0:0:0:0:
240,368,62037,5,2,1:2:0:0:
0,288,62200,1,0,1:0:0:0:
248,144,62362,1,8,1:0:0:0:
160,280,62524,1,0,1:0:0:0:
136,28,62686,1,2,1:2:0:0:
504,112,62929,5,0,1:0:0:0:
512,128,63010,1,8,1:0:0:0:
496,216,63173,1,0,1:0:0:0:
480,304,63335,6,0,B|424:312|424:312|388:288|388:288|288:304,1,180,4|2,1:0|0:2,0:0:0:0:
309,300,63983,1,2,0:2:0:0:
48,240,64308,1,2,0:2:0:0:
160,360,64470,1,2,0:2:0:0:
72,384,64632,6,0,B|80:312|80:312|120:288|120:288|128:224,1,180,2|2,0:2|0:2,0:0:0:0:
8,112,65281,2,0,B|72:104|72:104|112:144|112:144|160:136|160:136|176:112|176:112|248:104,1,270,2|0,0:2|0:0,0:0:0:0:
288,224,65929,6,0,B|240:280|240:280|216:160,1,180,2|2,0:2|0:2,0:0:0:0:
192,32,66578,1,2,0:2:0:0:
248,104,66902,1,2,0:2:0:0:
400,0,67227,6,0,B|440:24|440:24|432:96|432:96|416:112|416:112|408:160,1,180,2|2,0:2|0:2,0:0:0:0:
280,264,67875,2,0,B|352:312|352:312|344:232|344:232|328:216|328:216|320:112,1,270,2|0,0:2|0:0,0:0:0:0:
256,40,68524,5,2,0:0:0:0:
48,0,68848,1,2,0:0:0:0:
37,6,68902,1,0,0:0:0:0:
28,14,68956,1,0,0:0:0:0:
21,24,69010,2,0,P|21:63|36:106,1,45
64,124,69173,2,0,L|160:116,1,90,2|0,0:0|0:0,0:0:0:0:
204,72,69416,1,0,0:0:0:0:
220,76,69497,2,0,P|244:120|240:184,1,90,2|2,0:0|0:0,0:0:0:0:
180,224,69821,5,2,0:0:0:0:
372,368,70146,1,2,0:0:0:0:
381,361,70200,1,0,0:0:0:0:
387,350,70254,1,0,0:0:0:0:
388,338,70308,2,0,P|378:300|362:268,1,45
332,244,70470,2,0,P|336:200|348:148,1,90,2|0,0:0|0:0,0:0:0:0:
324,92,70713,1,0,0:0:0:0:
336,80,70794,2,0,L|448:88,1,90
496,140,71119,5,2,0:0:0:0:
324,8,71443,1,0,0:0:0:0:
312,4,71497,1,0,0:0:0:0:
300,1,71551,1,0,0:0:0:0:
288,1,71605,2,0,P|258:8|225:27,1,45
200,64,71767,2,0,P|152:56|104:16,1,90,2|0,0:0|0:0,0:0:0:0:
52,16,72010,1,0,0:0:0:0:
36,24,72091,2,0,P|24:67|21:112,1,90
52,200,72416,5,2,1:2:0:0:
256,124,72740,1,8,0:0:0:0:
260,135,72794,1,0,0:0:0:0:
261,146,72848,1,0,0:0:0:0:
261,157,72902,2,0,P|254:177|231:213,1,45
192,244,73064,2,0,P|224:276|288:292,1,90,2|0,0:0|1:0,0:0:0:0:
328,264,73307,1,0,0:0:0:0:
343,261,73389,1,8,0:0:0:0:
379,262,73470,1,0,0:0:0:0:
411,277,73551,1,0,1:0:0:0:
437,301,73632,1,0,0:0:0:0:
448,336,73713,5,4,1:0:0:0:
388,184,73875,2,0,P|396:144|420:96,1,90,0|8,0:0|1:0,0:0:0:0:
472,56,74119,2,0,L|464:0,1,45
512,112,74281,1,0,0:0:0:0:
500,124,74362,2,0,B|464:136|464:136|416:100,1,90,2|0,1:0|0:0,0:0:0:0:
384,48,74605,2,0,P|339:51|292:76,1,90,2|0,0:1|0:0,0:0:0:0:
288,84,74848,1,2,0:1:0:0:
240,180,75010,5,2,1:2:0:0:
96,100,75173,2,0,B|64:132|64:132|88:196,1,90,0|8,0:0|1:0,0:0:0:0:
136,212,75416,2,0,L|128:280,1,45
56,332,75578,1,0,0:0:0:0:
72,324,75659,2,0,P|116:325|154:347,1,90,2|0,1:0|0:0,0:0:0:0:
212,384,75902,2,0,B|236:360|236:360|228:288,1,90,2|0,0:1|0:0,0:0:0:0:
216,292,76146,1,2,0:1:0:0:
256,192,76308,5,2,1:2:0:0:
352,324,76470,2,0,P|392:328|440:300,1,90,0|8,0:0|1:0,0:0:0:0:
472,248,76713,2,0,L|464:200,1,45
504,88,76875,1,0,0:0:0:0:
512,104,76956,2,0,B|488:136|488:136|432:128,1,90,2|0,1:0|0:0,0:0:0:0:
376,100,77200,2,0,P|332:108|284:132,1,90,2|0,0:1|0:0,0:0:0:0:
284,144,77443,1,2,0:1:0:0:
344,236,77605,5,2,1:2:0:0:
220,368,77767,2,0,P|172:368|124:332,1,90,2|8,0:1|1:0,0:0:0:0:
32,276,78010,2,0,P|78:263|120:228,1,90,2|0,0:1|0:0,0:0:0:0:
168,168,78254,1,2,1:0:0:0:
164,152,78335,1,0,3:0:0:0:
12,48,78497,1,2,3:1:0:0:
0,60,78578,1,8,1:0:0:0:
40,200,78740,1,2,0:1:0:0:
112,36,78902,5,6,1:2:0:0:
324,0,79064,2,0,B|340:40|340:40|308:80,1,90,0|8,0:0|1:0,0:0:0:0:
284,140,79308,2,0,P|232:136|192:108,1,90
140,144,79551,1,2,1:0:0:0:
129,158,79632,1,0,0:0:0:0:
121,174,79713,1,0,0:0:0:0:
116,191,79794,1,2,0:1:0:0:
114,208,79875,1,8,1:0:0:0:
144,312,80037,1,2,0:1:0:0:
336,384,80200,5,2,1:2:0:0:
468,288,80362,2,0,B|435:253|435:253|392:257,1,90,0|8,0:0|1:0,0:0:0:0:
344,212,80605,2,0,P|316:248|312:296,1,90
256,328,80848,1,2,1:0:0:0:
238,321,80929,1,0,0:0:0:0:
223,310,81010,1,0,0:0:0:0:
210,296,81092,1,2,0:1:0:0:
200,280,81173,1,8,1:0:0:0:
224,176,81335,1,2,0:1:0:0:
120,28,81497,5,2,1:2:0:0:
76,184,81659,2,0,B|120:192|120:192|156:164,1,90,0|8,0:0|1:0,0:0:0:0:
196,112,81902,2,0,P|244:108|284:140,1,90
336,164,82146,1,2,1:0:0:0:
336,181,82227,1,0,0:0:0:0:
333,199,82308,1,0,0:0:0:0:
328,215,82389,1,2,0:1:0:0:
321,230,82470,1,8,1:0:0:0:
236,297,82632,1,2,0:1:0:0:
408,224,82794,5,2,1:2:0:0:
224,180,82956,1,2,1:0:0:0:
360,328,83119,1,8,1:0:0:0:
356,312,83200,1,2,0:1:0:0:
508,172,83362,1,0,0:0:0:0:
504,188,83443,1,2,1:2:0:0:
308,96,83605,1,0,1:0:0:0:
320,84,83686,1,0,0:0:0:0:
332,72,83767,1,8,1:0:0:0:
364,60,83848,1,0,1:0:0:0:
400,65,83929,1,0,1:0:0:0:
427,89,84010,1,0,1:0:0:0:
439,121,84091,5,4,1:0:0:0:
512,236,84254,2,0,B|480:268|480:268|436:264,1,90,0|8,0:0|1:0,0:0:0:0:
376,232,84497,1,0,0:0:0:0:
364,244,84578,2,0,L|316:248,1,45
264,308,84740,1,2,1:0:0:0:
248,300,84821,2,0,P|236:276|232:248,1,45
176,218,84983,1,2,0:1:0:0:
160,226,85064,2,0,P|148:250|144:278,1,45,8|0,1:0|0:0,0:0:0:0:
181,327,85227,2,0,P|217:299|233:243,1,90,2|2,0:1|1:2,0:0:0:0:
104,32,85551,6,0,P|94:76|115:115,1,90,0|8,0:0|1:0,0:0:0:0:
172,152,85794,1,0,0:0:0:0:
188,148,85875,2,0,L|232:140,1,45
308,112,86037,1,2,1:0:0:0:
312,128,86118,2,0,P|308:160|288:192,1,45
248,212,86281,1,2,0:1:0:0:
244,228,86362,2,0,P|248:260|268:292,1,45,8|0,1:0|0:0,0:0:0:0:
324,336,86524,2,0,B|292:324|292:324|240:356,1,90,2|2,0:1|1:2,0:0:0:0:
48,384,86848,6,0,B|24:344|24:344|40:296,1,90,0|8,0:0|1:0,0:0:0:0:
64,240,87091,1,0,0:0:0:0:
76,228,87173,2,0,L|72:172,1,45
172,80,87335,1,2,1:0:0:0:
184,92,87417,2,0,L|180:148,1,45
204,200,87578,1,2,0:1:0:0:
188,208,87659,2,0,P|156:204|132:192,1,45,8|0,1:0|0:0,0:0:0:0:
96,112,87821,2,0,P|51:116|13:140,1,90,2|2,0:1|1:2,0:0:0:0:
284,244,88146,6,0,P|289:202|275:156,1,90,2|8,0:1|1:0,0:0:0:0:
229,58,88389,2,0,P|260:83|307:94,1,90,2|0,0:1|0:0,0:0:0:0:
396,73,88632,1,2,1:0:0:0:
386,87,88713,1,0,0:0:0:0:
201,189,88875,1,2,0:1:0:0:
215,199,88956,1,8,1:0:0:0:
404,304,89119,1,2,0:1:0:0:
358,206,89281,5,6,1:2:0:0:
488,32,89443,2,0,P|500:52|508:80,1,45
484,136,89605,1,8,1:0:0:0:
472,148,89686,2,0,L|376:140,1,90
328,100,89929,1,2,1:0:0:0:
312,108,90010,2,0,P|304:128|300:152,1,45
344,204,90173,1,2,0:1:0:0:
356,216,90254,2,0,L|364:268,1,45,8|0,1:0|0:0,0:0:0:0:
276,324,90416,2,0,B|264:284|264:284|292:244,1,90,2|2,0:1|1:2,0:0:0:0:
136,288,90740,6,0,P|88:292|64:284,1,45
36,252,90902,1,8,1:0:0:0:
28,236,90983,2,0,L|44:120,1,90
100,56,91227,1,2,1:0:0:0:
92,72,91308,2,0,P|96:96|104:116,1,45
164,148,91470,1,2,0:1:0:0:
180,156,91551,2,0,L|224:144,1,45,8|0,1:0|0:0,0:0:0:0:
260,88,91713,2,0,B|292:80|292:80|344:104,1,90,2|2,0:1|1:2,0:0:0:0:
408,280,92037,6,0,P|412:256|424:232,1,45
476,196,92200,1,8,1:0:0:0:
468,180,92281,2,0,L|476:84,1,90
404,8,92524,1,2,1:0:0:0:
396,24,92605,2,0,L|404:72,1,45
372,128,92767,1,2,0:1:0:0:
356,137,92848,2,0,P|331:135|311:128,1,45,8|0,1:0|0:0,0:0:0:0:
256,92,93010,2,0,P|232:98|213:107,1,45,2|0,0:1|0:0,0:0:0:0:
160,168,93173,5,2,1:2:0:0:
156,184,93254,1,0,1:0:0:0:
152,200,93335,1,0,1:0:0:0:
168,232,93416,1,0,1:0:0:0:
200,248,93497,1,8,1:0:0:0:
236,248,93578,1,0,1:0:0:0:
268,232,93659,1,0,1:0:0:0:
300,220,93740,1,0,1:0:0:0:
336,220,93821,5,2,1:0:0:0:
372,248,93902,1,0,1:0:0:0:
380,292,93983,1,0,1:0:0:0:
364,336,94064,1,2,1:0:0:0:
324,360,94146,1,8,1:0:0:0:
280,360,94227,1,0,1:0:0:0:
240,340,94308,1,2,1:0:0:0:
196,332,94389,1,0,1:0:0:0:
152,336,94470,5,4,1:0:0:0:
86,368,94632,1,0,0:0:0:0:
34,316,94794,1,0,0:0:0:0:
68,251,94956,1,2,0:0:0:0:
140,262,95118,1,0,0:0:0:0:
174,198,95280,1,0,0:0:0:0:
122,145,95442,1,0,0:0:0:0:
57,178,95604,1,2,0:0:0:0:
44,52,95767,5,0,0:0:0:0:
108,20,95929,1,0,0:0:0:0:
180,24,96092,1,2,0:0:0:0:
236,68,96254,1,2,0:0:0:0:
272,128,96416,1,0,0:0:0:0:
336,160,96578,1,0,0:0:0:0:
408,156,96741,1,0,0:0:0:0:
464,112,96903,1,2,0:0:0:0:
512,268,97064,5,0,0:0:0:0:
500,340,97227,1,0,0:0:0:0:
432,368,97389,1,0,0:0:0:0:
444,296,97552,1,0,0:0:0:0:
388,252,97713,1,2,0:0:0:0:
376,324,97876,1,0,0:0:0:0:
308,352,98038,1,0,0:0:0:0:
320,280,98201,1,0,0:0:0:0:
256,132,98362,5,0,0:0:0:0:
188,148,98524,1,0,0:0:0:0:
120,164,98686,1,0,0:0:0:0:
52,180,98848,1,2,0:0:0:0:
32,248,99010,1,2,0:0:0:0:
100,232,99172,1,0,0:0:0:0:
168,216,99334,1,2,0:0:0:0:
236,200,99496,1,0,0:0:0:0:
328,92,99659,5,0,0:0:0:0:
396,64,99821,1,0,0:0:0:0:
384,136,99983,1,0,0:0:0:0:
372,208,100145,1,2,0:0:0:0:
304,236,100308,1,2,0:0:0:0:
292,308,100470,1,0,0:0:0:0:
280,380,100632,1,0,0:0:0:0:
348,352,100794,1,2,0:0:0:0:
488,384,100956,5,0,0:0:0:0:
480,312,101119,1,0,0:0:0:0:
472,240,101281,1,0,0:0:0:0:
464,168,101444,1,0,0:0:0:0:
256,192,101605,5,2,0:0:0:0:
256,192,101686,12,0,105983,0:0:0:0:
