osu file format v14

[General]
AudioFilename: audio.mp3
AudioLeadIn: 0
PreviewTime:63254
Countdown: 0
SampleSet: Soft
StackLeniency: 0.7
Mode: 0
LetterboxInBreaks: 0
WidescreenStoryboard: 1

[Editor]
Bookmarks: 6254,94470
DistanceSpacing: 1.3
BeatDivisor: 4
GridSize: 16
TimelineZoom: 1.8

[Metadata]
Title:entelecheia
TitleUnicode:entelecheia
Artist:Rche
ArtistUnicode:Rche
Creator:VINXIS
Version:Dubturt's Hard
Source:beatmania IIDX 22 PENDUAL
Tags:todestrieb electronic video game music vgm edm dance sacred trance piano instrumental bemani zektbach tomosuke funaki reflec beat groovin'!! upper 舟木智介 apaffy kisata fanzhen0019 Macuilxochitl Muya dubturt uberzolik xlolicore- lolicore
BeatmapID:2479200
BeatmapSetID:1163688

[Difficulty]
HPDrainRate:4
CircleSize:3.8
OverallDifficulty:6
ApproachRate:8
SliderMultiplier:1.2
SliderTickRate:1

[Events]
//Background and Video events
0,0,"entelecheia.jpg",0,0
//Break Periods
2,63535,67774
//Storyboard Layer 0 (Background)
//Storyboard Layer 1 (Fail)
//Storyboard Layer 2 (Pass)
//Storyboard Layer 3 (Foreground)
//Storyboard Layer 4 (Overlay)
//Storyboard Sound Samples

[TimingPoints]
1065,324.324324324324,4,2,1,50,1,0
6254,-100,4,2,1,60,0,0
11443,-90.9090909090909,4,2,1,60,0,0
19551,-90.9090909090909,4,2,1,65,0,0
21821,-100,4,2,1,70,0,0
32200,-83.3333333333333,4,2,1,80,0,0
68524,-100,4,2,1,60,0,0
72740,-100,4,2,1,80,0,0
73713,-76.9230769230769,4,2,2,90,0,0

[Colours]
Combo1 : 17,254,176
Combo2 : 173,255,95
Combo3 : 255,88,100
Combo4 : 255,94,55

[HitObjects]
457,64,1065,6,0,L|316:64,1,120,6|2,1:2|0:0,0:0:0:0:
256,105,1551,1,0,0:0:0:0:
175,64,1713,2,0,L|55:64,1,120,2|2,0:0|0:0,0:0:0:0:
8,141,2200,1,0,0:0:0:0:
70,206,2362,2,0,L|80:278,1,60,2|0,0:0|0:0,0:0:0:0:
156,308,2686,2,0,L|166:236,1,60,2|0,0:0|0:0,0:0:0:0:
240,201,3010,2,0,L|250:273,1,60,2|0,0:0|0:0,0:0:0:0:
321,313,3335,2,0,L|331:241,1,60,2|0,0:0|0:0,0:0:0:0:
391,177,3659,6,0,P|451:177|497:222,1,120,2|2,0:0|0:0,0:0:0:0:
500,305,4146,1,0,0:0:0:0:
423,351,4308,2,0,P|363:351|317:306,1,120,2|2,0:0|0:0,0:0:0:0:
308,223,4794,1,0,0:0:0:0:
238,165,4956,2,0,L|168:172,1,60,2|0,0:0|0:0,0:0:0:0:
168,80,5281,2,0,L|238:73,1,60,2|0,0:0|0:0,0:0:0:0:
311,105,5605,2,0,L|381:98,1,60,2|0,0:0|0:0,0:0:0:0:
381,190,5930,2,0,L|311:197,1,60,2|0,0:0|0:0,0:0:0:0:
250,251,6254,6,0,P|240:306|261:375,2,120,2|2|2,0:0|0:0|0:0,0:0:0:0:
315,82,7227,1,2,0:0:0:0:
152,158,7551,2,0,P|128:208|130:280,2,120,2|2|2,0:0|0:0|0:0,0:0:0:0:
257,17,8524,1,2,0:0:0:0:
400,125,8848,6,0,B|464:119|464:119|508:77,2,120,2|2|2,0:0|0:0|0:0,0:0:0:0:
220,112,9821,1,2,0:0:0:0:
341,245,10146,2,0,B|404:255|404:255|457:226,2,120,2|2|2,0:0|0:0|0:0,0:0:0:0:
170,186,11119,1,2,0:0:0:0:
34,311,11443,6,0,L|186:303,1,132.00000402832,6|0,1:2|1:0,0:0:0:0:
253,333,11929,1,0,0:0:0:0:
253,333,12092,2,0,L|404:323,1,132.00000402832,0|2,1:0|1:2,0:0:0:0:
455,267,12578,1,0,0:0:0:0:
455,267,12740,2,0,L|460:190,1,66.0000020141602,0|0,1:0|0:0,0:0:0:0:
361,135,13064,2,0,L|366:201,1,66.0000020141602,0|0,1:0|0:0,0:0:0:0:
295,261,13389,6,0,P|233:275|149:255,1,132.00000402832,2|0,1:2|1:0,0:0:0:0:
93,206,13875,1,0,0:0:0:0:
93,206,14037,2,0,L|26:212,1,66.0000020141602,0|0,1:0|0:0,0:0:0:0:
65,127,14362,2,0,L|132:121,1,66.0000020141602,2|0,1:2|0:0,0:0:0:0:
222,115,14686,2,0,P|229:170|226:204,1,66.0000020141602,0|0,1:0|0:0,0:0:0:0:
310,223,15010,2,0,P|310:190|316:157,1,66.0000020141602,0|0,1:0|0:0,0:0:0:0:
409,150,15335,6,0,P|397:98|302:71,1,132.00000402832,2|0,1:2|1:0,0:0:0:0:
243,92,15821,1,2,0:0:0:0:
243,92,15983,2,0,L|104:86,1,132.00000402832,0|2,1:0|1:2,0:0:0:0:
24,119,16470,1,0,0:2:0:0:
24,119,16632,2,0,L|35:209,1,66.0000020141602,2|0,1:2|0:0,0:0:0:0:
123,197,16956,2,0,L|112:287,1,66.0000020141602,0|2,1:0|0:0,0:0:0:0:
172,335,17281,2,0,P|220:331|246:343,1,66.0000020141602,0|0,1:0|0:0,0:0:0:0:
274,253,17605,6,0,P|213:230|133:256,1,132.00000402832,2|0,1:2|1:0,0:0:0:0:
66,216,18092,1,2,0:0:0:0:
66,216,18254,2,0,L|58:139,1,66.0000020141602,0|0,1:0|0:0,0:0:0:0:
108,72,18578,2,0,P|73:64|41:44,1,66.0000020141602,2|0,1:2|0:0,0:0:0:0:
169,13,18902,2,0,P|204:21|236:41,1,66.0000020141602,0|2,1:0|0:0,0:0:0:0:
304,91,19227,2,0,L|295:167,1,66.0000020141602,0|0,1:0|0:0,0:0:0:0:
318,246,19551,6,0,L|399:234,1,66.0000020141602,2|0,1:2|1:0,0:0:0:0:
337,336,19875,2,0,L|256:348,1,66.0000020141602,2|0,1:2|1:0,0:0:0:0:
191,299,20200,2,0,L|125:308,1,66.0000020141602,2|0,1:2|1:0,0:0:0:0:
172,209,20524,2,0,L|237:199,1,66.0000020141602,2|0,1:2|1:0,0:0:0:0:
333,175,20848,1,2,1:2:0:0:
265,102,21010,1,0,1:0:0:0:
359,72,21173,2,0,L|428:59,1,66.0000020141602,2|0,1:2|1:0,0:0:0:0:
501,121,21497,2,0,L|497:170,3,33.0000010070801,2|0|0|0,1:2|1:0|1:0|1:0,0:0:0:0:
479,183,21821,6,0,L|486:259,1,60,4|0,1:0|0:0,0:0:0:0:
400,230,22146,2,0,L|407:306,1,60,2|0,0:0|0:0,0:0:0:0:
322,274,22470,2,0,L|329:350,2,60,2|2|2,0:0|0:0|0:0,0:0:0:0:
202,155,23119,2,0,P|134:163|98:222,1,120,2|0,0:0|0:0,0:0:0:0:
138,276,23605,2,0,P|206:268|242:209,1,120,2|0,0:0|0:0,0:0:0:0:
285,161,24092,2,0,P|322:150|352:152,1,60,2|0,0:0|0:0,0:0:0:0:
421,120,24416,6,0,L|428:52,1,60,2|0,0:0|0:0,0:0:0:0:
355,16,24740,2,0,L|348:84,1,60,2|0,0:0|0:0,0:0:0:0:
266,93,25064,2,0,L|273:25,2,60,2|2|2,0:0|0:0|0:0,0:0:0:0:
123,183,25713,2,0,B|184:183|184:183|237:222,1,120,2|0,0:0|0:0,0:0:0:0:
207,298,26200,2,0,B|146:298|146:298|98:263,1,120,2|0,0:0|0:0,0:0:0:0:
33,209,26686,2,0,L|26:129,1,60,2|0,0:0|0:0,0:0:0:0:
60,71,27010,5,2,0:0:0:0:
138,101,27173,1,2,0:0:0:0:
191,36,27335,2,0,L|265:27,1,60,2|0,0:0|0:0,0:0:0:0:
330,55,27659,2,0,L|322:108,3,30,2|2|2|2,0:0|0:0|0:0|0:0,0:0:0:0:
297,115,27983,2,0,L|305:196,1,60,2|0,0:0|0:0,0:0:0:0:
323,256,28308,1,2,0:0:0:0:
303,337,28470,1,2,0:0:0:0:
383,360,28632,2,0,P|411:344|461:340,1,60,2|0,0:0|0:0,0:0:0:0:
487,270,28956,2,0,P|490:249|490:220,3,30,2|2|2|2,0:0|0:0|0:0|0:0,0:0:0:0:
476,200,29281,2,0,P|474:155|479:115,1,60
420,76,29605,6,0,L|338:68,1,60,2|0,0:0|0:0,0:0:0:0:
287,112,29929,2,0,L|294:169,3,30,2|2|2|2,0:0|0:0|0:0|0:0,0:0:0:0:
292,184,30254,2,0,L|210:176,1,60,2|0,0:0|0:0,0:0:0:0:
169,234,30578,1,2,0:0:0:0:
194,314,30740,1,2,0:0:0:0:
122,357,30902,2,0,L|48:350,1,60,2|0,0:0|0:0,0:0:0:0:
33,271,31227,2,0,L|107:278,1,60,2|0,0:0|0:0,0:0:0:0:
169,234,31551,1,2,0:0:0:0:
141,154,31713,1,2,0:0:0:0:
192,87,31875,2,0,P|225:80|266:95,1,60,2|0,0:0|0:0,0:0:0:0:
337,137,32200,6,0,P|393:143|456:69,1,143.999995605469,4|8,1:0|1:0,0:0:0:0:
364,38,32686,1,0,0:0:0:0:
274,93,32848,2,0,P|260:129|279:185,1,71.9999978027344,2|0,1:2|0:0,0:0:0:0:
289,211,33092,1,0,0:0:0:0:
289,211,33173,2,0,L|293:293,1,71.9999978027344,8|0,1:0|0:0,0:0:0:0:
226,358,33497,2,0,B|185:362|185:362|142:340,1,71.9999978027344,2|0,1:2|0:0,0:0:0:0:
120,322,33740,1,0,0:0:0:0:
120,322,33821,2,0,B|92:307|92:307|51:311,1,71.9999978027344,8|0,1:0|0:0,0:0:0:0:
124,239,34146,2,0,B|152:254|152:254|193:250,1,71.9999978027344,2|0,1:2|0:0,0:0:0:0:
240,237,34389,1,0,0:0:0:0:
240,237,34470,2,0,L|232:143,1,71.9999978027344,8|0,1:0|0:0,0:0:0:0:
136,140,34794,6,0,P|154:92|249:71,1,143.999995605469,2|8,1:2|1:0,0:0:0:0:
234,166,35281,1,0,0:0:0:0:
329,134,35443,2,0,L|409:104,1,71.9999978027344,2|0,1:2|0:0,0:0:0:0:
448,100,35686,1,0,0:0:0:0:
448,100,35767,2,0,L|440:179,1,71.9999978027344,8|0,1:0|0:0,0:0:0:0:
423,271,36092,2,0,L|356:262,3,35.9999989013672,2|0|0|0,1:2|0:0|0:0|0:0,0:0:0:0:
339,282,36416,2,0,L|272:291,3,35.9999989013672,8|0|0|0,1:0|0:0|0:0|0:0,0:0:0:0:
256,268,36740,2,0,P|247:224|264:180,1,71.9999978027344,2|0,1:2|0:0,0:0:0:0:
324,127,37064,2,0,P|333:83|316:39,1,71.9999978027344,8|0,1:0|0:0,0:0:0:0:
299,14,37308,1,0,0:0:0:0:
299,14,37389,6,0,B|258:37|258:37|149:23,2,143.999995605469,2|8|2,1:2|1:0|1:2,0:0:0:0:
400,20,38200,1,0,0:0:0:0:
403,120,38362,2,0,L|392:207,1,71.9999978027344,8|0,1:0|0:0,0:0:0:0:
319,258,38686,2,0,L|331:348,1,71.9999978027344,2|0,1:2|0:0,0:0:0:0:
230,352,39010,2,0,P|189:346|146:358,1,71.9999978027344,8|0,1:0|0:0,0:0:0:0:
109,361,39254,1,0,0:0:0:0:
109,361,39335,2,0,P|68:367|25:355,1,71.9999978027344,2|0,1:2|0:0,0:0:0:0:
14,263,39659,2,0,B|7:222|7:222|17:186,1,71.9999978027344,8|0,1:0|0:0,0:0:0:0:
47,154,39902,1,0,0:0:0:0:
47,154,39983,6,0,B|119:128|119:179|213:151,1,143.999995605469,2|8,1:2|1:0,0:0:0:0:
284,126,40470,1,0,0:0:0:0:
294,226,40632,2,0,L|289:332,1,71.9999978027344,2|0,1:2|0:0,0:0:0:0:
293,352,40875,1,0,0:0:0:0:
293,352,40956,2,0,L|387:333,1,71.9999978027344,8|0,1:0|0:0,0:0:0:0:
459,305,41281,2,0,P|474:337|467:392,2,71.9999978027344,0|0|8,1:0|1:0|1:0,0:0:0:0:
376,247,41767,1,0,0:0:0:0:
446,175,41929,2,0,L|438:127,3,35.9999989013672,0|0|0|0,1:0|0:0|1:0|1:0,0:0:0:0:
414,95,42254,2,0,L|422:47,3,35.9999989013672,8|0|0|0,1:0|1:0|1:0|1:0,0:0:0:0:
437,12,42578,6,0,L|291:15,1,143.999995605469,4|8,1:0|1:0,0:0:0:0:
200,54,43064,2,0,P|190:91|208:147,1,71.9999978027344,2|0,0:2|1:0,0:0:0:0:
274,195,43389,1,0,0:0:0:0:
274,195,43551,2,0,L|365:188,2,71.9999978027344,8|0|0,1:0|0:0|1:0,0:0:0:0:
197,260,44037,2,0,L|97:247,2,71.9999978027344,2|8|0,0:2|1:0|0:0,0:0:0:0:
275,324,44524,2,0,P|347:337|420:278,1,143.999995605469,0|8,1:0|1:0,0:0:0:0:
319,117,45173,6,0,L|333:274,1,143.999995605469,2|8,1:2|1:0,0:0:0:0:
235,229,45659,2,0,L|227:325,1,71.9999978027344,2|0,0:0|1:0,0:0:0:0:
136,275,45983,1,0,0:0:0:0:
136,275,46146,2,0,L|141:346,2,71.9999978027344,8|0|0,1:0|0:0|1:0,0:0:0:0:
49,223,46632,2,0,L|41:319,2,71.9999978027344,2|8|0,0:0|1:0|0:0,0:0:0:0:
122,152,47119,2,0,P|182:133|254:176,1,143.999995605469,2|8,1:2|1:0,0:0:0:0:
333,352,47767,6,0,L|169:335,1,143.999995605469,2|8,1:2|1:0,0:0:0:0:
93,305,48254,2,0,P|80:258|97:214,1,71.9999978027344,2|0,0:0|1:0,0:0:0:0:
148,158,48578,1,0,0:0:0:0:
148,158,48740,2,0,P|155:106|152:82,2,71.9999978027344,8|0|0,1:0|0:0|1:2,0:0:0:0:
224,223,49226,2,0,P|217:275|220:299,2,71.9999978027344,2|8|0,0:0|1:0|0:0,0:0:0:0:
311,172,49713,2,0,B|357:144|357:144|464:167,1,143.999995605469,2|8,1:2|1:0,0:0:0:0:
253,98,50362,6,0,P|226:138|247:240,1,143.999995605469,2|8,1:2|1:0,0:0:0:0:
320,287,50848,2,0,L|419:281,1,71.9999978027344,2|0,0:0|1:0,0:0:0:0:
490,277,51173,1,0,0:0:0:0:
490,277,51335,2,0,P|495:321|487:356,2,71.9999978027344,8|0|0,1:0|0:0|1:0,0:0:0:0:
440,189,51821,2,0,P|435:153|440:118,1,71.9999978027344,2|8,0:0|1:0,0:0:0:0:
345,78,52146,1,0,0:0:0:0:
345,78,52308,2,0,P|333:159|346:229,1,143.999995605469,2|8,1:2|1:0,0:0:0:0:
181,340,52956,6,0,L|85:338,1,71.9999978027344,6|0,1:2|0:0,0:0:0:0:
13,304,53281,2,0,L|2:247,3,35.9999989013672,8|2|2|2,1:0|0:0|0:0|0:0,0:0:0:0:
10,218,53605,2,0,L|16:126,1,71.9999978027344,2|0,1:2|0:0,0:0:0:0:
89,78,53929,2,0,P|130:82|171:67,1,71.9999978027344,8|2,1:0|0:0,0:0:0:0:
206,55,54173,1,2,0:0:0:0:
206,55,54254,2,0,L|199:135,1,71.9999978027344,2|0,1:2|0:0,0:0:0:0:
214,226,54578,2,0,L|268:216,3,35.9999989013672,8|2|2|2,1:0|0:0|0:0|0:0,0:0:0:0:
298,207,54902,2,0,L|291:287,1,71.9999978027344,2|0,1:2|0:0,0:0:0:0:
360,353,55227,2,0,P|403:352|443:326,1,71.9999978027344,8|2,1:0|1:3,0:0:0:0:
474,316,55470,1,2,0:0:0:0:
474,316,55551,6,0,L|467:244,1,71.9999978027344,2|0,1:2|0:0,0:0:0:0:
424,152,55875,2,0,P|397:154|368:145,3,35.9999989013672,8|2|2|2,1:0|0:0|0:0|0:0,0:0:0:0:
342,129,56200,2,0,P|304:123|260:134,1,71.9999978027344,2|0,1:2|0:0,0:0:0:0:
176,162,56524,2,0,L|194:250,1,71.9999978027344,8|2,1:0|0:0,0:0:0:0:
196,286,56767,1,2,0:0:0:0:
196,286,56848,2,0,L|103:280,1,71.9999978027344,2|0,1:2|0:0,0:0:0:0:
32,238,57173,2,0,P|30:211|39:182,3,35.9999989013672,8|2|2|2,1:0|0:0|0:0|0:0,0:0:0:0:
46,153,57498,2,0,P|84:159|128:148,1,71.9999978027344,2|0,1:2|0:0,0:0:0:0:
206,108,57821,2,0,P|244:102|288:113,1,71.9999978027344,8|2,1:0|1:3,0:0:0:0:
325,121,58064,1,2,0:0:0:0:
325,121,58146,6,0,L|341:218,1,71.9999978027344,2|0,1:2|0:0,0:0:0:0:
251,244,58470,2,0,L|244:289,3,35.9999989013672,8|2|2|2,1:0|0:0|0:0|0:0,0:0:0:0:
239,329,58794,2,0,L|138:321,1,71.9999978027344,2|0,1:2|0:0,0:0:0:0:
70,292,59119,2,0,P|61:257|68:222,1,71.9999978027344,8|2,1:0|0:0,0:0:0:0:
93,177,59362,1,2,0:0:0:0:
93,177,59443,2,0,P|101:142|94:107,1,71.9999978027344,2|0,1:2|0:0,0:0:0:0:
137,16,59767,2,0,L|202:19,3,35.9999989013672,8|2|2|2,1:0|0:0|0:0|0:0,0:0:0:0:
222,32,60092,2,0,L|305:25,1,71.9999978027344,2|0,1:2|0:0,0:0:0:0:
376,82,60416,2,0,P|383:118|370:164,1,71.9999978027344,8|2,1:0|1:3,0:0:0:0:
359,186,60659,1,2,0:0:0:0:
359,186,60740,6,0,L|276:179,1,71.9999978027344,2|0,1:2|0:0,0:0:0:0:
188,199,61064,2,0,P|182:227|189:246,3,35.9999989013672,8|2|2|2,1:0|0:0|0:0|0:0,0:0:0:0:
211,276,61389,2,0,B|247:268|247:268|296:279,1,71.9999978027344,2|0,1:2|0:0,0:0:0:0:
377,305,61713,2,0,L|460:293,1,71.9999978027344,8|2,1:0|0:0,0:0:0:0:
484,260,61956,1,2,0:0:0:0:
484,260,62037,2,0,P|484:217|469:179,1,71.9999978027344,2|0,1:2|1:0,0:0:0:0:
427,100,62362,2,0,L|365:93,3,35.9999989013672,8|0|0|0,1:0|0:0|1:0|0:0,0:0:0:0:
346,119,62686,2,0,L|284:126,3,35.9999989013672,2|0|0|0,1:2|0:0|0:0|1:0,0:0:0:0:
263,104,63010,1,8,1:0:0:0:
171,148,63173,1,0,1:0:0:0:
75,114,63335,5,4,1:0:0:0:
356,136,68524,6,0,L|343:284,2,120,2|2|2,0:0|0:0|0:0,0:0:0:0:
203,65,69497,2,0,L|211:146,1,60,2|2,0:0|0:0,0:0:0:0:
272,179,69821,2,0,L|259:327,2,120,2|2|2,0:0|0:0|0:0,0:0:0:0:
345,29,70794,1,2,0:0:0:0:
345,29,71119,6,0,P|364:72|327:156,1,120,2|0,0:0|0:0,0:0:0:0:
177,138,71767,2,0,P|157:82|176:27,1,120,2|0,0:0|0:0,0:0:0:0:
256,174,72416,2,0,L|270:282,1,90,2|0,1:2|0:0,0:0:0:0:
298,291,72740,2,0,L|286:356,1,60,8|0,0:0|0:0,0:0:0:0:
205,367,73064,1,2,0:0:0:0:
135,318,73227,1,0,1:0:0:0:
51,328,73389,2,0,L|35:243,1,60,8|0,0:0|1:0,0:0:0:0:
59,170,73713,5,4,1:0:0:0:
147,216,73875,2,0,B|186:224|186:224|249:207,1,77.9999964294435,2|8,0:1|1:0,0:0:0:0:
272,199,74119,2,0,B|311:191|311:191|374:208,1,77.9999964294435,2|0,0:1|0:0,0:0:0:0:
395,218,74362,2,0,B|431:227|431:227|516:210,2,116.999994644165,2|2|2,1:0|0:1|0:1,0:0:0:0:
425,121,75010,1,2,1:2:0:0:
323,121,75173,2,0,P|279:121|197:82,1,116.999994644165,2|2,0:1|0:1,0:0:0:0:
174,59,75497,1,0,0:0:0:0:
114,141,75659,2,0,P|56:134|0:149,2,116.999994644165,2|2|2,1:0|0:1|0:1,0:0:0:0:
163,230,76308,5,2,1:2:0:0:
239,296,76470,2,0,P|281:287|313:243,1,77.9999964294435,2|8,0:1|1:0,0:0:0:0:
355,262,76713,2,0,P|378:225|369:172,1,77.9999964294435,2|0,0:1|0:0,0:0:0:0:
403,147,76956,2,0,P|390:95|337:57,2,116.999994644165,2|2|2,1:0|0:1|0:1,0:0:0:0:
471,222,77605,1,2,1:2:0:0:
387,278,77767,2,0,L|259:264,1,116.999994644165,2|2,0:1|0:1,0:0:0:0:
219,268,78092,1,0,0:0:0:0:
137,328,78254,2,0,P|120:272|130:215,1,116.999994644165,2|2,1:0|3:1,0:0:0:0:
152,169,78578,1,8,1:0:0:0:
99,82,78740,1,2,0:1:0:0:
185,28,78902,5,6,1:2:0:0:
274,76,79064,2,0,L|361:61,1,77.9999964294435,2|8,0:1|1:0,0:0:0:0:
401,56,79308,2,0,L|378:152,1,77.9999964294435,2|0,0:1|0:0,0:0:0:0:
372,181,79551,2,0,L|503:164,2,116.999994644165,2|2|2,1:0|0:1|0:1,0:0:0:0:
297,251,80200,1,2,1:2:0:0:
205,294,80362,2,0,L|74:277,1,116.999994644165,2|2,0:1|0:1,0:0:0:0:
39,267,80686,1,0,0:0:0:0:
80,174,80848,2,0,P|92:129|69:56,2,116.999994644165,2|2|2,1:0|0:1|0:1,0:0:0:0:
39,267,81497,5,2,1:2:0:0:
103,345,81659,2,0,L|201:336,1,77.9999964294435,2|8,0:1|1:0,0:0:0:0:
231,333,81902,2,0,L|329:342,1,77.9999964294435,2|0,0:1|0:0,0:0:0:0:
359,330,82146,2,0,L|501:320,2,116.999994644165,2|2|2,1:0|0:1|0:1,0:0:0:0:
309,241,82794,1,2,1:2:0:0:
360,154,82956,2,0,L|502:164,2,116.999994644165,2|2|2,1:0|0:1|1:2,0:0:0:0:
315,62,83605,1,0,1:0:0:0:
215,82,83767,2,0,P|188:81|157:73,3,38.9999982147218,8|0|0|0,1:0|1:0|1:0|1:0,0:0:0:0:
127,64,84092,5,4,1:0:0:0:
36,109,84254,2,0,B|35:150|35:150|55:205,1,77.9999964294435,2|8,0:1|1:0,0:0:0:0:
79,224,84497,2,0,B|113:211|113:211|154:212,1,77.9999964294435,2|0,0:1|0:0,0:0:0:0:
204,221,84740,2,0,B|205:262|205:262|177:344,2,116.999994644165,2|2|2,1:0|0:1|0:1,0:0:0:0:
287,162,85389,1,2,1:2:0:0:
375,211,85551,2,0,P|424:226|494:166,1,116.999994644165,2|2,0:1|0:1,0:0:0:0:
503,152,85875,1,0,0:0:0:0:
412,107,86037,2,0,P|402:58|439:2,2,116.999994644165,2|2|2,1:0|0:1|0:1,0:0:0:0:
382,204,86686,5,2,1:2:0:0:
296,258,86848,2,0,P|251:259|214:219,1,77.9999964294435,2|8,0:1|1:0,0:0:0:0:
174,246,87092,2,0,P|141:214|143:160,1,77.9999964294435,2|0,0:1|0:0,0:0:0:0:
95,153,87335,2,0,P|93:100|140:57,2,116.999994644165,2|2|2,1:0|0:1|0:1,0:0:0:0:
30,231,87983,1,2,1:2:0:0:
88,314,88146,2,0,B|125:299|125:299|235:315,1,116.999994644165,2|2,0:1|0:1,0:0:0:0:
250,319,88470,1,0,0:0:0:0:
346,289,88632,2,0,P|359:234|329:154,1,116.999994644165,2|2,1:0|3:1,0:0:0:0:
324,129,88956,1,8,1:0:0:0:
235,179,89119,1,2,0:1:0:0:
136,155,89281,5,6,1:2:0:0:
37,177,89443,2,0,P|27:139|35:94,1,77.9999964294435,2|8,0:1|1:0,0:0:0:0:
72,71,89686,2,0,B|107:62|107:62|161:75,1,77.9999964294435,2|0,0:1|0:0,0:0:0:0:
197,81,89929,2,0,L|345:66,2,116.999994644165,2|2|2,1:0|0:1|0:1,0:0:0:0:
149,170,90578,1,2,1:2:0:0:
219,242,90740,2,0,L|367:257,1,116.999994644165,2|2,0:1|0:1,0:0:0:0:
386,255,91064,1,0,0:0:0:0:
469,196,91227,2,0,P|480:140|453:60,2,116.999994644165,2|2|2,1:0|0:1|0:1,0:0:0:0:
386,255,91875,5,2,1:2:0:0:
293,213,92037,2,0,P|248:205|204:227,1,77.9999964294435,2|8,0:1|1:0,0:0:0:0:
172,237,92281,2,0,P|127:245|83:223,1,77.9999964294435,2|0,0:1|0:0,0:0:0:0:
53,209,92524,2,0,L|43:61,2,116.999994644165,2|2|2,1:0|0:1|0:1,0:0:0:0:
5,298,93173,1,2,1:2:0:0:
86,358,93335,2,0,B|123:340|123:340|224:353,1,116.999994644165,2|2,1:0|1:0,0:0:0:0:
248,353,93659,1,0,1:0:0:0:
338,306,93821,2,0,L|345:251,3,38.9999982147218,2|0|0|2,1:0|1:0|1:0|1:0,0:0:0:0:
321,220,94146,2,0,L|314:165,3,38.9999982147218,8|0|2|0,1:0|1:0|1:0|1:0,0:0:0:0:
336,133,94470,5,4,1:0:0:0:
