osu file format v14

[General]
AudioFilename: audio.mp3
AudioLeadIn: 0
PreviewTime: 73388
Countdown: 0
SampleSet: Soft
StackLeniency: 0.7
Mode: 3
LetterboxInBreaks: 0
SpecialStyle: 0
WidescreenStoryboard: 0

[Editor]
DistanceSpacing: 1.3
BeatDivisor: 4
GridSize: 4
TimelineZoom: 1.1

[Metadata]
Title:entelecheia
TitleUnicode:entelecheia
Artist:Rche
ArtistUnicode:Rche
Creator:Starry-
Version:Beginner
Source:beatmania IIDX 22 PENDUAL
Tags:TOMOSUKE SACRED TRANCE Todestrieb Seraph Ashemu
BeatmapID:1018852
BeatmapSetID:476394

[Difficulty]
HPDrainRate:7
CircleSize:4
OverallDifficulty:7
ApproachRate:5
SliderMultiplier:2.33
SliderTickRate:1

[Events]
//Background and Video events
Video,-960,"video.avi"
0,0,"entelecheia.png",0,0
//Break Periods
//Storyboard Layer 0 (Background)
//Storyboard Layer 1 (Fail)
//Storyboard Layer 2 (Pass)
//Storyboard Layer 3 (Foreground)
//Storyboard Sound Samples

[TimingPoints]
1064.63184294794,324.324324324324,4,2,1,60,1,0
73713,-100,4,2,1,60,0,1
84010,-100,4,2,1,60,0,0
84091,-100,4,2,1,80,0,1
94470,-100,4,2,1,60,0,0

[HitObjects]
64,192,1064,5,4,1:0:0:0:
192,192,1064,1,4,0:0:0:0:
448,192,1388,1,0,0:0:0:0:
64,192,1713,1,0,0:0:0:0:
448,192,2037,1,0,0:0:0:0:
64,192,2361,1,0,0:0:0:0:
448,192,2686,1,0,0:0:0:0:
64,192,3010,1,0,0:0:0:0:
448,192,3334,1,0,0:0:0:0:
192,192,3659,1,0,0:0:0:0:
320,192,3983,1,0,0:0:0:0:
192,192,4307,1,0,0:0:0:0:
320,192,4632,1,0,0:0:0:0:
192,192,4956,1,0,0:0:0:0:
320,192,5280,1,0,0:0:0:0:
192,192,5605,1,0,0:0:0:0:
320,192,5929,1,0,0:0:0:0:
448,192,6253,128,0,7713:0:0:0:0:
320,192,7713,128,0,8848:0:0:0:0:
192,192,8848,128,0,10145:0:0:0:0:
64,192,10145,128,0,11443:0:0:0:0:
320,192,11443,1,4,1:0:0:0:
448,192,11443,1,6,0:0:0:0:
448,192,11767,1,2,0:0:0:0:
448,192,12091,1,2,0:0:0:0:
192,192,12415,1,2,0:0:0:0:
192,192,12740,1,2,0:0:0:0:
192,192,13064,1,2,0:0:0:0:
320,192,13388,1,2,0:0:0:0:
320,192,13713,1,2,0:0:0:0:
320,192,14037,1,2,0:0:0:0:
64,192,14361,1,2,0:0:0:0:
64,192,14686,1,2,0:0:0:0:
64,192,15010,1,2,0:0:0:0:
448,192,15334,1,2,0:0:0:0:
448,192,15659,1,2,0:0:0:0:
448,192,15983,1,2,0:0:0:0:
64,192,16307,1,2,0:0:0:0:
320,192,16632,1,2,0:0:0:0:
320,192,16956,1,2,0:0:0:0:
320,192,17280,1,2,0:0:0:0:
192,192,17605,1,2,0:0:0:0:
192,192,17929,1,2,0:0:0:0:
192,192,18253,1,2,0:0:0:0:
448,192,18578,1,2,0:0:0:0:
448,192,18902,1,2,0:0:0:0:
448,192,19226,1,2,0:0:0:0:
64,192,19551,1,2,0:0:0:0:
192,192,19713,1,2,0:0:0:0:
320,192,19875,1,2,0:0:0:0:
448,192,20037,1,2,0:0:0:0:
64,192,20199,1,2,0:0:0:0:
192,192,20361,1,2,0:0:0:0:
320,192,20524,1,2,0:0:0:0:
448,192,20686,1,2,0:0:0:0:
64,192,20848,1,2,0:0:0:0:
192,192,21010,1,2,0:0:0:0:
320,192,21172,1,2,0:0:0:0:
448,192,21334,1,2,0:0:0:0:
64,192,21497,128,0,21821:0:0:0:60:kickdrum1.wav
448,192,21821,1,6,0:0:0:0:
192,192,21983,1,0,0:0:0:0:
320,192,22145,1,0,0:0:0:0:
448,192,22470,1,0,0:0:0:0:
64,192,22794,1,0,0:0:0:0:
192,192,23118,1,0,0:0:0:0:
320,192,23280,1,0,0:0:0:0:
448,192,23443,1,0,0:0:0:0:
192,192,23767,1,0,0:0:0:0:
64,192,24091,1,0,0:0:0:0:
448,192,24415,1,0,0:0:0:0:
320,192,24578,1,0,0:0:0:0:
192,192,24740,1,0,0:0:0:0:
320,192,25064,1,0,0:0:0:0:
64,192,25388,1,0,0:0:0:0:
192,192,25713,1,0,0:0:0:0:
320,192,25875,1,0,0:0:0:0:
448,192,26037,1,0,0:0:0:0:
64,192,26361,1,0,0:0:0:0:
192,192,26686,1,0,0:0:0:0:
448,192,27010,1,0,0:0:0:0:
320,192,27172,1,0,0:0:0:0:
192,192,27334,1,0,0:0:0:0:
64,192,27497,1,0,0:0:0:0:
320,192,27659,1,0,0:0:0:0:
448,192,27821,1,0,0:0:0:0:
192,192,27983,1,0,0:0:0:0:
320,192,28307,1,0,0:0:0:0:
448,192,28470,1,0,0:0:0:0:
64,192,28632,1,0,0:0:0:0:
192,192,28794,1,0,0:0:0:0:
320,192,28956,1,0,0:0:0:0:
448,192,29118,1,0,0:0:0:0:
64,192,29280,1,0,0:0:0:0:
448,192,29605,1,0,0:0:0:0:
320,192,29767,1,0,0:0:0:0:
192,192,29929,1,0,0:0:0:0:
64,192,30091,1,0,0:0:0:0:
448,192,30253,1,0,0:0:0:0:
192,192,30578,1,0,0:0:0:0:
320,192,30740,1,0,0:0:0:0:
448,192,30902,1,0,0:0:0:0:
448,192,31226,1,0,0:0:0:0:
192,192,31551,1,0,0:0:0:0:
192,192,31875,1,0,0:0:0:0:
448,192,32199,1,4,1:0:0:0:
64,192,32199,1,6,0:0:0:0:
320,192,32524,1,8,0:0:0:0:
448,192,32524,1,0,0:0:0:0:
192,192,32848,1,2,0:0:0:0:
64,192,33172,1,0,0:0:0:0:
448,192,33172,1,8,0:0:0:0:
320,192,33497,1,2,0:0:0:0:
192,192,33821,1,8,0:0:0:0:
64,192,33821,1,0,0:0:0:0:
320,192,34145,1,2,0:0:0:0:
448,192,34470,1,8,0:0:0:0:
64,192,34470,1,0,0:0:0:0:
192,192,34794,1,2,0:0:0:0:
320,192,35118,1,8,0:0:0:0:
448,192,35118,1,0,0:0:0:0:
64,192,35443,1,2,0:0:0:0:
192,192,35767,1,8,0:0:0:0:
448,192,35767,1,0,0:0:0:0:
320,192,36091,1,2,0:0:0:0:
192,192,36415,1,8,0:0:0:0:
64,192,36415,1,0,0:0:0:0:
448,192,36740,1,2,0:0:0:0:
320,192,37064,1,8,0:0:0:0:
64,192,37064,1,0,0:0:0:0:
192,192,37388,1,2,0:0:0:0:
320,192,37713,1,8,0:0:0:0:
448,192,37713,1,0,0:0:0:0:
64,192,38037,1,2,0:0:0:0:
192,192,38361,1,0,0:0:0:0:
320,192,38361,1,8,0:0:0:0:
448,192,38686,1,2,0:0:0:0:
192,192,39010,1,8,0:0:0:0:
64,192,39010,1,0,0:0:0:0:
448,192,39334,1,2,0:0:0:0:
320,192,39659,1,8,0:0:0:0:
192,192,39659,1,0,0:0:0:0:
64,192,39983,1,2,0:0:0:0:
448,192,40307,1,0,0:0:0:0:
320,192,40307,1,8,0:0:0:0:
192,192,40632,1,2,0:0:0:0:
64,192,40956,1,0,0:0:0:0:
448,192,40956,1,8,0:0:0:0:
320,192,41280,1,2,0:0:0:0:
192,192,41443,1,2,0:0:0:0:
64,192,41605,1,2,0:0:0:0:
448,192,41605,1,8,0:0:0:0:
192,192,41929,1,2,0:0:0:0:
320,192,42091,128,0,42578:0:0:0:60:kickdrum4.wav
64,192,42578,1,6,0:0:0:0:
448,192,42578,1,4,1:0:0:0:
64,192,42902,1,0,0:0:0:0:
192,192,43064,1,0,0:0:0:0:
192,192,43388,1,0,0:0:0:0:
320,192,43551,1,0,0:0:0:0:
320,192,43875,1,0,0:0:0:0:
448,192,44037,1,0,0:0:0:0:
448,192,44361,1,0,0:0:0:0:
320,192,44524,1,0,0:0:0:0:
192,192,44848,1,2,0:0:0:0:
448,192,45010,1,2,0:0:0:0:
64,192,45172,1,2,0:0:0:0:
64,192,45497,1,0,0:0:0:0:
192,192,45659,1,0,0:0:0:0:
192,192,45983,1,0,0:0:0:0:
320,192,46145,1,0,0:0:0:0:
320,192,46470,1,0,0:0:0:0:
448,192,46632,1,0,0:0:0:0:
448,192,46956,1,0,0:0:0:0:
320,192,47118,1,0,0:0:0:0:
192,192,47443,1,2,0:0:0:0:
320,192,47605,1,2,0:0:0:0:
64,192,47767,1,2,0:0:0:0:
64,192,48091,1,0,0:0:0:0:
320,192,48253,1,0,0:0:0:0:
320,192,48578,1,0,0:0:0:0:
192,192,48740,1,0,0:0:0:0:
192,192,49064,1,0,0:0:0:0:
448,192,49226,1,0,0:0:0:0:
448,192,49551,1,0,0:0:0:0:
320,192,49713,1,0,0:0:0:0:
192,192,50037,1,2,0:0:0:0:
448,192,50199,1,2,0:0:0:0:
64,192,50361,1,2,0:0:0:0:
64,192,50686,1,0,0:0:0:0:
320,192,50848,1,0,0:0:0:0:
320,192,51172,1,0,0:0:0:0:
192,192,51334,1,0,0:0:0:0:
192,192,51659,1,0,0:0:0:0:
448,192,51821,1,0,0:0:0:0:
448,192,52145,1,0,0:0:0:0:
320,192,52307,1,0,0:0:0:0:
192,192,52632,1,2,0:0:0:0:
320,192,52794,1,2,0:0:0:0:
64,192,52956,1,6,0:0:0:0:
448,192,53280,128,8,53605:0:0:0:0:
64,192,53605,1,2,0:0:0:0:
320,192,53929,128,8,54253:0:0:0:0:
192,192,54253,1,2,0:0:0:0:
448,192,54578,128,8,54902:0:0:0:0:
64,192,54902,1,2,0:0:0:0:
192,192,55226,1,10,0:0:0:0:
320,192,55388,1,2,0:0:0:0:
448,192,55551,1,2,0:0:0:0:
64,192,55875,128,8,56199:0:0:0:0:
448,192,56199,1,2,0:0:0:0:
192,192,56524,128,8,56848:0:0:0:0:
320,192,56848,1,2,0:0:0:0:
64,192,57172,128,8,57497:0:0:0:0:
448,192,57497,1,2,0:0:0:0:
320,192,57821,1,10,0:0:0:0:
192,192,57983,1,2,0:0:0:0:
64,192,58145,1,2,0:0:0:0:
448,192,58470,128,8,58794:0:0:0:0:
192,192,58794,1,2,0:0:0:0:
320,192,59118,128,8,59443:0:0:0:0:
64,192,59443,1,2,0:0:0:0:
448,192,59767,128,8,60091:0:0:0:0:
192,192,60091,1,2,0:0:0:0:
320,192,60415,1,10,0:0:0:0:
192,192,60578,1,2,0:0:0:0:
448,192,60740,1,2,0:0:0:0:
64,192,61064,128,8,61388:0:0:0:0:
320,192,61388,1,2,0:0:0:0:
192,192,61713,128,8,62037:0:0:0:0:
448,192,62037,1,2,0:0:0:0:
320,192,62199,1,2,0:0:0:0:
192,192,62361,1,10,0:0:0:0:
64,192,62524,1,2,0:0:0:0:
448,192,62686,1,2,0:0:0:0:
320,192,63010,1,10,0:0:0:0:
448,192,63172,1,2,0:0:0:0:
64,192,63334,1,4,1:0:0:0:
192,192,63334,128,4,63983:0:0:0:0:
448,192,63983,128,0,64632:0:0:0:0:
64,192,64632,128,0,65280:0:0:0:0:
320,192,65280,128,0,65605:0:0:0:0:
192,192,65605,128,0,65929:0:0:0:0:
448,192,65929,128,0,66578:0:0:0:0:
192,192,66578,128,0,67226:0:0:0:0:
320,192,67226,128,0,67875:0:0:0:0:
64,192,67875,128,0,68524:0:0:0:0:
448,192,68524,1,0,0:0:0:0:
192,192,68848,1,0,0:0:0:0:
320,192,69010,1,0,0:0:0:0:
448,192,69172,1,0,0:0:0:0:
320,192,69497,1,0,0:0:0:0:
192,192,69821,1,0,0:0:0:0:
64,192,70145,1,0,0:0:0:0:
192,192,70307,1,0,0:0:0:0:
320,192,70470,1,0,0:0:0:0:
448,192,70794,1,0,0:0:0:0:
64,192,71118,1,0,0:0:0:0:
192,192,71443,1,0,0:0:0:0:
320,192,71605,1,0,0:0:0:0:
448,192,71767,1,0,0:0:0:0:
320,192,72091,1,0,0:0:0:0:
192,192,72415,1,2,0:0:0:0:
64,192,72740,1,8,0:0:0:0:
192,192,72902,1,0,0:0:0:0:
320,192,73064,1,0,0:0:0:0:
192,192,73388,1,8,0:0:0:0:
320,192,73551,1,0,0:0:0:0:
64,192,73713,1,4,1:0:0:0:
448,192,73713,1,6,0:0:0:0:
64,192,74037,1,0,0:0:0:0:
192,192,74037,1,8,0:0:0:0:
320,192,74361,1,2,0:0:0:0:
64,192,74686,1,0,0:0:0:0:
448,192,74686,1,8,0:0:0:0:
192,192,75010,1,2,0:0:0:0:
320,192,75334,1,8,0:0:0:0:
448,192,75334,1,0,0:0:0:0:
192,192,75659,1,2,0:0:0:0:
64,192,75983,1,0,0:0:0:0:
448,192,75983,1,8,0:0:0:0:
320,192,76307,1,2,0:0:0:0:
192,192,76632,1,8,0:0:0:0:
64,192,76632,1,0,0:0:0:0:
448,192,76956,1,2,0:0:0:0:
320,192,77280,1,0,0:0:0:0:
192,192,77280,1,8,0:0:0:0:
64,192,77605,1,2,0:0:0:0:
448,192,77929,1,0,0:0:0:0:
320,192,77929,1,8,0:0:0:0:
64,192,78253,1,2,0:0:0:0:
192,192,78578,1,0,0:0:0:0:
320,192,78578,1,8,0:0:0:0:
448,192,78902,1,2,0:0:0:0:
192,192,79226,1,8,0:0:0:0:
64,192,79226,1,0,0:0:0:0:
448,192,79551,1,2,0:0:0:0:
320,192,79875,1,8,0:0:0:0:
64,192,79875,1,0,0:0:0:0:
192,192,80199,1,2,0:0:0:0:
320,192,80524,1,8,0:0:0:0:
448,192,80524,1,0,0:0:0:0:
64,192,80848,1,2,0:0:0:0:
192,192,81172,1,8,0:0:0:0:
448,192,81172,1,0,0:0:0:0:
320,192,81497,1,2,0:0:0:0:
192,192,81821,1,8,0:0:0:0:
64,192,81821,1,0,0:0:0:0:
320,192,82145,1,2,0:0:0:0:
448,192,82470,1,8,0:0:0:0:
64,192,82470,1,0,0:0:0:0:
192,192,82794,1,2,0:0:0:0:
320,192,82956,1,2,0:0:0:0:
192,192,83118,1,10,0:0:0:0:
448,192,83443,1,2,0:0:0:0:
64,192,83605,1,2,0:0:0:0:
448,192,83767,128,0,84091:0:0:0:60:kickdrum2.wav
192,192,84091,1,6,0:0:0:0:
64,192,84091,1,4,1:0:0:0:
320,192,84253,1,0,0:0:0:0:
192,192,84497,1,0,0:0:0:0:
448,192,84740,1,0,0:0:0:0:
64,192,84983,1,0,0:0:0:0:
320,192,85226,1,0,0:0:0:0:
64,192,85551,1,0,0:0:0:0:
448,192,85794,1,0,0:0:0:0:
192,192,86037,1,0,0:0:0:0:
320,192,86280,1,0,0:0:0:0:
64,192,86524,1,0,0:0:0:0:
320,192,86848,1,0,0:0:0:0:
192,192,87091,1,0,0:0:0:0:
448,192,87334,1,0,0:0:0:0:
64,192,87578,1,0,0:0:0:0:
320,192,87821,1,0,0:0:0:0:
64,192,88145,1,0,0:0:0:0:
448,192,88388,1,0,0:0:0:0:
192,192,88632,1,0,0:0:0:0:
320,192,88875,1,0,0:0:0:0:
64,192,89118,1,0,0:0:0:0:
448,192,89443,1,0,0:0:0:0:
192,192,89686,1,0,0:0:0:0:
320,192,89929,1,0,0:0:0:0:
64,192,90172,1,0,0:0:0:0:
448,192,90415,1,0,0:0:0:0:
64,192,90740,1,0,0:0:0:0:
320,192,90983,1,0,0:0:0:0:
192,192,91226,1,0,0:0:0:0:
448,192,91470,1,0,0:0:0:0:
64,192,91713,1,0,0:0:0:0:
448,192,92037,1,0,0:0:0:0:
192,192,92280,1,0,0:0:0:0:
320,192,92524,1,0,0:0:0:0:
64,192,92767,1,0,0:0:0:0:
448,192,93010,1,0,0:0:0:0:
64,192,93172,128,0,94470:0:0:0:60:kickdrum3.wav
320,192,94470,1,6,0:0:0:0:
448,192,94470,128,4,95767:1:0:0:0:
192,192,95767,128,0,96415:0:0:0:0:
320,192,96415,128,0,97064:0:0:0:0:
64,192,97064,128,0,97713:0:0:0:0:
448,192,97713,128,0,98361:0:0:0:0:
192,192,98361,128,0,99010:0:0:0:0:
64,192,99010,128,0,99659:0:0:0:0:
448,192,99659,128,0,100307:0:0:0:0:
320,192,100307,128,0,100956:0:0:0:0:
192,192,100956,128,0,101605:0:0:0:0:
64,192,101605,128,0,106064:0:0:0:0:
