osu file format v14

[General]
AudioFilename: audio.mp3
AudioLeadIn: 0
PreviewTime: 73404
Countdown: 0
SampleSet: Soft
StackLeniency: 0.7
Mode: 3
LetterboxInBreaks: 0
SpecialStyle: 0
WidescreenStoryboard: 0

[Editor]
Bookmarks: 11463,21841,32220,52976,63355,73733,94490,106003
DistanceSpacing: 1.3
BeatDivisor: 4
GridSize: 4
TimelineZoom: 2.699999

[Metadata]
Title:entelecheia
TitleUnicode:entelecheia
Artist:Rche
ArtistUnicode:Rche
Creator:Reba
Version:Elan Vital
Source:beatmania IIDX 22 PENDUAL
Tags:bemani video game instrumental original soundtrack vol.2 Tomosuke Funaki 舟木智介 KONAMI beatmania IIDX INFINITAS ULTIMATE MOBILE SACRED TRANCE Todestrieb Lincle Kingdom Qpronicle Chord phase 1 伝説錬金 PENDUAL TALISMAN Seraph MISSILE228 Wonki Pengdoll
BeatmapID:2428769
BeatmapSetID:1164312

[Difficulty]
HPDrainRate:8.5
CircleSize:7
OverallDifficulty:7.5
ApproachRate:5
SliderMultiplier:1.4
SliderTickRate:1

[Events]
//Background and Video events
0,0,"Entelecheia BG.jpg",0,0
//Break Periods
//Storyboard Layer 0 (Background)
//Storyboard Layer 1 (Fail)
//Storyboard Layer 2 (Pass)
//Storyboard Layer 3 (Foreground)
//Storyboard Layer 4 (Overlay)
//Storyboard Sound Samples

[TimingPoints]
1080,324.324324324324,4,2,1,30,1,0
32215,-100,4,2,1,30,0,1
42593,-100,4,2,1,30,0,0
52971,-100,4,2,1,30,0,1
63350,-100,4,2,1,30,0,0
73728,-100,4,2,1,30,0,1
94485,-100,4,2,1,30,0,0

[HitObjects]
402,192,1080,5,0,0:0:0:70:Crash-L.wav
475,192,1080,1,0,0:0:0:0:
329,192,1080,1,0,0:0:0:0:
182,192,1080,1,0,0:0:0:0:
36,192,1080,1,0,0:0:0:0:
256,192,1080,1,0,0:0:0:0:
109,192,1161,1,0,0:0:0:0:
182,192,1242,1,0,0:0:0:0:
256,192,1323,1,0,0:0:0:0:
329,192,1404,1,0,0:0:0:0:
475,192,1404,1,0,0:0:0:0:
36,192,1404,1,0,0:0:0:0:
402,192,1404,1,0,0:0:0:0:
182,192,1485,1,0,0:0:0:0:
36,192,1566,1,0,0:0:0:0:
256,192,1647,1,0,0:0:0:0:
475,192,1647,1,0,0:0:0:0:
109,192,1728,1,0,0:0:0:0:
36,192,1728,1,0,0:0:0:0:
329,192,1728,1,0,0:0:0:0:
402,192,1809,1,0,0:0:0:0:
475,192,1890,1,0,0:0:0:0:
256,192,1971,1,0,0:0:0:0:
402,192,2052,1,0,0:0:0:0:
475,192,2052,1,0,0:0:0:0:
36,192,2052,1,0,0:0:0:0:
182,192,2052,1,0,0:0:0:0:
329,192,2134,1,0,0:0:0:0:
109,192,2215,1,0,0:0:0:0:
402,192,2296,1,0,0:0:0:0:
256,192,2296,1,0,0:0:0:0:
36,192,2377,1,0,0:0:0:0:
475,192,2377,1,0,0:0:0:0:
109,192,2377,1,0,0:0:0:0:
182,192,2458,1,0,0:0:0:0:
256,192,2539,1,0,0:0:0:0:
329,192,2620,1,0,0:0:0:0:
182,192,2701,1,0,0:0:0:0:
36,192,2701,1,0,0:0:0:0:
475,192,2701,1,0,0:0:0:0:
402,192,2701,1,0,0:0:0:0:
256,192,2782,1,0,0:0:0:0:
109,192,2863,1,0,0:0:0:0:
329,192,2944,1,0,0:0:0:0:
475,192,2944,1,0,0:0:0:0:
36,192,3025,1,0,0:0:0:0:
256,192,3025,1,0,0:0:0:0:
109,192,3025,1,0,0:0:0:0:
402,192,3107,1,0,0:0:0:0:
182,192,3188,1,0,0:0:0:0:
109,192,3269,1,0,0:0:0:0:
256,192,3350,1,0,0:0:0:0:
36,192,3350,1,0,0:0:0:0:
475,192,3350,1,0,0:0:0:0:
402,192,3350,1,0,0:0:0:0:
329,192,3431,1,0,0:0:0:0:
182,192,3512,1,0,0:0:0:0:
402,192,3593,1,0,0:0:0:0:
475,192,3593,1,0,0:0:0:0:
256,192,3674,1,0,0:0:0:0:
109,192,3674,1,0,0:0:0:0:
36,192,3674,1,0,0:0:0:0:
329,192,3755,1,0,0:0:0:0:
402,192,3836,1,0,0:0:0:0:
256,192,3917,1,0,0:0:0:0:
109,192,3998,1,0,0:0:0:0:
36,192,3998,1,0,0:0:0:0:
329,192,3998,1,0,0:0:0:0:
475,192,3998,1,0,0:0:0:0:
182,192,4079,1,0,0:0:0:0:
402,192,4161,1,0,0:0:0:0:
256,192,4242,1,0,0:0:0:0:
109,192,4242,1,0,0:0:0:0:
475,192,4323,1,0,0:0:0:0:
36,192,4323,1,0,0:0:0:0:
402,192,4323,1,0,0:0:0:0:
329,192,4404,1,0,0:0:0:0:
256,192,4485,1,0,0:0:0:0:
182,192,4566,1,0,0:0:0:0:
329,192,4647,1,0,0:0:0:0:
36,192,4647,1,0,0:0:0:0:
475,192,4647,1,0,0:0:0:0:
109,192,4647,1,0,0:0:0:0:
256,192,4728,1,0,0:0:0:0:
402,192,4809,1,0,0:0:0:0:
182,192,4890,1,0,0:0:0:0:
109,192,4890,1,0,0:0:0:0:
36,192,4971,1,0,0:0:0:0:
329,192,4971,1,0,0:0:0:0:
475,192,4971,1,0,0:0:0:0:
256,192,5052,1,0,0:0:0:0:
182,192,5134,1,0,0:0:0:0:
329,192,5215,1,0,0:0:0:0:
109,192,5296,1,0,0:0:0:0:
36,192,5296,1,0,0:0:0:0:
256,192,5296,1,0,0:0:0:0:
475,192,5296,1,0,0:0:0:0:
402,192,5377,1,0,0:0:0:0:
182,192,5458,1,0,0:0:0:0:
475,192,5539,1,0,0:0:0:0:
329,192,5539,1,0,0:0:0:0:
109,192,5620,1,0,0:0:0:0:
36,192,5620,1,0,0:0:0:0:
182,192,5620,1,0,0:0:0:0:
256,192,5701,1,0,0:0:0:0:
329,192,5782,1,0,0:0:0:0:
402,192,5863,1,0,0:0:0:0:
475,192,5944,1,0,0:0:0:0:
36,192,5944,1,0,0:0:0:0:
329,192,5944,1,0,0:0:0:0:
109,192,5944,1,0,0:0:0:0:
182,192,6025,1,0,0:0:0:0:
402,192,6107,1,0,0:0:0:0:
256,192,6188,1,0,0:0:0:0:
109,192,6188,1,0,0:0:0:0:
475,192,6269,128,0,7566:0:0:0:0:
329,192,6269,1,0,0:0:0:0:
36,192,6269,1,0,0:0:0:0:
402,192,6269,1,0,0:0:0:0:
109,192,6350,1,0,0:0:0:0:
182,192,6431,1,0,0:0:0:0:
256,192,6512,1,0,0:0:0:0:
329,192,6593,1,0,0:0:0:0:
402,192,6593,1,0,0:0:0:0:
36,192,6593,1,0,0:0:0:0:
182,192,6674,1,0,0:0:0:0:
36,192,6755,1,0,0:0:0:0:
256,192,6836,1,0,0:0:0:0:
402,192,6836,1,0,0:0:0:0:
109,192,6917,1,0,0:0:0:0:
36,192,6917,1,0,0:0:0:0:
329,192,6917,1,0,0:0:0:0:
256,192,6998,1,0,0:0:0:0:
182,192,7079,1,0,0:0:0:0:
109,192,7161,1,0,0:0:0:0:
36,192,7242,1,0,0:0:0:0:
402,192,7242,1,0,0:0:0:0:
329,192,7242,1,0,0:0:0:0:
182,192,7323,1,0,0:0:0:0:
329,192,7404,1,0,0:0:0:0:
109,192,7485,1,0,0:0:0:0:
36,192,7485,1,0,0:0:0:0:
256,192,7566,128,0,8863:0:0:0:0:
182,192,7566,1,0,0:0:0:0:
329,192,7566,1,0,0:0:0:0:
402,192,7566,1,0,0:0:0:0:
109,192,7647,1,0,0:0:0:0:
36,192,7728,1,0,0:0:0:0:
182,192,7809,1,0,0:0:0:0:
329,192,7890,1,0,0:0:0:0:
475,192,7890,1,0,0:0:0:0:
402,192,7890,1,0,0:0:0:0:
109,192,7971,1,0,0:0:0:0:
36,192,8052,1,0,0:0:0:0:
402,192,8134,1,0,0:0:0:0:
475,192,8134,1,0,0:0:0:0:
329,192,8215,1,0,0:0:0:0:
109,192,8215,1,0,0:0:0:0:
36,192,8215,1,0,0:0:0:0:
182,192,8296,1,0,0:0:0:0:
109,192,8377,1,0,0:0:0:0:
36,192,8458,1,0,0:0:0:0:
182,192,8539,1,0,0:0:0:0:
475,192,8539,1,0,0:0:0:0:
329,192,8539,1,0,0:0:0:0:
36,192,8620,1,0,0:0:0:0:
109,192,8701,1,0,0:0:0:0:
329,192,8782,1,0,0:0:0:0:
182,192,8782,1,0,0:0:0:0:
109,192,8863,128,0,10161:0:0:0:0:
402,192,8863,1,0,0:0:0:0:
475,192,8863,1,0,0:0:0:0:
36,192,8863,1,0,0:0:0:0:
256,192,8944,1,0,0:0:0:0:
182,192,9025,1,0,0:0:0:0:
329,192,9107,1,0,0:0:0:0:
475,192,9188,1,0,0:0:0:0:
182,192,9188,1,0,0:0:0:0:
36,192,9188,1,0,0:0:0:0:
402,192,9269,1,0,0:0:0:0:
329,192,9350,1,0,0:0:0:0:
256,192,9431,1,0,0:0:0:0:
182,192,9431,1,0,0:0:0:0:
36,192,9512,1,0,0:0:0:0:
402,192,9512,1,0,0:0:0:0:
475,192,9512,1,0,0:0:0:0:
256,192,9593,1,0,0:0:0:0:
329,192,9674,1,0,0:0:0:0:
402,192,9755,1,0,0:0:0:0:
475,192,9836,1,0,0:0:0:0:
182,192,9836,1,0,0:0:0:0:
36,192,9836,1,0,0:0:0:0:
329,192,9917,1,0,0:0:0:0:
182,192,9998,1,0,0:0:0:0:
256,192,10079,1,0,0:0:0:0:
402,192,10079,1,0,0:0:0:0:
329,192,10161,1,0,0:0:0:0:
475,192,10161,1,0,0:0:0:0:
182,192,10161,1,0,0:0:0:0:
36,192,10161,128,0,11539:0:0:0:0:
109,192,10242,1,0,0:0:0:0:
256,192,10323,1,0,0:0:0:0:
329,192,10404,1,0,0:0:0:0:
402,192,10485,1,0,0:0:0:0:
475,192,10485,1,0,0:0:0:0:
109,192,10485,1,0,0:0:0:0:
256,192,10566,1,0,0:0:0:0:
182,192,10647,1,0,0:0:0:0:
475,192,10728,1,0,0:0:0:0:
329,192,10728,1,0,0:0:0:0:
109,192,10809,1,0,0:0:0:0:
182,192,10809,1,0,0:0:0:0:
256,192,10809,1,0,0:0:0:0:
402,192,10890,1,0,0:0:0:0:
329,192,10971,1,0,0:0:0:0:
256,192,11052,1,0,0:0:0:0:
182,192,11134,1,0,0:0:0:0:
109,192,11134,1,0,0:0:0:0:
475,192,11134,1,0,0:0:0:0:
329,192,11215,1,0,0:0:0:0:
402,192,11296,1,0,0:0:0:0:
475,192,11377,1,0,0:0:0:0:
402,192,11458,128,0,11539:0:0:0:70:Crash-L.wav
329,192,11458,128,0,11701:0:0:0:70:Bass.wav
256,192,11458,128,0,11539:0:0:0:0:
182,192,11458,128,0,11539:0:0:0:0:
109,192,11458,128,0,11539:0:0:0:0:
475,192,11458,128,0,11539:0:0:0:0:
402,192,11620,128,0,11701:0:0:0:0:
475,192,11620,128,0,11701:0:0:0:0:
182,192,11620,128,0,11863:0:0:0:0:
329,192,11782,128,0,12025:0:0:0:70:Bass.wav
475,192,11782,1,0,0:0:0:0:
402,192,11782,1,0,0:0:0:0:
109,192,11782,128,0,11863:0:0:0:0:
36,192,11782,128,0,11863:0:0:0:0:
402,192,11944,128,0,12025:0:0:0:0:
256,192,11944,128,0,12025:0:0:0:0:
182,192,11944,128,0,12188:0:0:0:0:
329,192,12107,128,0,12350:0:0:0:70:Bass.wav
109,192,12107,128,0,12188:0:0:0:0:
36,192,12107,128,0,12188:0:0:0:0:
475,192,12107,1,0,0:0:0:0:
402,192,12107,1,0,0:0:0:0:
36,192,12269,128,0,12350:0:0:0:0:
475,192,12269,128,0,12350:0:0:0:0:
182,192,12269,128,0,12512:0:0:0:0:
475,192,12431,128,0,12674:0:0:0:70:Bass.wav
256,192,12431,128,0,12512:0:0:0:0:
36,192,12431,1,0,0:0:0:0:
109,192,12431,1,0,0:0:0:0:
329,192,12431,128,0,12512:0:0:0:0:
402,192,12593,128,0,12836:0:0:0:0:
182,192,12593,128,0,12674:0:0:0:0:
109,192,12593,128,0,12674:0:0:0:0:
329,192,12755,128,0,12998:0:0:0:70:Bass.wav
36,192,12755,128,0,12836:0:0:0:0:
475,192,12755,128,0,12836:0:0:0:0:
109,192,12755,1,0,0:0:0:0:
182,192,12755,1,0,0:0:0:0:
256,192,12917,128,0,13161:0:0:0:0:
402,192,12917,128,0,12998:0:0:0:0:
109,192,12917,128,0,12998:0:0:0:0:
182,192,13079,128,0,13323:0:0:0:70:Bass.wav
329,192,13079,128,0,13161:0:0:0:0:
36,192,13079,128,0,13161:0:0:0:0:
402,192,13079,1,0,0:0:0:0:
475,192,13079,1,0,0:0:0:0:
109,192,13242,128,0,13485:0:0:0:0:
329,192,13242,128,0,13323:0:0:0:0:
256,192,13242,128,0,13323:0:0:0:0:
402,192,13404,128,0,13647:0:0:0:70:Bass.wav
36,192,13404,128,0,13485:0:0:0:0:
182,192,13404,1,0,0:0:0:0:
329,192,13404,128,0,13485:0:0:0:0:
256,192,13404,1,0,0:0:0:0:
109,192,13566,128,0,13809:0:0:0:0:
475,192,13566,128,0,13647:0:0:0:0:
256,192,13566,128,0,13647:0:0:0:0:
402,192,13728,128,0,13971:0:0:0:70:Bass.wav
36,192,13728,128,0,13809:0:0:0:0:
182,192,13728,128,0,13809:0:0:0:0:
256,192,13728,1,0,0:0:0:0:
329,192,13728,1,0,0:0:0:0:
109,192,13890,128,0,14134:0:0:0:0:
475,192,13890,128,0,13971:0:0:0:0:
329,192,13890,128,0,13971:0:0:0:0:
402,192,14052,128,0,14296:0:0:0:70:Bass.wav
329,192,14052,128,0,14134:0:0:0:0:
475,192,14052,1,0,0:0:0:0:
36,192,14052,1,0,0:0:0:0:
256,192,14052,128,0,14134:0:0:0:0:
36,192,14215,128,0,14458:0:0:0:0:
182,192,14215,128,0,14296:0:0:0:0:
256,192,14215,128,0,14296:0:0:0:0:
109,192,14377,128,0,14620:0:0:0:70:Bass.wav
402,192,14377,128,0,14458:0:0:0:0:
182,192,14377,1,0,0:0:0:0:
256,192,14377,1,0,0:0:0:0:
475,192,14377,128,0,14458:0:0:0:0:
182,192,14539,128,0,14782:0:0:0:0:
36,192,14539,128,0,14620:0:0:0:0:
329,192,14539,128,0,14620:0:0:0:0:
256,192,14701,128,0,14944:0:0:0:70:Bass.wav
109,192,14701,128,0,14782:0:0:0:0:
402,192,14701,1,0,0:0:0:0:
475,192,14701,1,0,0:0:0:0:
36,192,14701,128,0,14782:0:0:0:0:
329,192,14863,128,0,15107:0:0:0:0:
109,192,14863,128,0,14944:0:0:0:0:
182,192,14863,128,0,14944:0:0:0:0:
402,192,15025,128,0,15269:0:0:0:70:Bass.wav
256,192,15025,128,0,15107:0:0:0:0:
475,192,15025,1,0,0:0:0:0:
36,192,15025,1,0,0:0:0:0:
182,192,15025,128,0,15107:0:0:0:0:
475,192,15188,128,0,15431:0:0:0:0:
329,192,15188,128,0,15269:0:0:0:0:
256,192,15188,128,0,15269:0:0:0:0:
36,192,15350,128,0,15593:0:0:0:70:Bass.wav
402,192,15350,128,0,15431:0:0:0:0:
329,192,15350,128,0,15431:0:0:0:0:
182,192,15350,1,0,0:0:0:0:
109,192,15350,1,0,0:0:0:0:
182,192,15512,128,0,15755:0:0:0:0:
109,192,15512,128,0,15593:0:0:0:0:
329,192,15512,128,0,15593:0:0:0:0:
109,192,15674,128,0,15755:0:0:0:70:Bass.wav
36,192,15674,128,0,15917:0:0:0:0:
475,192,15674,1,0,0:0:0:0:
256,192,15674,1,0,0:0:0:0:
402,192,15674,128,0,15755:0:0:0:0:
182,192,15836,128,0,16079:0:0:0:0:
109,192,15836,128,0,15917:0:0:0:0:
475,192,15836,128,0,15917:0:0:0:0:
36,192,15998,128,0,16242:0:0:0:70:Bass.wav
109,192,15998,128,0,16079:0:0:0:0:
329,192,15998,128,0,16079:0:0:0:0:
475,192,15998,1,0,0:0:0:0:
402,192,15998,1,0,0:0:0:0:
109,192,16161,128,0,16242:0:0:0:0:
182,192,16161,128,0,16404:0:0:0:0:
402,192,16161,128,0,16242:0:0:0:0:
36,192,16323,128,0,16566:0:0:0:70:Bass.wav
109,192,16323,128,0,16404:0:0:0:0:
256,192,16323,128,0,16404:0:0:0:0:
475,192,16323,1,0,0:0:0:0:
402,192,16323,1,0,0:0:0:0:
182,192,16485,128,0,16728:0:0:0:0:
109,192,16485,128,0,16566:0:0:0:0:
329,192,16485,128,0,16566:0:0:0:0:
475,192,16647,128,0,16890:0:0:0:70:Bass.wav
109,192,16647,128,0,16728:0:0:0:0:
36,192,16647,128,0,16728:0:0:0:0:
402,192,16647,1,0,0:0:0:0:
329,192,16647,1,0,0:0:0:0:
402,192,16809,128,0,16890:0:0:0:0:
329,192,16809,128,0,17052:0:0:0:0:
182,192,16809,128,0,16890:0:0:0:0:
402,192,16971,128,0,17052:0:0:0:70:Bass.wav
475,192,16971,128,0,17215:0:0:0:0:
256,192,16971,1,0,0:0:0:0:
36,192,16971,1,0,0:0:0:0:
109,192,16971,128,0,17052:0:0:0:0:
402,192,17134,128,0,17215:0:0:0:0:
329,192,17134,128,0,17377:0:0:0:0:
36,192,17134,128,0,17215:0:0:0:0:
475,192,17296,128,0,17539:0:0:0:70:Bass.wav
402,192,17296,128,0,17377:0:0:0:0:
256,192,17296,128,0,17377:0:0:0:0:
36,192,17296,1,0,0:0:0:0:
109,192,17296,1,0,0:0:0:0:
402,192,17458,128,0,17539:0:0:0:0:
329,192,17458,128,0,17701:0:0:0:0:
182,192,17458,128,0,17539:0:0:0:0:
256,192,17620,128,0,17863:0:0:0:70:Bass.wav
475,192,17620,128,0,17701:0:0:0:0:
402,192,17620,128,0,17701:0:0:0:0:
109,192,17620,1,0,0:0:0:0:
36,192,17620,1,0,0:0:0:0:
182,192,17782,128,0,18025:0:0:0:0:
402,192,17782,128,0,17863:0:0:0:0:
329,192,17782,128,0,17863:0:0:0:0:
109,192,17944,128,0,18188:0:0:0:70:Bass.wav
329,192,17944,128,0,18025:0:0:0:0:
475,192,17944,1,0,0:0:0:0:
256,192,17944,128,0,18025:0:0:0:0:
36,192,17944,1,0,0:0:0:0:
36,192,18107,128,0,18350:0:0:0:0:
256,192,18107,128,0,18188:0:0:0:0:
182,192,18107,128,0,18188:0:0:0:0:
475,192,18269,128,0,18512:0:0:0:70:Bass.wav
182,192,18269,128,0,18350:0:0:0:0:
109,192,18269,128,0,18350:0:0:0:0:
402,192,18269,1,0,0:0:0:0:
329,192,18269,1,0,0:0:0:0:
36,192,18431,128,0,18674:0:0:0:0:
182,192,18431,128,0,18512:0:0:0:0:
329,192,18431,128,0,18512:0:0:0:0:
475,192,18593,128,0,18836:0:0:0:70:Bass.wav
109,192,18593,128,0,18674:0:0:0:0:
182,192,18593,128,0,18674:0:0:0:0:
402,192,18593,1,0,0:0:0:0:
256,192,18593,1,0,0:0:0:0:
256,192,18755,128,0,18998:0:0:0:0:
109,192,18755,128,0,18836:0:0:0:0:
402,192,18755,128,0,18836:0:0:0:0:
36,192,18917,128,0,19161:0:0:0:70:Bass.wav
329,192,18917,128,0,18998:0:0:0:0:
475,192,18917,128,0,18998:0:0:0:0:
182,192,18917,1,0,0:0:0:0:
109,192,18917,1,0,0:0:0:0:
256,192,19079,128,0,19323:0:0:0:0:
109,192,19079,128,0,19161:0:0:0:0:
402,192,19079,128,0,19161:0:0:0:0:
475,192,19242,128,0,19485:0:0:0:70:Bass.wav
182,192,19242,128,0,19323:0:0:0:0:
329,192,19242,128,0,19323:0:0:0:0:
109,192,19242,1,0,0:0:0:0:
36,192,19242,1,0,0:0:0:0:
256,192,19404,128,0,19647:0:0:0:0:
402,192,19404,128,0,19485:0:0:0:0:
109,192,19404,128,0,19485:0:0:0:0:
182,192,19566,128,0,19647:0:0:0:70:Bass.wav
329,192,19566,128,0,19647:0:0:0:0:
475,192,19566,128,0,19647:0:0:0:0:
402,192,19566,128,0,19647:0:0:0:0:
36,192,19566,128,0,19728:0:0:0:0:
256,192,19728,1,0,0:0:0:70:Bass.wav
329,192,19728,1,0,0:0:0:0:
475,192,19728,1,0,0:0:0:0:
402,192,19728,1,0,0:0:0:0:
182,192,19728,128,0,19971:0:0:0:0:
109,192,19890,128,0,19971:0:0:0:70:Bass.wav
36,192,19890,128,0,19971:0:0:0:0:
402,192,19890,128,0,19971:0:0:0:0:
475,192,19890,128,0,19971:0:0:0:0:
256,192,19890,128,0,20052:0:0:0:0:
109,192,20052,1,0,0:0:0:70:Bass.wav
402,192,20052,1,0,0:0:0:0:
475,192,20052,1,0,0:0:0:0:
182,192,20052,1,0,0:0:0:0:
36,192,20052,128,0,20296:0:0:0:0:
109,192,20215,128,0,20296:0:0:0:70:Bass.wav
256,192,20215,128,0,20296:0:0:0:0:
402,192,20215,128,0,20296:0:0:0:0:
475,192,20215,128,0,20377:0:0:0:0:
182,192,20215,128,0,20296:0:0:0:0:
402,192,20377,1,0,0:0:0:70:Bass.wav
256,192,20377,1,0,0:0:0:0:
109,192,20377,1,0,0:0:0:0:
36,192,20377,1,0,0:0:0:0:
182,192,20377,128,0,20620:0:0:0:0:
256,192,20539,128,0,20620:0:0:0:70:Bass.wav
402,192,20539,128,0,20620:0:0:0:0:
36,192,20539,128,0,20620:0:0:0:0:
475,192,20539,128,0,20620:0:0:0:0:
329,192,20539,128,0,20701:0:0:0:0:
256,192,20701,1,0,0:0:0:70:Bass.wav
182,192,20701,1,0,0:0:0:0:
36,192,20701,1,0,0:0:0:0:
402,192,20701,1,0,0:0:0:0:
475,192,20701,128,0,20944:0:0:0:0:
256,192,20863,128,0,20944:0:0:0:70:Bass.wav
402,192,20863,128,0,20944:0:0:0:0:
36,192,20863,128,0,20944:0:0:0:0:
109,192,20863,128,0,20944:0:0:0:0:
182,192,20863,128,0,21025:0:0:0:0:
109,192,21025,1,0,0:0:0:70:Bass.wav
256,192,21025,1,0,0:0:0:0:
475,192,21025,1,0,0:0:0:0:
402,192,21025,1,0,0:0:0:0:
36,192,21025,128,0,21269:0:0:0:0:
256,192,21188,128,0,21269:0:0:0:70:Bass.wav
109,192,21188,128,0,21269:0:0:0:0:
475,192,21188,128,0,21269:0:0:0:0:
402,192,21188,128,0,21269:0:0:0:0:
329,192,21188,128,0,21350:0:0:0:0:
402,192,21350,1,0,0:0:0:70:Bass.wav
475,192,21350,1,0,0:0:0:0:
256,192,21350,1,0,0:0:0:0:
109,192,21350,1,0,0:0:0:0:
36,192,21350,1,0,0:0:0:0:
475,192,21512,1,0,0:0:0:70:Bass.wav
402,192,21512,1,0,0:0:0:0:
182,192,21512,1,0,0:0:0:0:
109,192,21593,1,0,0:0:0:70:Bass.wav
36,192,21593,1,0,0:0:0:0:
329,192,21593,1,0,0:0:0:0:
256,192,21674,1,0,0:0:0:70:Bass.wav
402,192,21674,1,0,0:0:0:0:
475,192,21674,1,0,0:0:0:0:
182,192,21755,1,0,0:0:0:70:Bass.wav
36,192,21755,1,0,0:0:0:0:
109,192,21755,1,0,0:0:0:0:
256,192,21836,1,0,0:0:0:70:Crash-L.wav
329,192,21836,1,0,0:0:0:70:Bass.wav
402,192,21836,1,0,0:0:0:0:
475,192,21836,1,0,0:0:0:0:
109,192,21836,1,0,0:0:0:0:
36,192,21836,1,0,0:0:0:0:
182,192,21836,1,0,0:0:0:0:
329,192,21998,128,0,22079:0:0:0:0:
182,192,21998,128,0,22079:0:0:0:0:
475,192,22161,128,0,22404:0:0:0:0:
402,192,22161,128,0,22404:0:0:0:0:
109,192,22323,128,0,22404:0:0:0:0:
36,192,22323,128,0,22404:0:0:0:0:
329,192,22485,128,0,22728:0:0:0:0:
475,192,22485,128,0,22728:0:0:0:0:
402,192,22647,128,0,22728:0:0:0:0:
256,192,22647,128,0,22728:0:0:0:0:
329,192,22809,128,0,23052:0:0:0:0:
182,192,22809,128,0,23052:0:0:0:0:
256,192,22971,128,0,23052:0:0:0:0:
109,192,22971,128,0,23052:0:0:0:0:
475,192,23134,128,0,23377:0:0:0:0:
402,192,23134,128,0,23377:0:0:0:0:
182,192,23296,128,0,23377:0:0:0:0:
36,192,23296,128,0,23377:0:0:0:0:
36,192,23458,128,0,23701:0:0:0:0:
182,192,23458,128,0,23701:0:0:0:0:
329,192,23620,128,0,23701:0:0:0:0:
475,192,23620,128,0,23701:0:0:0:0:
475,192,23782,128,0,24025:0:0:0:0:
329,192,23782,128,0,24025:0:0:0:0:
256,192,23944,128,0,24025:0:0:0:0:
109,192,23944,128,0,24025:0:0:0:0:
256,192,24107,128,0,24350:0:0:0:0:
109,192,24107,128,0,24350:0:0:0:0:
182,192,24269,128,0,24350:0:0:0:0:
36,192,24269,128,0,24350:0:0:0:0:
402,192,24431,128,0,24674:0:0:0:0:
475,192,24431,128,0,24674:0:0:0:0:
256,192,24593,128,0,24674:0:0:0:0:
109,192,24593,128,0,24674:0:0:0:0:
402,192,24755,128,0,24998:0:0:0:0:
475,192,24755,128,0,24998:0:0:0:0:
329,192,24917,128,0,24998:0:0:0:0:
182,192,24917,128,0,24998:0:0:0:0:
475,192,25079,128,0,25323:0:0:0:0:
36,192,25079,128,0,25323:0:0:0:0:
109,192,25242,128,0,25323:0:0:0:0:
402,192,25242,128,0,25323:0:0:0:0:
329,192,25404,128,0,25647:0:0:0:0:
182,192,25404,128,0,25647:0:0:0:0:
109,192,25566,128,0,25647:0:0:0:0:
402,192,25566,128,0,25647:0:0:0:0:
475,192,25728,128,0,25809:0:0:0:0:
36,192,25728,128,0,25809:0:0:0:0:
475,192,25890,128,0,26134:0:0:0:0:
36,192,25890,128,0,26134:0:0:0:0:
329,192,26052,128,0,26134:0:0:0:0:
182,192,26052,128,0,26134:0:0:0:0:
182,192,26215,128,0,26458:0:0:0:0:
329,192,26215,128,0,26458:0:0:0:0:
256,192,26377,128,0,26458:0:0:0:0:
109,192,26377,128,0,26458:0:0:0:0:
109,192,26539,128,0,26782:0:0:0:0:
256,192,26539,128,0,26782:0:0:0:0:
182,192,26701,128,0,26782:0:0:0:0:
36,192,26701,128,0,26782:0:0:0:0:
36,192,26863,128,0,26944:0:0:0:0:
182,192,26863,128,0,26944:0:0:0:0:
475,192,27025,128,0,27593:0:0:0:0:
256,192,27025,128,0,27107:0:0:0:0:
36,192,27025,128,0,27107:0:0:0:0:
402,192,27188,128,0,27593:0:0:0:0:
182,192,27188,128,0,27269:0:0:0:0:
329,192,27350,128,0,27593:0:0:0:0:
109,192,27350,128,0,27431:0:0:0:0:
256,192,27512,128,0,27593:0:0:0:0:
36,192,27512,128,0,27593:0:0:0:0:
36,192,27674,128,0,27917:0:0:0:0:
256,192,27674,128,0,27755:0:0:0:0:
475,192,27674,128,0,27836:0:0:0:0:
109,192,27755,128,0,27917:0:0:0:0:
329,192,27755,128,0,27836:0:0:0:0:
182,192,27836,128,0,28079:0:0:0:0:
402,192,27836,128,0,27917:0:0:0:0:
475,192,27917,128,0,28079:0:0:0:0:
256,192,27917,128,0,28079:0:0:0:0:
109,192,27998,128,0,28079:0:0:0:0:
36,192,27998,128,0,28079:0:0:0:0:
182,192,28161,128,0,28404:0:0:0:0:
329,192,28161,128,0,28404:0:0:0:0:
256,192,28323,128,0,28404:0:0:0:0:
475,192,28323,128,0,28404:0:0:0:0:
36,192,28323,128,0,28890:0:0:0:0:
109,192,28485,128,0,28890:0:0:0:0:
329,192,28485,128,0,28566:0:0:0:0:
182,192,28647,128,0,28890:0:0:0:0:
402,192,28647,128,0,28728:0:0:0:0:
256,192,28809,128,0,28890:0:0:0:0:
475,192,28809,128,0,28890:0:0:0:0:
475,192,28971,128,0,29215:0:0:0:0:
256,192,28971,128,0,29052:0:0:0:0:
36,192,28971,128,0,29134:0:0:0:0:
402,192,29052,128,0,29215:0:0:0:0:
182,192,29052,128,0,29134:0:0:0:0:
329,192,29134,128,0,29377:0:0:0:0:
109,192,29134,128,0,29215:0:0:0:0:
36,192,29215,128,0,29377:0:0:0:0:
256,192,29215,128,0,29377:0:0:0:0:
402,192,29296,128,0,29377:0:0:0:0:
475,192,29296,128,0,29377:0:0:0:0:
329,192,29458,128,0,29701:0:0:0:0:
182,192,29458,128,0,29701:0:0:0:0:
475,192,29620,128,0,29863:0:0:0:0:
36,192,29620,128,0,29863:0:0:0:0:
256,192,29620,128,0,29701:0:0:0:0:
329,192,29782,128,0,29863:0:0:0:0:
182,192,29782,128,0,29863:0:0:0:0:
36,192,29944,128,0,30188:0:0:0:0:
182,192,29944,128,0,30025:0:0:0:0:
256,192,30025,128,0,30107:0:0:0:0:
109,192,30025,128,0,30350:0:0:0:0:
329,192,30107,128,0,30188:0:0:0:0:
182,192,30107,128,0,30350:0:0:0:0:
402,192,30188,128,0,30269:0:0:0:0:
256,192,30188,128,0,30350:0:0:0:0:
475,192,30269,128,0,30512:0:0:0:0:
329,192,30269,128,0,30512:0:0:0:0:
36,192,30269,128,0,30350:0:0:0:0:
109,192,30431,128,0,30674:0:0:0:0:
36,192,30431,128,0,30674:0:0:0:0:
256,192,30593,128,0,30836:0:0:0:0:
402,192,30593,128,0,30836:0:0:0:0:
36,192,30755,128,0,30998:0:0:0:0:
109,192,30755,128,0,30998:0:0:0:0:
329,192,30917,128,0,31161:0:0:0:0:
182,192,30917,128,0,30998:0:0:0:0:
475,192,30917,128,0,31161:0:0:0:0:
256,192,31079,128,0,31323:0:0:0:0:
109,192,31079,128,0,31242:0:0:0:0:
36,192,31079,128,0,31161:0:0:0:0:
182,192,31242,128,0,31485:0:0:0:0:
402,192,31242,128,0,31323:0:0:0:0:
475,192,31242,128,0,31404:0:0:0:0:
36,192,31404,128,0,31647:0:0:0:0:
329,192,31404,128,0,31485:0:0:0:0:
109,192,31404,128,0,31566:0:0:0:0:
256,192,31566,128,0,31809:0:0:0:0:
402,192,31566,128,0,31728:0:0:0:0:
475,192,31566,128,0,31647:0:0:0:0:
329,192,31728,128,0,31971:0:0:0:0:
182,192,31728,128,0,31809:0:0:0:0:
109,192,31728,128,0,31890:0:0:0:0:
475,192,31890,128,0,32134:0:0:0:0:
402,192,31890,128,0,31971:0:0:0:0:
36,192,31890,128,0,32134:0:0:0:0:
182,192,32052,128,0,32134:0:0:0:0:
256,192,32052,128,0,32134:0:0:0:0:
329,192,32052,128,0,32134:0:0:0:0:
475,192,32215,5,0,0:0:0:70:Crash-L.wav
329,192,32215,1,0,0:0:0:70:Bass.wav
256,192,32215,1,0,0:0:0:0:
182,192,32215,1,0,0:0:0:0:
36,192,32215,1,0,0:0:0:0:
402,192,32296,1,0,0:0:0:0:
109,192,32296,1,0,0:0:0:0:
329,192,32377,1,0,0:0:0:0:
475,192,32377,1,0,0:0:0:0:
182,192,32377,1,0,0:0:0:0:
256,192,32458,1,0,0:0:0:0:
36,192,32458,1,0,0:0:0:0:
182,192,32539,1,0,0:0:0:70:Bass.wav
402,192,32539,1,0,0:0:0:70:Kick.wav
475,192,32539,1,0,0:0:0:0:
109,192,32539,1,0,0:0:0:0:
256,192,32620,1,0,0:0:0:0:
329,192,32620,1,0,0:0:0:0:
402,192,32701,1,0,0:0:0:0:
36,192,32701,1,0,0:0:0:0:
109,192,32701,1,0,0:0:0:0:
182,192,32782,1,0,0:0:0:0:
475,192,32782,1,0,0:0:0:0:
256,192,32863,1,0,0:0:0:70:Bass.wav
109,192,32863,1,0,0:0:0:0:
36,192,32863,1,0,0:0:0:0:
329,192,32944,1,0,0:0:0:0:
475,192,32944,1,0,0:0:0:0:
182,192,33025,1,0,0:0:0:0:
109,192,33025,1,0,0:0:0:0:
402,192,33025,1,0,0:0:0:0:
256,192,33107,1,0,0:0:0:0:
36,192,33107,1,0,0:0:0:0:
329,192,33188,1,0,0:0:0:70:Bass.wav
475,192,33188,1,0,0:0:0:70:Kick.wav
402,192,33188,1,0,0:0:0:0:
109,192,33188,1,0,0:0:0:0:
182,192,33269,1,0,0:0:0:0:
256,192,33269,1,0,0:0:0:0:
329,192,33350,1,0,0:0:0:0:
109,192,33350,1,0,0:0:0:0:
36,192,33350,1,0,0:0:0:0:
402,192,33431,1,0,0:0:0:0:
182,192,33431,1,0,0:0:0:0:
256,192,33512,1,0,0:0:0:70:Bass.wav
36,192,33512,1,0,0:0:0:0:
475,192,33512,1,0,0:0:0:0:
329,192,33593,1,0,0:0:0:0:
182,192,33593,1,0,0:0:0:0:
109,192,33674,1,0,0:0:0:0:
402,192,33674,1,0,0:0:0:0:
475,192,33674,1,0,0:0:0:0:
256,192,33755,1,0,0:0:0:0:
36,192,33755,1,0,0:0:0:0:
182,192,33836,1,0,0:0:0:70:Kick.wav
329,192,33836,1,0,0:0:0:70:Bass.wav
475,192,33836,1,0,0:0:0:0:
402,192,33836,1,0,0:0:0:0:
109,192,33836,1,0,0:0:0:0:
36,192,33998,1,0,0:0:0:0:
182,192,33998,1,0,0:0:0:0:
329,192,34079,1,0,0:0:0:0:
475,192,34079,1,0,0:0:0:0:
182,192,34161,1,0,0:0:0:70:Bass.wav
109,192,34161,1,0,0:0:0:0:
36,192,34161,1,0,0:0:0:0:
256,192,34242,1,0,0:0:0:0:
402,192,34242,1,0,0:0:0:0:
36,192,34323,1,0,0:0:0:0:
475,192,34323,1,0,0:0:0:0:
109,192,34363,1,0,0:0:0:0:
182,192,34404,1,0,0:0:0:0:
256,192,34444,1,0,0:0:0:0:
329,192,34485,1,0,0:0:0:70:Bass.wav
475,192,34485,1,0,0:0:0:70:Kick.wav
109,192,34485,1,0,0:0:0:0:
36,192,34485,1,0,0:0:0:0:
182,192,34566,1,0,0:0:0:0:
256,192,34647,1,0,0:0:0:0:
402,192,34647,1,0,0:0:0:0:
475,192,34647,1,0,0:0:0:0:
109,192,34728,1,0,0:0:0:0:
182,192,34809,1,0,0:0:0:70:Bass.wav
475,192,34809,1,0,0:0:0:0:
329,192,34809,1,0,0:0:0:0:
256,192,34890,1,0,0:0:0:0:
109,192,34890,1,0,0:0:0:0:
182,192,34971,1,0,0:0:0:0:
36,192,34971,1,0,0:0:0:0:
402,192,34971,1,0,0:0:0:0:
329,192,35052,1,0,0:0:0:0:
256,192,35052,1,0,0:0:0:0:
475,192,35134,1,0,0:0:0:70:Bass.wav
109,192,35134,1,0,0:0:0:70:Kick.wav
36,192,35134,1,0,0:0:0:0:
182,192,35134,1,0,0:0:0:0:
402,192,35215,1,0,0:0:0:0:
329,192,35215,1,0,0:0:0:0:
256,192,35296,1,0,0:0:0:0:
109,192,35296,1,0,0:0:0:0:
36,192,35296,1,0,0:0:0:0:
182,192,35377,1,0,0:0:0:0:
329,192,35377,1,0,0:0:0:0:
256,192,35458,1,0,0:0:0:70:Bass.wav
475,192,35458,1,0,0:0:0:0:
402,192,35458,1,0,0:0:0:0:
182,192,35539,1,0,0:0:0:0:
109,192,35539,1,0,0:0:0:0:
329,192,35620,1,0,0:0:0:0:
475,192,35620,1,0,0:0:0:0:
36,192,35620,1,0,0:0:0:0:
256,192,35701,1,0,0:0:0:0:
182,192,35701,1,0,0:0:0:0:
109,192,35782,1,0,0:0:0:70:Bass.wav
36,192,35782,1,0,0:0:0:70:Kick.wav
402,192,35782,1,0,0:0:0:0:
475,192,35782,1,0,0:0:0:0:
329,192,35863,1,0,0:0:0:0:
182,192,35863,1,0,0:0:0:0:
256,192,35944,1,0,0:0:0:0:
475,192,35944,1,0,0:0:0:0:
36,192,35944,1,0,0:0:0:0:
402,192,36025,1,0,0:0:0:0:
182,192,36025,1,0,0:0:0:0:
109,192,36107,1,0,0:0:0:70:Bass.wav
329,192,36107,1,0,0:0:0:0:
36,192,36107,1,0,0:0:0:0:
256,192,36188,1,0,0:0:0:0:
182,192,36188,1,0,0:0:0:0:
329,192,36269,5,0,0:0:0:0:
402,192,36269,1,0,0:0:0:0:
109,192,36269,1,0,0:0:0:0:
36,192,36350,1,0,0:0:0:0:
256,192,36350,1,0,0:0:0:0:
182,192,36431,1,0,0:0:0:70:Bass.wav
402,192,36431,1,0,0:0:0:70:Kick.wav
475,192,36431,1,0,0:0:0:0:
329,192,36431,1,0,0:0:0:0:
109,192,36512,1,0,0:0:0:0:
36,192,36512,1,0,0:0:0:0:
256,192,36593,1,0,0:0:0:0:
402,192,36593,1,0,0:0:0:0:
475,192,36593,1,0,0:0:0:0:
182,192,36674,1,0,0:0:0:0:
109,192,36674,1,0,0:0:0:0:
329,192,36755,1,0,0:0:0:70:Bass.wav
475,192,36755,1,0,0:0:0:0:
36,192,36755,1,0,0:0:0:0:
256,192,36836,1,0,0:0:0:0:
182,192,36836,1,0,0:0:0:0:
109,192,36917,1,0,0:0:0:0:
36,192,36917,1,0,0:0:0:0:
402,192,36917,1,0,0:0:0:0:
329,192,36998,1,0,0:0:0:0:
256,192,36998,1,0,0:0:0:0:
475,192,37079,1,0,0:0:0:70:Bass.wav
182,192,37079,1,0,0:0:0:70:Kick.wav
109,192,37079,1,0,0:0:0:0:
36,192,37079,1,0,0:0:0:0:
402,192,37161,1,0,0:0:0:0:
329,192,37161,1,0,0:0:0:0:
256,192,37242,1,0,0:0:0:0:
109,192,37242,1,0,0:0:0:0:
36,192,37242,1,0,0:0:0:0:
402,192,37323,1,0,0:0:0:0:
475,192,37323,1,0,0:0:0:0:
36,192,37404,128,0,37728:0:0:0:70:Bass.wav
329,192,37404,1,0,0:0:0:0:
182,192,37404,1,0,0:0:0:0:
109,192,37404,1,0,0:0:0:0:
402,192,37485,1,0,0:0:0:0:
256,192,37485,1,0,0:0:0:0:
475,192,37566,1,0,0:0:0:0:
329,192,37566,1,0,0:0:0:0:
182,192,37647,1,0,0:0:0:0:
109,192,37647,1,0,0:0:0:0:
256,192,37728,128,0,38052:0:0:0:70:Bass.wav
402,192,37728,1,0,0:0:0:70:Kick.wav
475,192,37728,1,0,0:0:0:0:
329,192,37728,1,0,0:0:0:0:
109,192,37809,1,0,0:0:0:0:
36,192,37809,1,0,0:0:0:0:
182,192,37890,1,0,0:0:0:0:
329,192,37890,1,0,0:0:0:0:
402,192,37971,1,0,0:0:0:0:
475,192,37971,1,0,0:0:0:0:
36,192,38052,128,0,38377:0:0:0:70:Bass.wav
109,192,38052,1,0,0:0:0:0:
182,192,38052,1,0,0:0:0:0:
329,192,38052,1,0,0:0:0:0:
256,192,38134,1,0,0:0:0:0:
402,192,38134,1,0,0:0:0:0:
329,192,38215,1,0,0:0:0:0:
475,192,38215,1,0,0:0:0:0:
182,192,38296,1,0,0:0:0:0:
109,192,38296,1,0,0:0:0:0:
475,192,38377,128,0,38701:0:0:0:70:Bass.wav
256,192,38377,1,0,0:0:0:70:Kick.wav
402,192,38377,1,0,0:0:0:0:
329,192,38377,1,0,0:0:0:0:
109,192,38458,1,0,0:0:0:0:
36,192,38458,1,0,0:0:0:0:
182,192,38539,1,0,0:0:0:0:
402,192,38539,1,0,0:0:0:0:
329,192,38620,1,0,0:0:0:0:
256,192,38620,1,0,0:0:0:0:
402,192,38701,128,0,39025:0:0:0:70:Bass.wav
182,192,38701,1,0,0:0:0:0:
109,192,38701,1,0,0:0:0:0:
36,192,38701,1,0,0:0:0:0:
329,192,38782,1,0,0:0:0:0:
475,192,38782,1,0,0:0:0:0:
256,192,38863,1,0,0:0:0:0:
182,192,38863,1,0,0:0:0:0:
109,192,38944,1,0,0:0:0:0:
36,192,38944,1,0,0:0:0:0:
256,192,39025,128,0,39350:0:0:0:70:Bass.wav
329,192,39025,1,0,0:0:0:70:Kick.wav
475,192,39025,1,0,0:0:0:0:
182,192,39025,1,0,0:0:0:0:
109,192,39107,1,0,0:0:0:0:
402,192,39107,1,0,0:0:0:0:
36,192,39188,1,0,0:0:0:0:
475,192,39188,1,0,0:0:0:0:
329,192,39269,1,0,0:0:0:0:
182,192,39269,1,0,0:0:0:0:
109,192,39350,128,0,39674:0:0:0:70:Bass.wav
36,192,39350,1,0,0:0:0:0:
402,192,39350,1,0,0:0:0:0:
475,192,39350,1,0,0:0:0:0:
256,192,39431,1,0,0:0:0:0:
329,192,39431,1,0,0:0:0:0:
182,192,39512,1,0,0:0:0:0:
36,192,39512,1,0,0:0:0:0:
329,192,39593,1,0,0:0:0:0:
475,192,39593,1,0,0:0:0:0:
402,192,39674,128,0,39998:0:0:0:70:Bass.wav
256,192,39674,1,0,0:0:0:70:Kick.wav
182,192,39674,1,0,0:0:0:0:
36,192,39674,1,0,0:0:0:0:
109,192,39755,1,0,0:0:0:0:
329,192,39755,1,0,0:0:0:0:
182,192,39836,1,0,0:0:0:0:
475,192,39836,1,0,0:0:0:0:
256,192,39917,1,0,0:0:0:0:
36,192,39917,1,0,0:0:0:0:
329,192,39998,1,0,0:0:0:70:Bass.wav
475,192,39998,1,0,0:0:0:0:
182,192,39998,128,0,40323:0:0:0:0:
109,192,39998,1,0,0:0:0:0:
256,192,40079,1,0,0:0:0:0:
402,192,40079,1,0,0:0:0:0:
36,192,40161,1,0,0:0:0:0:
109,192,40161,1,0,0:0:0:0:
329,192,40242,1,0,0:0:0:0:
475,192,40242,1,0,0:0:0:0:
36,192,40323,128,0,40647:0:0:0:70:Bass.wav
256,192,40323,1,0,0:0:0:70:Kick.wav
402,192,40323,1,0,0:0:0:0:
109,192,40323,1,0,0:0:0:0:
182,192,40404,1,0,0:0:0:0:
329,192,40404,1,0,0:0:0:0:
256,192,40485,1,0,0:0:0:0:
109,192,40485,1,0,0:0:0:0:
402,192,40566,1,0,0:0:0:0:
475,192,40566,1,0,0:0:0:0:
329,192,40647,128,0,40971:0:0:0:70:Bass.wav
256,192,40647,1,0,0:0:0:0:
182,192,40647,1,0,0:0:0:0:
109,192,40647,1,0,0:0:0:0:
402,192,40728,1,0,0:0:0:0:
475,192,40728,1,0,0:0:0:0:
36,192,40809,1,0,0:0:0:0:
182,192,40809,1,0,0:0:0:0:
256,192,40890,1,0,0:0:0:0:
109,192,40890,1,0,0:0:0:0:
182,192,40971,128,0,41296:0:0:0:70:Bass.wav
402,192,40971,1,0,0:0:0:70:Kick.wav
475,192,40971,1,0,0:0:0:0:
36,192,40971,1,0,0:0:0:0:
329,192,41052,1,0,0:0:0:0:
256,192,41052,1,0,0:0:0:0:
109,192,41134,1,0,0:0:0:0:
36,192,41134,1,0,0:0:0:0:
329,192,41215,1,0,0:0:0:0:
256,192,41296,128,0,41944:0:0:0:70:Bass.wav
109,192,41296,1,0,0:0:0:0:
36,192,41296,1,0,0:0:0:0:
475,192,41296,1,0,0:0:0:0:
402,192,41296,1,0,0:0:0:0:
182,192,41377,1,0,0:0:0:0:
329,192,41377,1,0,0:0:0:0:
402,192,41458,1,0,0:0:0:70:Bass.wav
475,192,41458,1,0,0:0:0:0:
109,192,41458,1,0,0:0:0:0:
36,192,41458,1,0,0:0:0:0:
329,192,41539,1,0,0:0:0:0:
182,192,41539,1,0,0:0:0:0:
109,192,41620,1,0,0:0:0:70:Bass.wav
36,192,41620,1,0,0:0:0:70:Kick.wav
402,192,41620,1,0,0:0:0:0:
475,192,41620,1,0,0:0:0:0:
329,192,41701,1,0,0:0:0:0:
182,192,41701,1,0,0:0:0:0:
109,192,41782,1,0,0:0:0:0:
402,192,41782,1,0,0:0:0:0:
329,192,41863,1,0,0:0:0:0:
182,192,41863,1,0,0:0:0:0:
36,192,41944,1,0,0:0:0:70:Bass.wav
475,192,41944,1,0,0:0:0:0:
402,192,41944,1,0,0:0:0:0:
109,192,41944,1,0,0:0:0:0:
329,192,42025,1,0,0:0:0:0:
182,192,42025,1,0,0:0:0:0:
256,192,42107,1,0,0:0:0:70:Bass.wav
109,192,42107,1,0,0:0:0:0:
36,192,42107,1,0,0:0:0:0:
402,192,42188,1,0,0:0:0:70:Bass.wav
475,192,42188,1,0,0:0:0:0:
182,192,42188,1,0,0:0:0:0:
329,192,42269,1,0,0:0:0:70:Bass.wav
109,192,42269,1,0,0:0:0:0:
36,192,42269,1,0,0:0:0:70:Kick.wav
256,192,42350,1,0,0:0:0:70:Bass.wav
402,192,42350,1,0,0:0:0:0:
475,192,42350,1,0,0:0:0:0:
182,192,42431,1,0,0:0:0:70:Bass.wav
109,192,42431,1,0,0:0:0:0:
36,192,42431,1,0,0:0:0:0:
329,192,42512,1,0,0:0:0:70:Bass.wav
402,192,42512,1,0,0:0:0:0:
475,192,42512,1,0,0:0:0:0:
36,192,42593,128,0,42836:0:0:0:70:Crash-L.wav
475,192,42593,1,0,0:0:0:70:Bass.wav
402,192,42593,1,0,0:0:0:0:
329,192,42593,1,0,0:0:0:0:
182,192,42593,128,0,42674:0:0:0:0:
109,192,42593,128,0,42674:0:0:0:0:
256,192,42674,1,0,0:0:0:0:
182,192,42755,128,0,42998:0:0:0:0:
475,192,42755,128,0,42836:0:0:0:0:
329,192,42755,1,0,0:0:0:0:
475,192,42917,128,0,43161:0:0:0:70:Bass.wav
36,192,42917,128,0,42998:0:0:0:70:Kick.wav
109,192,42917,128,0,42998:0:0:0:0:
256,192,42917,1,0,0:0:0:0:
402,192,42998,1,0,0:0:0:0:
329,192,43079,128,0,43323:0:0:0:0:
182,192,43079,128,0,43161:0:0:0:0:
36,192,43079,1,0,0:0:0:0:
182,192,43242,1,0,0:0:0:70:Bass.wav
475,192,43242,128,0,43323:0:0:0:0:
402,192,43242,128,0,43323:0:0:0:0:
36,192,43242,128,0,43485:0:0:0:0:
256,192,43323,1,0,0:0:0:0:
182,192,43404,128,0,43485:0:0:0:0:
475,192,43404,128,0,43647:0:0:0:0:
329,192,43404,1,0,0:0:0:0:
256,192,43566,128,0,43809:0:0:0:70:Bass.wav
329,192,43566,128,0,43647:0:0:0:70:Kick.wav
36,192,43566,1,0,0:0:0:0:
182,192,43566,128,0,43647:0:0:0:0:
109,192,43647,1,0,0:0:0:0:
402,192,43728,128,0,43809:0:0:0:0:
475,192,43728,128,0,43971:0:0:0:0:
182,192,43728,1,0,0:0:0:0:
329,192,43809,1,0,0:0:0:0:
256,192,43890,128,0,43971:0:0:0:70:Bass.wav
36,192,43890,128,0,44134:0:0:0:0:
109,192,43890,128,0,43971:0:0:0:0:
402,192,43890,1,0,0:0:0:0:
182,192,43971,1,0,0:0:0:0:
109,192,44052,1,0,0:0:0:0:
475,192,44052,128,0,44134:0:0:0:0:
329,192,44052,128,0,44296:0:0:0:0:
36,192,44215,1,0,0:0:0:70:Bass.wav
402,192,44215,128,0,44296:0:0:0:70:Kick.wav
256,192,44215,128,0,44458:0:0:0:0:
475,192,44215,128,0,44296:0:0:0:0:
182,192,44296,1,0,0:0:0:0:
109,192,44377,128,0,44458:0:0:0:0:
329,192,44377,1,0,0:0:0:0:
475,192,44377,128,0,44620:0:0:0:0:
109,192,44539,128,0,44620:0:0:0:70:Bass.wav
36,192,44539,128,0,44782:0:0:0:0:
182,192,44539,128,0,44620:0:0:0:0:
256,192,44539,1,0,0:0:0:0:
329,192,44620,1,0,0:0:0:0:
402,192,44701,1,0,0:0:0:0:
475,192,44701,128,0,44782:0:0:0:0:
182,192,44701,128,0,44944:0:0:0:0:
109,192,44863,128,0,44944:0:0:0:70:Bass.wav
36,192,44863,128,0,44944:0:0:0:70:Kick.wav
475,192,44863,128,0,45107:0:0:0:0:
329,192,44863,1,0,0:0:0:0:
256,192,44944,1,0,0:0:0:0:
109,192,45025,128,0,45107:0:0:0:70:Bass.wav
182,192,45025,128,0,45107:0:0:0:0:
36,192,45025,128,0,45269:0:0:0:0:
402,192,45025,1,0,0:0:0:0:
329,192,45107,1,0,0:0:0:0:
256,192,45188,128,0,45431:0:0:0:70:Bass.wav
402,192,45188,128,0,45269:0:0:0:0:
475,192,45188,128,0,45269:0:0:0:0:
182,192,45188,1,0,0:0:0:0:
109,192,45269,1,0,0:0:0:0:
36,192,45350,1,0,0:0:0:0:
329,192,45350,128,0,45593:0:0:0:0:
182,192,45350,128,0,45431:0:0:0:0:
36,192,45512,128,0,45755:0:0:0:70:Bass.wav
182,192,45512,128,0,45593:0:0:0:70:Kick.wav
109,192,45512,128,0,45593:0:0:0:0:
475,192,45512,1,0,0:0:0:0:
402,192,45593,1,0,0:0:0:0:
182,192,45674,1,0,0:0:0:0:
475,192,45674,128,0,45917:0:0:0:0:
329,192,45674,128,0,45755:0:0:0:0:
36,192,45836,1,0,0:0:0:70:Bass.wav
182,192,45836,128,0,46079:0:0:0:0:
256,192,45836,128,0,45917:0:0:0:0:
329,192,45836,128,0,45917:0:0:0:0:
402,192,45917,1,0,0:0:0:0:
475,192,45998,128,0,46079:0:0:0:0:
36,192,45998,128,0,46242:0:0:0:0:
256,192,45998,1,0,0:0:0:0:
182,192,46161,1,0,0:0:0:70:Bass.wav
329,192,46161,128,0,46404:0:0:0:70:Kick.wav
402,192,46161,128,0,46242:0:0:0:0:
475,192,46161,128,0,46242:0:0:0:0:
109,192,46242,1,0,0:0:0:0:
36,192,46323,1,0,0:0:0:0:
256,192,46323,128,0,46404:0:0:0:0:
182,192,46323,128,0,46566:0:0:0:0:
402,192,46404,1,0,0:0:0:0:
109,192,46485,128,0,46566:0:0:0:70:Bass.wav
329,192,46485,1,0,0:0:0:0:
36,192,46485,128,0,46566:0:0:0:0:
475,192,46485,128,0,46728:0:0:0:0:
256,192,46566,1,0,0:0:0:0:
182,192,46647,1,0,0:0:0:0:
36,192,46647,128,0,46890:0:0:0:0:
329,192,46647,128,0,46728:0:0:0:0:
182,192,46809,128,0,47052:0:0:0:70:Bass.wav
256,192,46809,128,0,46890:0:0:0:70:Kick.wav
402,192,46809,128,0,46890:0:0:0:0:
475,192,46809,1,0,0:0:0:0:
329,192,46890,1,0,0:0:0:0:
256,192,46971,1,0,0:0:0:0:
36,192,46971,128,0,47052:0:0:0:0:
475,192,46971,128,0,47215:0:0:0:0:
329,192,47134,128,0,47215:0:0:0:70:Bass.wav
402,192,47134,128,0,47215:0:0:0:0:
182,192,47134,128,0,47377:0:0:0:0:
36,192,47134,1,0,0:0:0:0:
256,192,47215,1,0,0:0:0:0:
36,192,47296,128,0,47539:0:0:0:0:
475,192,47296,128,0,47377:0:0:0:0:
329,192,47296,1,0,0:0:0:0:
256,192,47458,128,0,47701:0:0:0:70:Bass.wav
402,192,47458,128,0,47539:0:0:0:70:Kick.wav
475,192,47458,128,0,47539:0:0:0:0:
182,192,47458,1,0,0:0:0:0:
329,192,47539,1,0,0:0:0:0:
36,192,47620,128,0,47701:0:0:0:70:Bass.wav
109,192,47620,128,0,47701:0:0:0:0:
182,192,47620,128,0,47863:0:0:0:0:
475,192,47620,1,0,0:0:0:0:
402,192,47701,1,0,0:0:0:0:
329,192,47782,1,0,0:0:0:70:Bass.wav
475,192,47782,128,0,48025:0:0:0:0:
109,192,47782,128,0,47863:0:0:0:0:
36,192,47782,128,0,47863:0:0:0:0:
256,192,47863,1,0,0:0:0:0:
402,192,47944,128,0,48025:0:0:0:0:
329,192,47944,128,0,48188:0:0:0:0:
182,192,47944,1,0,0:0:0:0:
475,192,48107,128,0,48188:0:0:0:70:Bass.wav
109,192,48107,128,0,48188:0:0:0:70:Kick.wav
36,192,48107,128,0,48350:0:0:0:0:
182,192,48107,1,0,0:0:0:0:
256,192,48188,1,0,0:0:0:0:
329,192,48269,1,0,0:0:0:0:
475,192,48269,128,0,48512:0:0:0:0:
182,192,48269,128,0,48350:0:0:0:0:
36,192,48431,128,0,48674:0:0:0:70:Bass.wav
402,192,48431,128,0,48512:0:0:0:0:
329,192,48431,128,0,48512:0:0:0:0:
256,192,48431,1,0,0:0:0:0:
182,192,48512,1,0,0:0:0:0:
256,192,48593,128,0,48836:0:0:0:0:
109,192,48593,128,0,48674:0:0:0:0:
402,192,48593,1,0,0:0:0:0:
475,192,48755,128,0,48998:0:0:0:70:Bass.wav
402,192,48755,128,0,48836:0:0:0:70:Kick.wav
36,192,48755,128,0,48836:0:0:0:0:
109,192,48755,1,0,0:0:0:0:
182,192,48836,1,0,0:0:0:0:
109,192,48917,128,0,49161:0:0:0:0:
329,192,48917,128,0,48998:0:0:0:0:
256,192,48917,1,0,0:0:0:0:
36,192,48998,1,0,0:0:0:0:
256,192,49079,128,0,49323:0:0:0:70:Bass.wav
402,192,49079,128,0,49161:0:0:0:0:
475,192,49079,128,0,49161:0:0:0:0:
182,192,49079,1,0,0:0:0:0:
329,192,49161,1,0,0:0:0:0:
182,192,49242,128,0,49485:0:0:0:0:
36,192,49242,128,0,49323:0:0:0:0:
475,192,49242,1,0,0:0:0:0:
402,192,49404,128,0,49647:0:0:0:70:Bass.wav
475,192,49404,128,0,49485:0:0:0:70:Kick.wav
109,192,49404,128,0,49485:0:0:0:0:
256,192,49404,1,0,0:0:0:0:
36,192,49485,1,0,0:0:0:0:
329,192,49566,128,0,49809:0:0:0:0:
182,192,49566,128,0,49647:0:0:0:0:
475,192,49566,1,0,0:0:0:0:
475,192,49728,128,0,49809:0:0:0:70:Bass.wav
109,192,49728,128,0,49971:0:0:0:0:
256,192,49728,128,0,49809:0:0:0:0:
36,192,49728,1,0,0:0:0:0:
182,192,49809,1,0,0:0:0:0:
36,192,49890,128,0,50134:0:0:0:0:
402,192,49890,128,0,49971:0:0:0:0:
329,192,49890,1,0,0:0:0:0:
329,192,50052,128,0,50296:0:0:0:70:Bass.wav
475,192,50052,128,0,50134:0:0:0:70:Kick.wav
402,192,50052,128,0,50134:0:0:0:0:
256,192,50052,1,0,0:0:0:0:
182,192,50134,1,0,0:0:0:0:
36,192,50215,128,0,50458:0:0:0:70:Bass.wav
256,192,50215,128,0,50296:0:0:0:0:
475,192,50215,128,0,50296:0:0:0:0:
109,192,50215,1,0,0:0:0:0:
402,192,50296,1,0,0:0:0:0:
475,192,50377,128,0,50458:0:0:0:70:Bass.wav
182,192,50377,128,0,50620:0:0:0:0:
329,192,50377,1,0,0:0:0:0:
109,192,50377,128,0,50458:0:0:0:0:
256,192,50458,1,0,0:0:0:0:
329,192,50539,128,0,50782:0:0:0:0:
475,192,50539,1,0,0:0:0:0:
36,192,50539,128,0,50620:0:0:0:0:
475,192,50701,128,0,50944:0:0:0:70:Bass.wav
402,192,50701,128,0,50782:0:0:0:70:Kick.wav
182,192,50701,128,0,50782:0:0:0:0:
36,192,50701,1,0,0:0:0:0:
109,192,50782,1,0,0:0:0:0:
182,192,50863,1,0,0:0:0:0:
36,192,50863,128,0,50944:0:0:0:0:
256,192,50863,128,0,51107:0:0:0:0:
36,192,51025,128,0,51269:0:0:0:70:Bass.wav
109,192,51025,128,0,51107:0:0:0:0:
475,192,51025,128,0,51107:0:0:0:0:
402,192,51025,1,0,0:0:0:0:
329,192,51107,1,0,0:0:0:0:
256,192,51188,1,0,0:0:0:0:
475,192,51188,128,0,51431:0:0:0:0:
182,192,51188,128,0,51269:0:0:0:0:
256,192,51350,128,0,51431:0:0:0:70:Bass.wav
402,192,51350,128,0,51431:0:0:0:70:Kick.wav
36,192,51350,128,0,51593:0:0:0:0:
182,192,51350,1,0,0:0:0:0:
109,192,51431,1,0,0:0:0:0:
329,192,51512,128,0,51593:0:0:0:0:
182,192,51512,128,0,51755:0:0:0:0:
475,192,51512,1,0,0:0:0:0:
402,192,51593,1,0,0:0:0:0:
109,192,51674,128,0,51755:0:0:0:70:Bass.wav
36,192,51674,128,0,51755:0:0:0:0:
256,192,51674,128,0,51917:0:0:0:0:
329,192,51674,1,0,0:0:0:0:
402,192,51755,1,0,0:0:0:0:
475,192,51836,1,0,0:0:0:0:
329,192,51836,128,0,52079:0:0:0:0:
182,192,51836,128,0,51917:0:0:0:0:
475,192,51998,128,0,52242:0:0:0:70:Bass.wav
109,192,51998,128,0,52079:0:0:0:70:Kick.wav
36,192,51998,128,0,52079:0:0:0:0:
182,192,51998,1,0,0:0:0:0:
256,192,52079,1,0,0:0:0:0:
329,192,52161,1,0,0:0:0:0:
182,192,52161,128,0,52404:0:0:0:0:
36,192,52161,128,0,52242:0:0:0:0:
109,192,52323,128,0,52404:0:0:0:70:Bass.wav
36,192,52323,128,0,52404:0:0:0:0:
256,192,52323,128,0,52566:0:0:0:0:
475,192,52323,1,0,0:0:0:0:
402,192,52404,1,0,0:0:0:0:
329,192,52485,1,0,0:0:0:0:
109,192,52485,128,0,52566:0:0:0:0:
475,192,52485,128,0,52728:0:0:0:0:
182,192,52647,128,0,52728:0:0:0:70:Bass.wav
36,192,52647,128,0,52890:0:0:0:70:Kick.wav
402,192,52647,128,0,52728:0:0:0:0:
256,192,52647,1,0,0:0:0:0:
329,192,52728,1,0,0:0:0:0:
402,192,52809,1,0,0:0:0:70:Bass.wav
475,192,52809,128,0,53052:0:0:0:0:
256,192,52809,128,0,52890:0:0:0:0:
109,192,52809,128,0,52890:0:0:0:0:
402,192,52971,128,0,53052:0:0:0:70:Crash-L.wav
329,192,52971,128,0,53052:0:0:0:70:Bass.wav
256,192,52971,128,0,53052:0:0:0:0:
109,192,52971,128,0,53052:0:0:0:0:
36,192,52971,128,0,53052:0:0:0:0:
182,192,52971,128,0,53052:0:0:0:0:
329,192,53134,128,0,53215:0:0:0:0:
182,192,53134,128,0,53215:0:0:0:0:
475,192,53296,128,0,53539:0:0:0:70:Bass.wav
329,192,53296,128,0,53377:0:0:0:70:Kick.wav
402,192,53296,128,0,53458:0:0:0:0:
36,192,53296,128,0,53620:0:0:0:0:
182,192,53296,1,0,0:0:0:0:
109,192,53377,128,0,53539:0:0:0:0:
256,192,53377,1,0,0:0:0:0:
182,192,53458,1,0,0:0:0:0:
329,192,53458,1,0,0:0:0:0:
256,192,53539,1,0,0:0:0:0:
402,192,53539,1,0,0:0:0:0:
475,192,53620,1,0,0:0:0:70:Bass.wav
182,192,53620,1,0,0:0:0:0:
109,192,53620,1,0,0:0:0:0:
329,192,53620,1,0,0:0:0:0:
182,192,53782,128,0,53863:0:0:0:0:
329,192,53782,128,0,53863:0:0:0:0:
109,192,53944,128,0,54107:0:0:0:70:Bass.wav
36,192,53944,128,0,54188:0:0:0:70:Kick.wav
182,192,53944,128,0,54025:0:0:0:0:
475,192,53944,128,0,54269:0:0:0:0:
329,192,53944,1,0,0:0:0:0:
402,192,54025,128,0,54188:0:0:0:0:
256,192,54025,1,0,0:0:0:0:
329,192,54107,1,0,0:0:0:0:
182,192,54107,1,0,0:0:0:0:
109,192,54188,1,0,0:0:0:0:
256,192,54188,1,0,0:0:0:0:
36,192,54269,1,0,0:0:0:70:Bass.wav
182,192,54269,1,0,0:0:0:0:
329,192,54269,1,0,0:0:0:0:
402,192,54269,1,0,0:0:0:0:
109,192,54431,128,0,54512:0:0:0:0:
402,192,54431,128,0,54512:0:0:0:0:
475,192,54593,128,0,54836:0:0:0:70:Bass.wav
402,192,54593,128,0,54674:0:0:0:70:Kick.wav
329,192,54593,128,0,54755:0:0:0:0:
36,192,54593,128,0,54917:0:0:0:0:
182,192,54593,1,0,0:0:0:0:
256,192,54674,1,0,0:0:0:0:
109,192,54674,128,0,54836:0:0:0:0:
402,192,54755,1,0,0:0:0:0:
182,192,54755,1,0,0:0:0:0:
329,192,54836,1,0,0:0:0:0:
256,192,54836,1,0,0:0:0:0:
475,192,54917,1,0,0:0:0:70:Bass.wav
109,192,54917,1,0,0:0:0:0:
402,192,54917,1,0,0:0:0:0:
182,192,54917,1,0,0:0:0:0:
109,192,55079,128,0,55161:0:0:0:0:
402,192,55079,128,0,55161:0:0:0:0:
36,192,55242,128,0,55485:0:0:0:70:Bass.wav
182,192,55242,128,0,55404:0:0:0:70:Kick.wav
475,192,55242,128,0,55566:0:0:0:0:
109,192,55242,128,0,55323:0:0:0:0:
329,192,55242,1,0,0:0:0:0:
402,192,55323,128,0,55485:0:0:0:0:
256,192,55323,1,0,0:0:0:0:
329,192,55404,1,0,0:0:0:70:Bass.wav
109,192,55404,1,0,0:0:0:0:
256,192,55485,1,0,0:0:0:0:
182,192,55485,1,0,0:0:0:0:
36,192,55566,1,0,0:0:0:70:Bass.wav
329,192,55566,1,0,0:0:0:0:
402,192,55566,1,0,0:0:0:0:
109,192,55566,1,0,0:0:0:0:
36,192,55728,128,0,55809:0:0:0:0:
475,192,55728,128,0,55809:0:0:0:0:
182,192,55890,128,0,56215:0:0:0:70:Bass.wav
36,192,55890,1,0,0:0:0:70:Kick.wav
329,192,55890,128,0,56134:0:0:0:0:
402,192,55890,128,0,56052:0:0:0:0:
475,192,55890,128,0,55971:0:0:0:0:
109,192,55971,128,0,56134:0:0:0:0:
256,192,55971,1,0,0:0:0:0:
36,192,56052,1,0,0:0:0:0:
475,192,56052,1,0,0:0:0:0:
402,192,56134,1,0,0:0:0:0:
256,192,56134,1,0,0:0:0:0:
329,192,56215,1,0,0:0:0:70:Bass.wav
109,192,56215,1,0,0:0:0:0:
36,192,56215,1,0,0:0:0:0:
475,192,56215,1,0,0:0:0:0:
36,192,56377,128,0,56458:0:0:0:0:
475,192,56377,128,0,56458:0:0:0:0:
109,192,56539,128,0,56701:0:0:0:70:Bass.wav
475,192,56539,1,0,0:0:0:70:Kick.wav
36,192,56539,128,0,56620:0:0:0:0:
182,192,56539,128,0,56782:0:0:0:0:
329,192,56539,128,0,56863:0:0:0:0:
402,192,56620,128,0,56782:0:0:0:0:
256,192,56620,1,0,0:0:0:0:
475,192,56701,1,0,0:0:0:0:
36,192,56701,1,0,0:0:0:0:
109,192,56782,1,0,0:0:0:0:
256,192,56782,1,0,0:0:0:0:
402,192,56863,1,0,0:0:0:70:Bass.wav
36,192,56863,1,0,0:0:0:0:
475,192,56863,1,0,0:0:0:0:
182,192,56863,1,0,0:0:0:0:
256,192,57025,128,0,57107:0:0:0:0:
109,192,57025,128,0,57107:0:0:0:0:
256,192,57188,128,0,57512:0:0:0:70:Bass.wav
36,192,57188,1,0,0:0:0:70:Kick.wav
329,192,57188,128,0,57269:0:0:0:0:
402,192,57188,128,0,57350:0:0:0:0:
475,192,57188,128,0,57431:0:0:0:0:
182,192,57269,128,0,57431:0:0:0:0:
109,192,57269,1,0,0:0:0:0:
329,192,57350,1,0,0:0:0:0:
36,192,57350,1,0,0:0:0:0:
402,192,57431,1,0,0:0:0:0:
109,192,57431,1,0,0:0:0:0:
475,192,57512,1,0,0:0:0:70:Bass.wav
329,192,57512,1,0,0:0:0:0:
182,192,57512,1,0,0:0:0:0:
36,192,57512,1,0,0:0:0:0:
256,192,57674,128,0,57755:0:0:0:0:
402,192,57674,128,0,57755:0:0:0:0:
182,192,57836,128,0,57917:0:0:0:70:Bass.wav
256,192,57836,128,0,58161:0:0:0:70:Kick.wav
36,192,57836,128,0,58079:0:0:0:0:
109,192,57836,128,0,57998:0:0:0:0:
475,192,57836,1,0,0:0:0:0:
329,192,57917,128,0,58079:0:0:0:0:
402,192,57917,1,0,0:0:0:0:
475,192,57998,1,0,0:0:0:70:Bass.wav
182,192,57998,1,0,0:0:0:0:
402,192,58079,1,0,0:0:0:0:
109,192,58079,1,0,0:0:0:0:
329,192,58161,1,0,0:0:0:70:Bass.wav
36,192,58161,1,0,0:0:0:0:
182,192,58161,1,0,0:0:0:0:
475,192,58161,1,0,0:0:0:0:
182,192,58323,128,0,58404:0:0:0:0:
475,192,58323,128,0,58404:0:0:0:0:
475,192,58485,128,0,58728:0:0:0:70:Bass.wav
182,192,58485,128,0,58728:0:0:0:70:Kick.wav
329,192,58485,1,0,0:0:0:0:
36,192,58485,1,0,0:0:0:0:
256,192,58485,1,0,0:0:0:0:
402,192,58566,128,0,58728:0:0:0:0:
109,192,58566,128,0,58647:0:0:0:0:
329,192,58647,128,0,58728:0:0:0:0:
36,192,58647,1,0,0:0:0:0:
256,192,58728,1,0,0:0:0:0:
109,192,58728,1,0,0:0:0:0:
182,192,58809,1,0,0:0:0:70:Bass.wav
36,192,58809,1,0,0:0:0:0:
402,192,58809,1,0,0:0:0:0:
329,192,58809,1,0,0:0:0:0:
475,192,58809,1,0,0:0:0:0:
329,192,58971,128,0,59052:0:0:0:0:
36,192,58971,128,0,59052:0:0:0:0:
182,192,59134,1,0,0:0:0:70:Bass.wav
329,192,59134,128,0,59377:0:0:0:70:Kick.wav
475,192,59134,1,0,0:0:0:0:
256,192,59134,1,0,0:0:0:0:
36,192,59134,128,0,59377:0:0:0:0:
109,192,59215,128,0,59377:0:0:0:0:
402,192,59215,128,0,59296:0:0:0:0:
182,192,59296,128,0,59377:0:0:0:0:
475,192,59296,1,0,0:0:0:0:
402,192,59377,1,0,0:0:0:0:
256,192,59377,1,0,0:0:0:0:
329,192,59458,1,0,0:0:0:70:Bass.wav
109,192,59458,1,0,0:0:0:0:
182,192,59458,1,0,0:0:0:0:
475,192,59458,1,0,0:0:0:0:
36,192,59458,1,0,0:0:0:0:
402,192,59620,128,0,59701:0:0:0:0:
256,192,59620,128,0,59701:0:0:0:0:
402,192,59782,128,0,60025:0:0:0:70:Bass.wav
36,192,59782,128,0,60025:0:0:0:70:Kick.wav
182,192,59782,1,0,0:0:0:0:
256,192,59782,1,0,0:0:0:0:
475,192,59782,1,0,0:0:0:0:
329,192,59863,128,0,60025:0:0:0:0:
109,192,59863,128,0,59944:0:0:0:0:
256,192,59944,128,0,60025:0:0:0:0:
182,192,59944,1,0,0:0:0:0:
109,192,60025,1,0,0:0:0:0:
475,192,60025,1,0,0:0:0:0:
36,192,60107,1,0,0:0:0:70:Bass.wav
402,192,60107,1,0,0:0:0:0:
329,192,60107,1,0,0:0:0:0:
256,192,60107,1,0,0:0:0:0:
256,192,60269,128,0,60350:0:0:0:0:
109,192,60269,128,0,60350:0:0:0:0:
109,192,60431,128,0,60674:0:0:0:70:Bass.wav
475,192,60431,128,0,60674:0:0:0:70:Kick.wav
256,192,60431,1,0,0:0:0:0:
36,192,60431,1,0,0:0:0:0:
329,192,60431,1,0,0:0:0:0:
402,192,60512,128,0,60593:0:0:0:0:
182,192,60512,128,0,60674:0:0:0:0:
256,192,60593,128,0,60674:0:0:0:70:Bass.wav
329,192,60593,1,0,0:0:0:0:
402,192,60674,1,0,0:0:0:0:
36,192,60674,1,0,0:0:0:0:
256,192,60755,1,0,0:0:0:70:Bass.wav
109,192,60755,1,0,0:0:0:0:
475,192,60755,1,0,0:0:0:0:
182,192,60755,1,0,0:0:0:0:
329,192,60917,128,0,60998:0:0:0:0:
109,192,60917,128,0,60998:0:0:0:0:
329,192,61079,128,0,61323:0:0:0:70:Bass.wav
109,192,61079,128,0,61323:0:0:0:70:Kick.wav
256,192,61079,1,0,0:0:0:0:
36,192,61079,1,0,0:0:0:0:
475,192,61079,1,0,0:0:0:0:
402,192,61161,128,0,61323:0:0:0:0:
182,192,61161,128,0,61242:0:0:0:0:
475,192,61242,128,0,61323:0:0:0:0:
256,192,61242,1,0,0:0:0:0:
182,192,61323,1,0,0:0:0:0:
329,192,61404,1,0,0:0:0:70:Bass.wav
402,192,61404,1,0,0:0:0:0:
475,192,61404,1,0,0:0:0:0:
109,192,61404,1,0,0:0:0:0:
182,192,61566,128,0,61647:0:0:0:0:
402,192,61566,128,0,61647:0:0:0:0:
256,192,61728,1,0,0:0:0:70:Bass.wav
402,192,61728,128,0,61971:0:0:0:70:Kick.wav
475,192,61728,1,0,0:0:0:0:
36,192,61728,1,0,0:0:0:0:
182,192,61728,128,0,61971:0:0:0:0:
109,192,61809,128,0,61971:0:0:0:0:
329,192,61809,128,0,61890:0:0:0:0:
36,192,61890,128,0,61971:0:0:0:0:
256,192,61890,1,0,0:0:0:0:
329,192,61971,1,0,0:0:0:0:
109,192,62052,1,0,0:0:0:70:Bass.wav
36,192,62052,1,0,0:0:0:0:
402,192,62052,1,0,0:0:0:0:
182,192,62052,1,0,0:0:0:0:
329,192,62215,128,0,62296:0:0:0:70:Bass.wav
402,192,62215,128,0,62296:0:0:0:0:
182,192,62215,1,0,0:0:0:0:
36,192,62215,1,0,0:0:0:0:
109,192,62215,1,0,0:0:0:0:
36,192,62377,128,0,62620:0:0:0:70:Bass.wav
109,192,62377,128,0,62539:0:0:0:70:Kick.wav
182,192,62377,128,0,62458:0:0:0:0:
329,192,62377,1,0,0:0:0:0:
402,192,62377,1,0,0:0:0:0:
256,192,62458,1,0,0:0:0:0:
182,192,62539,1,0,0:0:0:70:Bass.wav
475,192,62539,1,0,0:0:0:0:
402,192,62539,1,0,0:0:0:0:
329,192,62539,1,0,0:0:0:0:
109,192,62620,1,0,0:0:0:0:
402,192,62701,1,0,0:0:0:70:Bass.wav
475,192,62701,1,0,0:0:0:0:
36,192,62701,1,0,0:0:0:0:
182,192,62701,1,0,0:0:0:0:
329,192,62701,1,0,0:0:0:0:
256,192,62701,1,0,0:0:0:0:
329,192,62863,128,0,62944:0:0:0:0:
182,192,62863,128,0,62944:0:0:0:0:
256,192,62944,1,0,0:0:0:70:Bass.wav
36,192,62944,1,0,0:0:0:0:
109,192,62944,1,0,0:0:0:0:
329,192,63025,128,0,63107:0:0:0:70:Bass.wav
402,192,63025,128,0,63107:0:0:0:70:Kick.wav
475,192,63025,128,0,63107:0:0:0:0:
182,192,63025,1,0,0:0:0:0:
256,192,63107,1,0,0:0:0:0:
36,192,63107,128,0,63269:0:0:0:0:
329,192,63188,1,0,0:0:0:70:Bass.wav
109,192,63188,128,0,63269:0:0:0:0:
475,192,63188,1,0,0:0:0:0:
402,192,63188,1,0,0:0:0:0:
182,192,63269,1,0,0:0:0:0:
256,192,63350,128,0,64890:0:0:0:70:Crash-L.wav
329,192,63350,128,0,64079:0:0:0:70:Bass.wav
402,192,63350,128,0,64161:0:0:0:0:
475,192,63350,128,0,64242:0:0:0:0:
109,192,63350,128,0,64242:0:0:0:0:
36,192,63350,128,0,63917:0:0:0:0:
182,192,63674,128,0,64566:0:0:0:0:
36,192,63998,128,0,64404:0:0:0:0:
329,192,64161,128,0,64404:0:0:0:0:
402,192,64242,128,0,64998:0:0:0:0:
109,192,64323,128,0,64890:0:0:0:0:
475,192,64323,128,0,64566:0:0:0:0:
329,192,64485,128,0,64944:0:0:0:0:
36,192,64485,128,0,64728:0:0:0:0:
182,192,64647,128,0,65161:0:0:0:0:
475,192,64647,128,0,65377:0:0:0:0:
36,192,64809,128,0,65052:0:0:0:0:
109,192,64971,128,0,65107:0:0:0:0:
256,192,64971,128,0,65215:0:0:0:0:
329,192,65025,128,0,65539:0:0:0:0:
402,192,65079,128,0,65215:0:0:0:0:
36,192,65134,128,0,65863:0:0:0:0:
109,192,65188,128,0,66025:0:0:0:0:
182,192,65242,128,0,66242:0:0:0:0:
402,192,65296,128,0,65458:0:0:0:0:
256,192,65296,128,0,66188:0:0:0:0:
475,192,65458,128,0,65863:0:0:0:0:
402,192,65539,128,0,66188:0:0:0:0:
329,192,65620,128,0,65701:0:0:0:0:
329,192,65782,128,0,66512:0:0:0:0:
475,192,65944,128,0,66350:0:0:0:0:
36,192,65944,128,0,66836:0:0:0:0:
109,192,66107,128,0,66296:0:0:0:0:
256,192,66269,128,0,66836:0:0:0:0:
402,192,66269,128,0,66431:0:0:0:0:
182,192,66323,128,0,66512:0:0:0:0:
109,192,66377,128,0,66674:0:0:0:0:
475,192,66431,128,0,67161:0:0:0:0:
402,192,66512,128,0,67161:0:0:0:0:
182,192,66593,128,0,66755:0:0:0:0:
329,192,66593,128,0,66998:0:0:0:0:
109,192,66755,128,0,67647:0:0:0:0:
182,192,66836,128,0,67323:0:0:0:0:
36,192,66917,128,0,67485:0:0:0:0:
256,192,66917,128,0,67809:0:0:0:0:
329,192,67079,128,0,67485:0:0:0:0:
402,192,67242,128,0,67539:0:0:0:0:
475,192,67242,128,0,67593:0:0:0:0:
182,192,67404,128,0,67728:0:0:0:0:
36,192,67566,128,0,68134:0:0:0:0:
329,192,67566,128,0,68458:0:0:0:0:
402,192,67620,128,0,67809:0:0:0:0:
475,192,67674,128,0,68458:0:0:0:0:
109,192,67728,128,0,68052:0:0:0:0:
182,192,67809,128,0,67971:0:0:0:0:
256,192,67890,128,0,68296:0:0:0:0:
402,192,67890,128,0,68458:0:0:0:0:
182,192,68052,128,0,68458:0:0:0:0:
109,192,68134,128,0,68458:0:0:0:0:
36,192,68215,128,0,68458:0:0:0:0:
256,192,68377,128,0,68539:0:0:0:0:
182,192,68539,1,0,0:0:0:0:
109,192,68539,1,0,0:0:0:0:
36,192,68539,1,0,0:0:0:0:
329,192,68539,1,0,0:0:0:0:
402,192,68539,1,0,0:0:0:0:
475,192,68539,1,0,0:0:0:0:
256,192,68620,1,0,0:0:0:0:
182,192,68701,1,0,0:0:0:0:
109,192,68701,1,0,0:0:0:0:
182,192,68863,128,0,68944:0:0:0:0:
36,192,68863,1,0,0:0:0:0:
475,192,68863,128,0,69269:0:0:0:0:
402,192,68863,1,0,0:0:0:0:
256,192,68917,128,0,68998:0:0:0:0:
109,192,68944,1,0,0:0:0:0:
329,192,68971,128,0,69052:0:0:0:0:
402,192,69025,128,0,69269:0:0:0:0:
182,192,69025,1,0,0:0:0:0:
36,192,69025,1,0,0:0:0:0:
256,192,69107,128,0,69269:0:0:0:0:
109,192,69188,128,0,69269:0:0:0:0:
36,192,69188,128,0,69755:0:0:0:0:
182,192,69188,1,0,0:0:0:0:
329,192,69269,1,0,0:0:0:0:
475,192,69350,1,0,0:0:0:0:
109,192,69350,1,0,0:0:0:0:
329,192,69431,128,0,69593:0:0:0:0:
109,192,69512,128,0,69755:0:0:0:0:
182,192,69512,1,0,0:0:0:0:
256,192,69593,1,0,0:0:0:0:
329,192,69674,128,0,69836:0:0:0:0:
182,192,69674,128,0,69836:0:0:0:0:
402,192,69674,1,0,0:0:0:0:
475,192,69674,1,0,0:0:0:0:
256,192,69755,1,0,0:0:0:0:
402,192,69836,128,0,70161:0:0:0:0:
475,192,69836,128,0,70242:0:0:0:0:
109,192,69836,1,0,0:0:0:0:
36,192,69836,1,0,0:0:0:0:
182,192,69917,1,0,0:0:0:0:
256,192,69998,1,0,0:0:0:0:
329,192,69998,1,0,0:0:0:0:
329,192,70161,128,0,70242:0:0:0:0:
36,192,70161,128,0,70566:0:0:0:0:
109,192,70161,1,0,0:0:0:0:
256,192,70215,128,0,70296:0:0:0:0:
402,192,70242,1,0,0:0:0:0:
182,192,70269,128,0,70350:0:0:0:0:
109,192,70323,128,0,70566:0:0:0:0:
329,192,70323,1,0,0:0:0:0:
475,192,70323,1,0,0:0:0:0:
256,192,70404,128,0,70566:0:0:0:0:
402,192,70485,128,0,70566:0:0:0:0:
475,192,70485,128,0,70971:0:0:0:0:
329,192,70485,1,0,0:0:0:0:
182,192,70566,1,0,0:0:0:0:
109,192,70647,1,0,0:0:0:0:
402,192,70647,1,0,0:0:0:0:
36,192,70728,128,0,70971:0:0:0:0:
402,192,70809,128,0,70971:0:0:0:0:
329,192,70809,1,0,0:0:0:0:
256,192,70890,1,0,0:0:0:0:
329,192,70971,128,0,71134:0:0:0:0:
109,192,70971,1,0,0:0:0:0:
182,192,70971,1,0,0:0:0:0:
182,192,71134,128,0,71458:0:0:0:0:
475,192,71134,128,0,71296:0:0:0:0:
36,192,71134,1,0,0:0:0:0:
109,192,71134,1,0,0:0:0:0:
256,192,71215,1,0,0:0:0:0:
329,192,71296,1,0,0:0:0:0:
402,192,71296,1,0,0:0:0:0:
256,192,71458,128,0,71539:0:0:0:0:
36,192,71458,128,0,71863:0:0:0:0:
109,192,71458,1,0,0:0:0:0:
329,192,71512,128,0,71593:0:0:0:0:
182,192,71539,1,0,0:0:0:0:
402,192,71566,128,0,71647:0:0:0:0:
475,192,71620,128,0,71863:0:0:0:0:
256,192,71620,1,0,0:0:0:0:
329,192,71701,128,0,71863:0:0:0:0:
182,192,71701,1,0,0:0:0:0:
256,192,71782,128,0,71863:0:0:0:0:
109,192,71782,128,0,72107:0:0:0:0:
402,192,71782,1,0,0:0:0:0:
182,192,71863,1,0,0:0:0:0:
329,192,71944,1,0,0:0:0:0:
475,192,71944,1,0,0:0:0:0:
256,192,72025,128,0,72269:0:0:0:0:
475,192,72107,128,0,72350:0:0:0:0:
402,192,72107,128,0,72269:0:0:0:0:
36,192,72107,1,0,0:0:0:0:
109,192,72188,1,0,0:0:0:0:
36,192,72269,128,0,72431:0:0:0:0:
182,192,72269,1,0,0:0:0:0:
329,192,72269,1,0,0:0:0:0:
109,192,72431,128,0,72755:0:0:0:70:Kick.wav
329,192,72431,128,0,72512:0:0:0:70:Bass.wav
402,192,72431,1,0,0:0:0:0:
475,192,72431,1,0,0:0:0:0:
256,192,72431,1,0,0:0:0:0:
182,192,72431,1,0,0:0:0:0:
182,192,72512,1,0,0:0:0:0:
329,192,72593,1,0,0:0:0:0:
36,192,72593,1,0,0:0:0:0:
256,192,72755,128,0,72836:0:0:0:70:Kick.wav
402,192,72755,1,0,0:0:0:0:
475,192,72755,128,0,73161:0:0:0:0:
36,192,72755,1,0,0:0:0:0:
182,192,72809,128,0,72890:0:0:0:0:
329,192,72836,1,0,0:0:0:0:
109,192,72863,128,0,72944:0:0:0:0:
36,192,72917,128,0,73161:0:0:0:0:
256,192,72917,1,0,0:0:0:0:
402,192,72917,1,0,0:0:0:0:
182,192,72998,128,0,73161:0:0:0:0:
329,192,72998,1,0,0:0:0:0:
256,192,73079,128,0,73161:0:0:0:0:
402,192,73079,128,0,73161:0:0:0:0:
109,192,73079,1,0,0:0:0:0:
329,192,73161,1,0,0:0:0:0:
182,192,73242,1,0,0:0:0:70:Bass.wav
36,192,73242,1,0,0:0:0:0:
256,192,73242,1,0,0:0:0:0:
402,192,73242,1,0,0:0:0:0:
475,192,73242,1,0,0:0:0:0:
182,192,73404,1,0,0:0:0:70:Kick.wav
36,192,73404,1,0,0:0:0:0:
329,192,73404,128,0,73485:0:0:0:0:
402,192,73404,128,0,73566:0:0:0:0:
475,192,73404,128,0,73647:0:0:0:0:
109,192,73485,1,0,0:0:0:0:
256,192,73485,1,0,0:0:0:0:
329,192,73566,1,0,0:0:0:0:
182,192,73566,1,0,0:0:0:0:
256,192,73647,1,0,0:0:0:0:
402,192,73647,1,0,0:0:0:0:
329,192,73728,1,0,0:0:0:70:Crash-L.wav
475,192,73728,1,0,0:0:0:70:Bass.wav
182,192,73728,1,0,0:0:0:0:
109,192,73728,1,0,0:0:0:0:
36,192,73728,1,0,0:0:0:0:
256,192,73809,1,0,0:0:0:0:
402,192,73809,1,0,0:0:0:0:
109,192,73890,128,0,73971:0:0:0:0:
36,192,73890,128,0,74215:0:0:0:0:
329,192,73890,1,0,0:0:0:0:
182,192,73890,1,0,0:0:0:0:
402,192,73971,1,0,0:0:0:0:
475,192,73971,1,0,0:0:0:0:
182,192,74052,1,0,0:0:0:70:Bass.wav
109,192,74052,1,0,0:0:0:70:Kick.wav
256,192,74052,1,0,0:0:0:0:
402,192,74134,128,0,74215:0:0:0:0:
475,192,74134,128,0,74458:0:0:0:0:
329,192,74134,1,0,0:0:0:0:
182,192,74215,1,0,0:0:0:0:
256,192,74215,1,0,0:0:0:0:
36,192,74296,1,0,0:0:0:0:
109,192,74296,1,0,0:0:0:0:
182,192,74377,128,0,74701:0:0:0:70:Bass.wav
256,192,74377,128,0,74458:0:0:0:0:
402,192,74377,1,0,0:0:0:0:
329,192,74377,1,0,0:0:0:0:
109,192,74458,1,0,0:0:0:0:
36,192,74458,1,0,0:0:0:0:
475,192,74539,1,0,0:0:0:0:
256,192,74539,1,0,0:0:0:0:
36,192,74620,128,0,74944:0:0:0:0:
109,192,74620,128,0,74701:0:0:0:0:
329,192,74620,1,0,0:0:0:0:
402,192,74701,1,0,0:0:0:70:Bass.wav
475,192,74701,1,0,0:0:0:70:Kick.wav
256,192,74701,1,0,0:0:0:0:
182,192,74782,1,0,0:0:0:0:
256,192,74863,128,0,74944:0:0:0:0:
475,192,74863,128,0,74944:0:0:0:0:
329,192,74863,1,0,0:0:0:0:
402,192,74944,1,0,0:0:0:0:
182,192,74944,1,0,0:0:0:0:
256,192,75025,1,0,0:0:0:70:Bass.wav
475,192,75025,1,0,0:0:0:0:
36,192,75025,1,0,0:0:0:0:
109,192,75025,1,0,0:0:0:0:
329,192,75107,1,0,0:0:0:0:
182,192,75107,1,0,0:0:0:0:
475,192,75188,128,0,75512:0:0:0:0:
402,192,75188,128,0,75269:0:0:0:0:
256,192,75188,1,0,0:0:0:0:
36,192,75188,1,0,0:0:0:0:
182,192,75269,1,0,0:0:0:0:
109,192,75269,1,0,0:0:0:0:
402,192,75350,1,0,0:0:0:70:Bass.wav
329,192,75350,1,0,0:0:0:70:Kick.wav
256,192,75350,1,0,0:0:0:0:
109,192,75431,128,0,75512:0:0:0:0:
36,192,75431,128,0,75755:0:0:0:0:
182,192,75431,1,0,0:0:0:0:
329,192,75512,1,0,0:0:0:0:
256,192,75512,1,0,0:0:0:0:
475,192,75593,1,0,0:0:0:0:
402,192,75593,1,0,0:0:0:0:
256,192,75674,128,0,75755:0:0:0:70:Bass.wav
329,192,75674,128,0,75998:0:0:0:0:
182,192,75674,1,0,0:0:0:0:
109,192,75674,1,0,0:0:0:0:
402,192,75755,1,0,0:0:0:0:
475,192,75755,1,0,0:0:0:0:
256,192,75836,1,0,0:0:0:0:
36,192,75836,1,0,0:0:0:0:
402,192,75917,128,0,75998:0:0:0:0:
475,192,75917,128,0,76242:0:0:0:0:
182,192,75917,1,0,0:0:0:0:
36,192,75998,1,0,0:0:0:70:Bass.wav
109,192,75998,1,0,0:0:0:70:Kick.wav
256,192,75998,1,0,0:0:0:0:
329,192,76079,1,0,0:0:0:0:
402,192,76079,1,0,0:0:0:0:
256,192,76161,128,0,76242:0:0:0:0:
36,192,76161,128,0,76242:0:0:0:0:
182,192,76161,1,0,0:0:0:0:
109,192,76242,1,0,0:0:0:0:
329,192,76242,1,0,0:0:0:0:
36,192,76323,1,0,0:0:0:70:Bass.wav
402,192,76323,1,0,0:0:0:0:
475,192,76323,1,0,0:0:0:0:
256,192,76323,1,0,0:0:0:0:
182,192,76404,1,0,0:0:0:0:
329,192,76404,1,0,0:0:0:0:
36,192,76485,128,0,76809:0:0:0:0:
109,192,76485,128,0,76566:0:0:0:0:
256,192,76485,1,0,0:0:0:0:
475,192,76485,1,0,0:0:0:0:
329,192,76566,1,0,0:0:0:0:
402,192,76566,1,0,0:0:0:0:
109,192,76647,1,0,0:0:0:70:Bass.wav
256,192,76647,1,0,0:0:0:70:Kick.wav
182,192,76647,1,0,0:0:0:0:
475,192,76728,128,0,77052:0:0:0:0:
402,192,76728,128,0,76809:0:0:0:0:
329,192,76728,1,0,0:0:0:0:
256,192,76809,1,0,0:0:0:0:
182,192,76809,1,0,0:0:0:0:
329,192,76890,1,0,0:0:0:0:
109,192,76890,1,0,0:0:0:0:
256,192,76971,128,0,77052:0:0:0:70:Bass.wav
182,192,76971,128,0,77296:0:0:0:0:
402,192,76971,1,0,0:0:0:0:
36,192,76971,1,0,0:0:0:0:
329,192,77052,1,0,0:0:0:0:
109,192,77052,1,0,0:0:0:0:
475,192,77134,1,0,0:0:0:0:
256,192,77134,1,0,0:0:0:0:
109,192,77215,128,0,77296:0:0:0:0:
36,192,77215,128,0,77539:0:0:0:0:
402,192,77215,1,0,0:0:0:0:
329,192,77296,1,0,0:0:0:70:Bass.wav
256,192,77296,1,0,0:0:0:70:Kick.wav
475,192,77296,1,0,0:0:0:0:
182,192,77377,1,0,0:0:0:0:
109,192,77377,1,0,0:0:0:0:
475,192,77458,128,0,77539:0:0:0:0:
329,192,77458,128,0,77539:0:0:0:0:
256,192,77458,1,0,0:0:0:0:
402,192,77539,1,0,0:0:0:0:
182,192,77539,1,0,0:0:0:0:
475,192,77620,1,0,0:0:0:70:Bass.wav
329,192,77620,1,0,0:0:0:0:
109,192,77620,1,0,0:0:0:0:
36,192,77620,1,0,0:0:0:0:
256,192,77701,1,0,0:0:0:0:
182,192,77701,1,0,0:0:0:0:
475,192,77782,128,0,78107:0:0:0:0:
402,192,77782,128,0,77863:0:0:0:0:
329,192,77782,1,0,0:0:0:0:
109,192,77782,1,0,0:0:0:0:
36,192,77863,1,0,0:0:0:0:
256,192,77863,1,0,0:0:0:0:
182,192,77944,1,0,0:0:0:70:Bass.wav
402,192,77944,1,0,0:0:0:70:Kick.wav
329,192,77944,1,0,0:0:0:0:
36,192,78025,128,0,78350:0:0:0:0:
109,192,78025,128,0,78107:0:0:0:0:
256,192,78025,1,0,0:0:0:0:
182,192,78107,1,0,0:0:0:0:
329,192,78107,1,0,0:0:0:0:
402,192,78188,1,0,0:0:0:0:
475,192,78188,1,0,0:0:0:0:
256,192,78269,128,0,78350:0:0:0:70:Bass.wav
329,192,78269,128,0,78593:0:0:0:0:
182,192,78269,1,0,0:0:0:0:
109,192,78269,1,0,0:0:0:0:
402,192,78350,1,0,0:0:0:0:
475,192,78350,1,0,0:0:0:0:
256,192,78431,1,0,0:0:0:0:
36,192,78431,1,0,0:0:0:0:
402,192,78512,128,0,78593:0:0:0:0:
475,192,78512,128,0,78836:0:0:0:0:
182,192,78512,1,0,0:0:0:0:
109,192,78593,1,0,0:0:0:70:Bass.wav
36,192,78593,1,0,0:0:0:70:Kick.wav
256,192,78593,1,0,0:0:0:0:
329,192,78674,1,0,0:0:0:0:
402,192,78674,1,0,0:0:0:0:
36,192,78755,128,0,78836:0:0:0:0:
182,192,78755,128,0,78836:0:0:0:0:
256,192,78755,1,0,0:0:0:0:
109,192,78836,1,0,0:0:0:0:
329,192,78836,1,0,0:0:0:0:
402,192,78917,1,0,0:0:0:70:Bass.wav
475,192,78917,1,0,0:0:0:0:
182,192,78917,1,0,0:0:0:0:
36,192,78917,1,0,0:0:0:0:
329,192,78998,1,0,0:0:0:0:
256,192,78998,1,0,0:0:0:0:
109,192,79079,128,0,79404:0:0:0:0:
36,192,79079,128,0,79161:0:0:0:0:
182,192,79079,1,0,0:0:0:0:
402,192,79079,1,0,0:0:0:0:
475,192,79161,1,0,0:0:0:0:
256,192,79161,1,0,0:0:0:0:
329,192,79242,1,0,0:0:0:70:Bass.wav
182,192,79242,1,0,0:0:0:70:Kick.wav
36,192,79242,1,0,0:0:0:0:
402,192,79323,128,0,79647:0:0:0:0:
475,192,79323,128,0,79404:0:0:0:0:
256,192,79323,1,0,0:0:0:0:
182,192,79404,1,0,0:0:0:0:
36,192,79404,1,0,0:0:0:0:
109,192,79485,1,0,0:0:0:0:
475,192,79485,1,0,0:0:0:0:
256,192,79566,128,0,79890:0:0:0:70:Bass.wav
329,192,79566,128,0,79647:0:0:0:0:
182,192,79566,1,0,0:0:0:0:
36,192,79566,1,0,0:0:0:0:
475,192,79647,1,0,0:0:0:0:
109,192,79647,1,0,0:0:0:0:
182,192,79728,1,0,0:0:0:0:
329,192,79728,1,0,0:0:0:0:
36,192,79809,128,0,80134:0:0:0:0:
109,192,79809,128,0,79890:0:0:0:0:
402,192,79809,1,0,0:0:0:0:
182,192,79890,1,0,0:0:0:70:Bass.wav
329,192,79890,1,0,0:0:0:70:Kick.wav
475,192,79890,1,0,0:0:0:0:
256,192,79971,1,0,0:0:0:0:
109,192,79971,1,0,0:0:0:0:
402,192,80052,128,0,80134:0:0:0:0:
182,192,80052,1,0,0:0:0:0:
475,192,80052,128,0,80134:0:0:0:0:
256,192,80134,1,0,0:0:0:0:
329,192,80134,1,0,0:0:0:0:
475,192,80215,1,0,0:0:0:70:Bass.wav
402,192,80215,1,0,0:0:0:0:
109,192,80215,1,0,0:0:0:0:
36,192,80215,1,0,0:0:0:0:
182,192,80296,1,0,0:0:0:0:
256,192,80296,1,0,0:0:0:0:
402,192,80377,128,0,80701:0:0:0:0:
475,192,80377,128,0,80458:0:0:0:0:
329,192,80377,1,0,0:0:0:0:
36,192,80377,1,0,0:0:0:0:
182,192,80458,1,0,0:0:0:0:
109,192,80458,1,0,0:0:0:0:
329,192,80539,1,0,0:0:0:70:Bass.wav
475,192,80539,1,0,0:0:0:70:Kick.wav
256,192,80539,1,0,0:0:0:0:
109,192,80620,128,0,80944:0:0:0:0:
36,192,80620,128,0,80701:0:0:0:0:
182,192,80620,1,0,0:0:0:0:
475,192,80701,1,0,0:0:0:0:
256,192,80701,1,0,0:0:0:0:
402,192,80782,1,0,0:0:0:0:
329,192,80782,1,0,0:0:0:0:
256,192,80863,128,0,81188:0:0:0:70:Bass.wav
182,192,80863,128,0,80944:0:0:0:0:
36,192,80863,1,0,0:0:0:0:
475,192,80863,1,0,0:0:0:0:
329,192,80944,1,0,0:0:0:0:
402,192,80944,1,0,0:0:0:0:
182,192,81025,1,0,0:0:0:0:
109,192,81025,1,0,0:0:0:0:
475,192,81107,128,0,81431:0:0:0:0:
402,192,81107,128,0,81188:0:0:0:0:
329,192,81107,1,0,0:0:0:0:
109,192,81188,1,0,0:0:0:70:Bass.wav
36,192,81188,1,0,0:0:0:70:Kick.wav
182,192,81188,1,0,0:0:0:0:
402,192,81269,1,0,0:0:0:0:
329,192,81269,1,0,0:0:0:0:
256,192,81350,128,0,81431:0:0:0:0:
36,192,81350,128,0,81431:0:0:0:0:
182,192,81431,1,0,0:0:0:0:
329,192,81431,1,0,0:0:0:0:
109,192,81431,1,0,0:0:0:0:
256,192,81512,1,0,0:0:0:70:Bass.wav
402,192,81512,1,0,0:0:0:0:
475,192,81512,1,0,0:0:0:0:
36,192,81512,1,0,0:0:0:0:
329,192,81593,1,0,0:0:0:0:
182,192,81593,1,0,0:0:0:0:
109,192,81674,128,0,81998:0:0:0:0:
36,192,81674,128,0,81755:0:0:0:0:
256,192,81674,1,0,0:0:0:0:
475,192,81674,1,0,0:0:0:0:
402,192,81755,1,0,0:0:0:0:
329,192,81755,1,0,0:0:0:0:
182,192,81836,1,0,0:0:0:70:Bass.wav
36,192,81836,1,0,0:0:0:70:Kick.wav
475,192,81836,1,0,0:0:0:0:
402,192,81917,128,0,82242:0:0:0:0:
329,192,81917,128,0,81998:0:0:0:0:
256,192,81917,1,0,0:0:0:0:
182,192,81998,1,0,0:0:0:0:
36,192,81998,1,0,0:0:0:0:
329,192,82079,1,0,0:0:0:0:
475,192,82079,1,0,0:0:0:0:
182,192,82161,128,0,82485:0:0:0:70:Bass.wav
256,192,82161,128,0,82242:0:0:0:0:
109,192,82161,1,0,0:0:0:0:
36,192,82161,1,0,0:0:0:0:
329,192,82242,1,0,0:0:0:0:
475,192,82242,1,0,0:0:0:0:
256,192,82323,1,0,0:0:0:0:
402,192,82323,1,0,0:0:0:0:
109,192,82404,128,0,82485:0:0:0:0:
36,192,82404,128,0,82728:0:0:0:0:
329,192,82404,1,0,0:0:0:0:
256,192,82485,1,0,0:0:0:70:Kick.wav
475,192,82485,1,0,0:0:0:70:Bass.wav
402,192,82485,1,0,0:0:0:0:
182,192,82566,1,0,0:0:0:0:
109,192,82566,1,0,0:0:0:0:
256,192,82647,128,0,82728:0:0:0:0:
402,192,82647,128,0,82728:0:0:0:0:
475,192,82647,1,0,0:0:0:0:
329,192,82728,1,0,0:0:0:0:
182,192,82728,1,0,0:0:0:0:
256,192,82809,1,0,0:0:0:70:Bass.wav
109,192,82809,1,0,0:0:0:0:
36,192,82809,1,0,0:0:0:0:
402,192,82809,1,0,0:0:0:0:
475,192,82809,1,0,0:0:0:0:
329,192,82890,1,0,0:0:0:0:
36,192,82971,1,0,0:0:0:70:Bass.wav
475,192,82971,1,0,0:0:0:0:
402,192,82971,1,0,0:0:0:0:
182,192,82971,128,0,83134:0:0:0:0:
109,192,82971,128,0,83052:0:0:0:0:
256,192,83052,1,0,0:0:0:0:
402,192,83134,1,0,0:0:0:70:Bass.wav
475,192,83134,1,0,0:0:0:70:Kick.wav
36,192,83134,1,0,0:0:0:0:
109,192,83134,1,0,0:0:0:0:
329,192,83215,128,0,83377:0:0:0:0:
256,192,83215,128,0,83296:0:0:0:0:
182,192,83215,1,0,0:0:0:0:
109,192,83296,1,0,0:0:0:0:
475,192,83296,1,0,0:0:0:0:
36,192,83377,1,0,0:0:0:0:
329,192,83458,1,0,0:0:0:70:Bass.wav
402,192,83458,128,0,83539:0:0:0:0:
475,192,83458,128,0,83620:0:0:0:0:
256,192,83458,1,0,0:0:0:0:
182,192,83458,1,0,0:0:0:0:
109,192,83539,1,0,0:0:0:0:
36,192,83620,1,0,0:0:0:70:Bass.wav
256,192,83620,1,0,0:0:0:0:
402,192,83620,1,0,0:0:0:0:
329,192,83620,1,0,0:0:0:0:
182,192,83701,1,0,0:0:0:0:
36,192,83782,1,0,0:0:0:70:Bass.wav
475,192,83782,1,0,0:0:0:70:Kick.wav
402,192,83782,1,0,0:0:0:0:
109,192,83782,1,0,0:0:0:0:
329,192,83863,1,0,0:0:0:70:Bass.wav
256,192,83863,1,0,0:0:0:0:
182,192,83863,1,0,0:0:0:0:
109,192,83944,1,0,0:0:0:70:Bass.wav
36,192,83944,1,0,0:0:0:0:
475,192,83944,1,0,0:0:0:0:
402,192,83944,1,0,0:0:0:0:
182,192,84025,1,0,0:0:0:70:Bass.wav
256,192,84025,1,0,0:0:0:0:
329,192,84025,1,0,0:0:0:0:
402,192,84107,1,0,0:0:0:70:Crash-L.wav
475,192,84107,1,0,0:0:0:70:Bass.wav
36,192,84107,1,0,0:0:0:0:
109,192,84107,1,0,0:0:0:0:
329,192,84188,1,0,0:0:0:0:
182,192,84188,1,0,0:0:0:0:
256,192,84269,1,0,0:0:0:0:
475,192,84269,128,0,84593:0:0:0:0:
402,192,84269,128,0,84431:0:0:0:0:
36,192,84269,1,0,0:0:0:0:
109,192,84350,1,0,0:0:0:0:
329,192,84350,128,0,84512:0:0:0:0:
256,192,84431,128,0,84593:0:0:0:70:Bass.wav
182,192,84431,1,0,0:0:0:70:Kick.wav
36,192,84512,128,0,84836:0:0:0:0:
109,192,84512,128,0,84674:0:0:0:0:
402,192,84512,1,0,0:0:0:0:
329,192,84593,1,0,0:0:0:0:
182,192,84593,1,0,0:0:0:0:
256,192,84674,1,0,0:0:0:0:
402,192,84674,1,0,0:0:0:0:
475,192,84755,128,0,85161:0:0:0:70:Bass.wav
109,192,84755,1,0,0:0:0:0:
182,192,84755,1,0,0:0:0:0:
402,192,84836,128,0,85079:0:0:0:0:
256,192,84836,1,0,0:0:0:0:
329,192,84917,128,0,84998:0:0:0:0:
109,192,84917,1,0,0:0:0:0:
36,192,84998,128,0,85161:0:0:0:0:
182,192,84998,1,0,0:0:0:0:
109,192,85079,128,0,85161:0:0:0:70:Bass.wav
329,192,85079,1,0,0:0:0:70:Kick.wav
256,192,85079,1,0,0:0:0:0:
402,192,85161,1,0,0:0:0:0:
182,192,85161,1,0,0:0:0:0:
329,192,85242,128,0,85323:0:0:0:0:
475,192,85242,1,0,0:0:0:0:
256,192,85242,128,0,85323:0:0:0:0:
109,192,85242,1,0,0:0:0:0:
36,192,85323,1,0,0:0:0:0:
475,192,85404,1,0,0:0:0:70:Bass.wav
109,192,85404,1,0,0:0:0:0:
256,192,85404,1,0,0:0:0:0:
329,192,85404,1,0,0:0:0:0:
402,192,85485,1,0,0:0:0:0:
182,192,85485,1,0,0:0:0:0:
109,192,85566,128,0,85728:0:0:0:0:
36,192,85566,128,0,85890:0:0:0:0:
256,192,85566,1,0,0:0:0:0:
475,192,85566,1,0,0:0:0:0:
182,192,85647,128,0,85809:0:0:0:0:
402,192,85647,1,0,0:0:0:0:
256,192,85728,128,0,85890:0:0:0:70:Bass.wav
329,192,85728,1,0,0:0:0:70:Kick.wav
402,192,85809,128,0,85971:0:0:0:0:
475,192,85809,128,0,86134:0:0:0:0:
109,192,85809,1,0,0:0:0:0:
182,192,85890,1,0,0:0:0:0:
329,192,85890,1,0,0:0:0:0:
256,192,85971,1,0,0:0:0:0:
109,192,85971,1,0,0:0:0:0:
36,192,86052,128,0,86458:0:0:0:70:Bass.wav
329,192,86052,1,0,0:0:0:0:
402,192,86052,1,0,0:0:0:0:
109,192,86134,128,0,86377:0:0:0:0:
256,192,86134,1,0,0:0:0:0:
182,192,86215,128,0,86296:0:0:0:0:
402,192,86215,1,0,0:0:0:0:
475,192,86296,128,0,86458:0:0:0:0:
329,192,86296,1,0,0:0:0:0:
402,192,86377,128,0,86458:0:0:0:70:Bass.wav
182,192,86377,1,0,0:0:0:70:Kick.wav
256,192,86377,1,0,0:0:0:0:
109,192,86458,1,0,0:0:0:0:
329,192,86458,1,0,0:0:0:0:
256,192,86539,128,0,86620:0:0:0:0:
182,192,86539,128,0,86620:0:0:0:0:
36,192,86539,1,0,0:0:0:0:
402,192,86539,1,0,0:0:0:0:
475,192,86620,1,0,0:0:0:0:
402,192,86701,1,0,0:0:0:70:Bass.wav
256,192,86701,1,0,0:0:0:0:
36,192,86701,1,0,0:0:0:0:
182,192,86701,1,0,0:0:0:0:
109,192,86782,1,0,0:0:0:0:
329,192,86782,1,0,0:0:0:0:
402,192,86863,128,0,87188:0:0:0:0:
475,192,86863,128,0,87025:0:0:0:0:
36,192,86863,1,0,0:0:0:0:
256,192,86863,1,0,0:0:0:0:
329,192,86944,128,0,87107:0:0:0:0:
109,192,86944,1,0,0:0:0:0:
182,192,87025,128,0,87188:0:0:0:70:Bass.wav
256,192,87025,1,0,0:0:0:70:Kick.wav
109,192,87107,128,0,87431:0:0:0:0:
36,192,87107,128,0,87269:0:0:0:0:
475,192,87107,1,0,0:0:0:0:
256,192,87188,1,0,0:0:0:0:
329,192,87188,1,0,0:0:0:0:
475,192,87269,1,0,0:0:0:0:
182,192,87269,1,0,0:0:0:0:
402,192,87350,128,0,87755:0:0:0:70:Bass.wav
256,192,87350,1,0,0:0:0:0:
36,192,87350,1,0,0:0:0:0:
329,192,87431,128,0,87674:0:0:0:0:
182,192,87431,1,0,0:0:0:0:
256,192,87512,128,0,87593:0:0:0:0:
109,192,87512,1,0,0:0:0:0:
36,192,87593,128,0,87755:0:0:0:0:
182,192,87593,1,0,0:0:0:0:
109,192,87674,128,0,87755:0:0:0:70:Bass.wav
256,192,87674,1,0,0:0:0:70:Kick.wav
475,192,87674,1,0,0:0:0:0:
329,192,87755,1,0,0:0:0:0:
182,192,87755,1,0,0:0:0:0:
109,192,87836,128,0,87917:0:0:0:0:
402,192,87836,128,0,87917:0:0:0:0:
256,192,87836,1,0,0:0:0:0:
36,192,87836,1,0,0:0:0:0:
182,192,87917,1,0,0:0:0:0:
329,192,87998,1,0,0:0:0:70:Bass.wav
475,192,87998,1,0,0:0:0:0:
109,192,87998,1,0,0:0:0:0:
402,192,87998,1,0,0:0:0:0:
256,192,88079,1,0,0:0:0:0:
182,192,88079,1,0,0:0:0:0:
109,192,88161,128,0,88485:0:0:0:0:
36,192,88161,128,0,88323:0:0:0:0:
329,192,88161,1,0,0:0:0:0:
402,192,88161,1,0,0:0:0:0:
182,192,88242,128,0,88404:0:0:0:0:
475,192,88242,1,0,0:0:0:0:
329,192,88323,128,0,88485:0:0:0:70:Bass.wav
256,192,88323,1,0,0:0:0:70:Kick.wav
475,192,88404,128,0,88566:0:0:0:0:
402,192,88404,128,0,88728:0:0:0:0:
36,192,88404,1,0,0:0:0:0:
182,192,88485,1,0,0:0:0:0:
256,192,88485,1,0,0:0:0:0:
329,192,88566,1,0,0:0:0:0:
36,192,88566,1,0,0:0:0:0:
109,192,88647,128,0,89052:0:0:0:70:Bass.wav
475,192,88647,1,0,0:0:0:0:
256,192,88647,1,0,0:0:0:0:
182,192,88728,128,0,88971:0:0:0:0:
329,192,88728,1,0,0:0:0:0:
256,192,88809,128,0,88890:0:0:0:0:
402,192,88809,1,0,0:0:0:0:
475,192,88890,128,0,89052:0:0:0:0:
329,192,88890,1,0,0:0:0:0:
402,192,88971,128,0,89052:0:0:0:70:Bass.wav
256,192,88971,1,0,0:0:0:70:Kick.wav
36,192,88971,1,0,0:0:0:0:
182,192,89052,1,0,0:0:0:0:
329,192,89052,1,0,0:0:0:0:
402,192,89134,128,0,89215:0:0:0:0:
109,192,89134,128,0,89215:0:0:0:0:
256,192,89134,1,0,0:0:0:0:
475,192,89134,1,0,0:0:0:0:
329,192,89215,1,0,0:0:0:0:
402,192,89296,1,0,0:0:0:70:Bass.wav
182,192,89296,1,0,0:0:0:0:
109,192,89296,1,0,0:0:0:0:
36,192,89296,1,0,0:0:0:0:
256,192,89377,1,0,0:0:0:0:
475,192,89377,1,0,0:0:0:0:
329,192,89458,128,0,89782:0:0:0:0:
402,192,89458,128,0,89620:0:0:0:0:
36,192,89458,1,0,0:0:0:0:
182,192,89458,1,0,0:0:0:0:
256,192,89539,128,0,89701:0:0:0:0:
109,192,89539,1,0,0:0:0:0:
182,192,89620,128,0,89782:0:0:0:70:Bass.wav
475,192,89620,1,0,0:0:0:70:Kick.wav
36,192,89701,128,0,90025:0:0:0:0:
109,192,89701,128,0,89863:0:0:0:0:
402,192,89701,1,0,0:0:0:0:
256,192,89782,1,0,0:0:0:0:
475,192,89782,1,0,0:0:0:0:
182,192,89863,1,0,0:0:0:0:
402,192,89863,1,0,0:0:0:0:
256,192,89944,128,0,90350:0:0:0:70:Bass.wav
109,192,89944,1,0,0:0:0:0:
329,192,89944,1,0,0:0:0:0:
182,192,90025,128,0,90269:0:0:0:0:
402,192,90025,1,0,0:0:0:0:
109,192,90107,128,0,90188:0:0:0:0:
475,192,90107,1,0,0:0:0:0:
36,192,90188,1,0,0:0:0:0:
329,192,90188,128,0,90350:0:0:0:0:
109,192,90269,1,0,0:0:0:70:Bass.wav
402,192,90269,128,0,90350:0:0:0:70:Kick.wav
475,192,90269,1,0,0:0:0:0:
182,192,90350,1,0,0:0:0:0:
36,192,90350,1,0,0:0:0:0:
329,192,90431,128,0,90512:0:0:0:0:
402,192,90431,128,0,90512:0:0:0:0:
256,192,90431,1,0,0:0:0:0:
475,192,90431,1,0,0:0:0:0:
182,192,90512,1,0,0:0:0:0:
329,192,90593,1,0,0:0:0:70:Bass.wav
402,192,90593,1,0,0:0:0:0:
109,192,90593,1,0,0:0:0:0:
475,192,90593,1,0,0:0:0:0:
256,192,90674,1,0,0:0:0:0:
36,192,90674,1,0,0:0:0:0:
182,192,90755,128,0,91079:0:0:0:0:
109,192,90755,128,0,90917:0:0:0:0:
329,192,90755,1,0,0:0:0:0:
475,192,90755,1,0,0:0:0:0:
256,192,90836,128,0,90998:0:0:0:0:
402,192,90836,1,0,0:0:0:0:
329,192,90917,128,0,91079:0:0:0:70:Bass.wav
36,192,90917,1,0,0:0:0:70:Kick.wav
475,192,90998,128,0,91323:0:0:0:0:
402,192,90998,128,0,91161:0:0:0:0:
109,192,90998,1,0,0:0:0:0:
256,192,91079,1,0,0:0:0:0:
36,192,91079,1,0,0:0:0:0:
329,192,91161,1,0,0:0:0:0:
109,192,91161,1,0,0:0:0:0:
256,192,91242,128,0,91647:0:0:0:70:Bass.wav
402,192,91242,1,0,0:0:0:0:
182,192,91242,1,0,0:0:0:0:
329,192,91323,128,0,91566:0:0:0:0:
109,192,91323,1,0,0:0:0:0:
402,192,91404,128,0,91485:0:0:0:0:
36,192,91404,1,0,0:0:0:0:
182,192,91485,128,0,91647:0:0:0:0:
475,192,91485,1,0,0:0:0:0:
109,192,91566,128,0,91647:0:0:0:70:Bass.wav
402,192,91566,1,0,0:0:0:70:Kick.wav
36,192,91566,1,0,0:0:0:0:
329,192,91647,1,0,0:0:0:0:
475,192,91647,1,0,0:0:0:0:
182,192,91728,128,0,91809:0:0:0:0:
109,192,91728,128,0,91809:0:0:0:0:
256,192,91728,1,0,0:0:0:0:
36,192,91728,1,0,0:0:0:0:
329,192,91809,1,0,0:0:0:0:
182,192,91890,1,0,0:0:0:70:Bass.wav
109,192,91890,1,0,0:0:0:0:
36,192,91890,1,0,0:0:0:0:
402,192,91890,1,0,0:0:0:0:
475,192,91971,1,0,0:0:0:0:
256,192,91971,1,0,0:0:0:0:
402,192,92052,128,0,92377:0:0:0:0:
329,192,92052,128,0,92215:0:0:0:0:
36,192,92052,1,0,0:0:0:0:
182,192,92052,1,0,0:0:0:0:
256,192,92134,128,0,92296:0:0:0:0:
109,192,92134,1,0,0:0:0:0:
182,192,92215,128,0,92377:0:0:0:70:Bass.wav
475,192,92215,1,0,0:0:0:70:Kick.wav
36,192,92296,128,0,92620:0:0:0:0:
109,192,92296,128,0,92458:0:0:0:0:
329,192,92296,1,0,0:0:0:0:
256,192,92377,1,0,0:0:0:0:
475,192,92377,1,0,0:0:0:0:
182,192,92458,1,0,0:0:0:0:
402,192,92458,1,0,0:0:0:0:
329,192,92539,128,0,92944:0:0:0:70:Bass.wav
109,192,92539,1,0,0:0:0:0:
475,192,92539,1,0,0:0:0:0:
256,192,92620,128,0,92863:0:0:0:0:
402,192,92620,1,0,0:0:0:0:
182,192,92701,128,0,92782:0:0:0:0:
36,192,92701,1,0,0:0:0:0:
402,192,92782,128,0,92944:0:0:0:0:
109,192,92782,1,0,0:0:0:0:
475,192,92863,128,0,92944:0:0:0:70:Bass.wav
182,192,92863,1,0,0:0:0:70:Kick.wav
36,192,92863,1,0,0:0:0:0:
256,192,92944,1,0,0:0:0:0:
109,192,92944,1,0,0:0:0:0:
329,192,93025,128,0,93107:0:0:0:0:
475,192,93025,128,0,93107:0:0:0:0:
182,192,93025,1,0,0:0:0:0:
36,192,93025,1,0,0:0:0:0:
256,192,93107,1,0,0:0:0:0:
475,192,93188,5,0,0:0:0:70:Bass.wav
402,192,93188,1,0,0:0:0:0:
109,192,93188,1,0,0:0:0:0:
36,192,93188,1,0,0:0:0:0:
182,192,93188,1,0,0:0:0:0:
329,192,93269,1,0,0:0:0:70:Bass.wav
256,192,93269,1,0,0:0:0:0:
109,192,93350,1,0,0:0:0:70:Bass.wav
36,192,93350,1,0,0:0:0:0:
402,192,93350,1,0,0:0:0:0:
475,192,93350,1,0,0:0:0:0:
182,192,93431,1,0,0:0:0:70:Bass.wav
256,192,93431,1,0,0:0:0:0:
329,192,93512,1,0,0:0:0:70:Bass.wav
402,192,93512,1,0,0:0:0:70:Kick.wav
475,192,93512,1,0,0:0:0:0:
36,192,93512,1,0,0:0:0:0:
109,192,93593,1,0,0:0:0:70:Bass.wav
182,192,93593,1,0,0:0:0:0:
256,192,93674,1,0,0:0:0:70:Bass.wav
329,192,93674,1,0,0:0:0:0:
475,192,93674,1,0,0:0:0:0:
402,192,93674,1,0,0:0:0:0:
109,192,93755,1,0,0:0:0:70:Bass.wav
36,192,93755,1,0,0:0:0:0:
182,192,93836,1,0,0:0:0:70:Bass.wav
475,192,93836,1,0,0:0:0:0:
402,192,93836,1,0,0:0:0:0:
329,192,93836,1,0,0:0:0:0:
109,192,93917,1,0,0:0:0:70:Bass.wav
256,192,93917,1,0,0:0:0:0:
36,192,93998,1,0,0:0:0:70:Bass.wav
182,192,93998,1,0,0:0:0:0:
402,192,93998,1,0,0:0:0:0:
475,192,93998,1,0,0:0:0:0:
256,192,94079,1,0,0:0:0:70:Bass.wav
329,192,94079,1,0,0:0:0:0:
182,192,94161,1,0,0:0:0:70:Bass.wav
109,192,94161,1,0,0:0:0:70:Kick.wav
36,192,94161,1,0,0:0:0:0:
402,192,94161,1,0,0:0:0:0:
475,192,94242,1,0,0:0:0:70:Bass.wav
256,192,94242,1,0,0:0:0:0:
329,192,94323,1,0,0:0:0:70:Bass.wav
36,192,94323,1,0,0:0:0:0:
109,192,94323,1,0,0:0:0:0:
402,192,94323,1,0,0:0:0:0:
182,192,94404,1,0,0:0:0:70:Bass.wav
256,192,94404,1,0,0:0:0:0:
109,192,94485,128,0,96998:0:0:0:70:Crash-L.wav
36,192,94485,128,0,95052:0:0:0:70:Bass.wav
329,192,94485,128,0,95377:0:0:0:0:
402,192,94485,128,0,95539:0:0:0:0:
475,192,94485,128,0,95701:0:0:0:0:
182,192,94647,128,0,95215:0:0:0:0:
256,192,94809,128,0,96674:0:0:0:0:
36,192,95134,128,0,95701:0:0:0:0:
182,192,95296,128,0,96025:0:0:0:0:
329,192,95458,128,0,96188:0:0:0:0:
402,192,95620,128,0,96998:0:0:0:0:
36,192,95782,128,0,95863:0:0:0:0:
475,192,95782,128,0,96350:0:0:0:0:
36,192,95944,128,0,96350:0:0:0:0:
182,192,96107,128,0,96836:0:0:0:0:
329,192,96269,128,0,98296:0:0:0:0:
36,192,96431,128,0,98296:0:0:0:0:
475,192,96431,128,0,96512:0:0:0:0:
475,192,96593,128,0,97647:0:0:0:0:
256,192,96755,128,0,97323:0:0:0:0:
182,192,96917,128,0,97485:0:0:0:0:
109,192,97079,128,0,97647:0:0:0:0:
402,192,97079,128,0,97161:0:0:0:0:
402,192,97242,128,0,98134:0:0:0:0:
256,192,97404,128,0,97971:0:0:0:0:
182,192,97566,128,0,98782:0:0:0:0:
109,192,97728,128,0,97809:0:0:0:0:
475,192,97728,128,0,98944:0:0:0:0:
109,192,97890,128,0,98944:0:0:0:0:
256,192,98052,128,0,98620:0:0:0:0:
402,192,98215,128,0,99593:0:0:0:0:
36,192,98377,128,0,99431:0:0:0:0:
329,192,98377,128,0,98458:0:0:0:0:
329,192,98539,128,0,99107:0:0:0:0:
256,192,98701,128,0,99593:0:0:0:0:
182,192,98863,128,0,99269:0:0:0:0:
109,192,99025,128,0,100890:0:0:0:0:
475,192,99025,128,0,100242:0:0:0:0:
329,192,99188,128,0,99917:0:0:0:0:
182,192,99350,128,0,100404:0:0:0:0:
36,192,99512,128,0,100242:0:0:0:0:
256,192,99674,128,0,99755:0:0:0:0:
402,192,99674,128,0,100079:0:0:0:0:
256,192,99836,128,0,101052:0:0:0:0:
329,192,99998,128,0,100566:0:0:0:0:
402,192,100161,128,0,101215:0:0:0:0:
36,192,100323,128,0,101539:0:0:0:0:
475,192,100323,128,0,101539:0:0:0:0:
182,192,100485,128,0,100728:0:0:0:0:
329,192,100647,128,0,101539:0:0:0:0:
182,192,100809,128,0,101377:0:0:0:0:
109,192,100971,128,0,101539:0:0:0:0:
256,192,101134,128,0,101539:0:0:0:0:
402,192,101296,128,0,101539:0:0:0:0:
182,192,101458,128,0,105998:0:0:0:0:
36,192,101620,128,0,105998:0:0:0:0:
109,192,101620,128,0,105998:0:0:0:0:
329,192,101620,128,0,105998:0:0:0:0:
402,192,101620,128,0,105998:0:0:0:0:
475,192,101620,128,0,105998:0:0:0:0:
256,192,101620,128,0,105998:0:0:0:0:
