osu file format v14

[General]
AudioFilename: audio.mp3
AudioLeadIn: 0
PreviewTime: 63573
Countdown: 0
SampleSet: Soft
StackLeniency: 0.2
Mode: 0
LetterboxInBreaks: 0
WidescreenStoryboard: 0

[Editor]
Bookmarks: 1303,11681,22059,32438,42816,73951,84330,94708,105086,115465,125843
DistanceSpacing: 1.6
BeatDivisor: 4
GridSize: 4
TimelineZoom: 3.899998

[Metadata]
Title:Todestrieb
TitleUnicode:Todestrieb
Artist:Rche
ArtistUnicode:Rche
Creator:Matrix
Version:Parasitic Gene "Flow"
Source:beatmania IIDX 19 Lincle
Tags:electronic trance piano calm instrumental bemani zektbach tomosuke funaki reflec beat groovin'!! upper emu1337 lmt jace _todestrieb
BeatmapID:2387896
BeatmapSetID:1054789

[Difficulty]
HPDrainRate:6
CircleSize:6
OverallDifficulty:10
ApproachRate:9
SliderMultiplier:1.7
SliderTickRate:1

[Events]
//Background and Video events
0,0,"the nature of quitting.jpg",0,0
//Break Periods
2,63773,71284
//Storyboard Layer 0 (Background)
//Storyboard Layer 1 (Fail)
//Storyboard Layer 2 (Pass)
//Storyboard Layer 3 (Foreground)
//Storyboard Layer 4 (Overlay)
//Storyboard Sound Samples

[TimingPoints]
1303,324.324324324324,4,2,2,40,1,0
1384,-100,4,2,1,40,0,0
11681,-100,4,2,1,45,0,0
16870,-100,4,2,2,45,0,0
16951,-100,4,2,1,45,0,0
22059,-100,4,2,1,50,0,0
27248,-100,4,2,2,50,0,0
27330,-100,4,2,1,50,0,0
31140,-83.3333333333333,4,2,1,60,0,0
31465,-71.4285714285714,4,2,1,60,0,0
31789,-100,4,2,1,60,0,0
33086,-100,4,2,1,70,0,0
33411,-100,4,2,1,50,0,0
33735,-100,4,2,1,70,0,0
34059,-100,4,2,1,50,0,0
34384,-100,4,2,1,70,0,0
34708,-100,4,2,1,50,0,0
35032,-100,4,2,1,70,0,0
35357,-100,4,2,1,50,0,0
35681,-100,4,2,1,60,0,0
36005,-100,4,2,1,45,0,0
36330,-100,4,2,1,50,0,0
36654,-100,4,2,1,70,0,0
36978,-100,4,2,1,50,0,0
37302,-100,4,2,1,45,0,0
37627,-100,4,2,1,55,0,0
37951,-100,4,2,1,50,0,0
38275,-100,4,2,1,65,0,0
38600,-100,4,2,1,50,0,0
38924,-100,4,2,1,48,0,0
39248,-100,4,2,1,51,0,0
39573,-100,4,2,1,54,0,0
39897,-100,4,2,1,57,0,0
40221,-100,4,2,1,60,0,0
40546,-100,4,2,1,63,0,0
40870,-100,4,2,1,66,0,0
41194,-100,4,2,1,69,0,0
41519,-100,4,2,1,72,0,0
42492,-100,4,2,1,72,0,0
42816,-100,4,2,1,70,0,0
63654,-100,4,2,1,40,0,0
73951,-117.647058823529,4,2,1,55,0,0
83032,-117.647058823529,4,2,1,65,0,0
84330,-100,4,2,1,70,0,0
94708,-100,4,2,1,70,0,1
105086,-100,4,2,1,75,0,0
115546,-100,4,2,1,60,0,0
116762,-100,4,2,1,50,0,0
118059,-100,4,2,1,45,0,0
119357,-100,4,2,1,40,0,0
120654,-100,4,2,1,35,0,0
121951,-100,4,2,1,30,0,0
123248,-100,4,2,1,25,0,0
124546,-100,4,2,1,20,0,0
125843,-100,4,2,2,60,0,0

[Colours]
Combo1 : 0,141,157
Combo2 : 157,0,0
Combo3 : 74,0,149
Combo4 : 193,0,193

[HitObjects]
256,360,1303,6,0,B|272:308|256:272|256:272|240:236|256:192,1,170,6|0,0:0|0:0,0:0:0:0:
256,100,1789,2,0,L|255:12,2,85,2|0|0,0:0|0:0|0:0,0:0:0:0:
336,224,2275,5,2,0:0:0:0:
176,312,2438,1,0,0:0:0:0:
336,312,2600,1,0,0:0:0:0:
176,224,2763,1,2,0:0:0:0:
256,360,2925,1,0,0:0:0:0:
256,176,3087,1,0,0:0:0:0:
255,9,3248,2,0,B|239:61|255:97|255:97|271:133|255:177,1,170,2|2,0:0|0:0,0:0:0:0:
184,128,3897,6,0,L|88:108,2,85,2|0|0,0:0|0:0|0:0,0:0:0:0:
328,64,4384,2,0,L|432:84,2,85,2|0|0,0:0|0:0|0:0,0:0:0:0:
368,188,4870,5,2,0:0:0:0:
328,331,5032,1,0,0:0:0:0:
472,292,5194,1,0,0:0:0:0:
361,207,5356,5,2,0:0:0:0:
348,326,5519,1,0,0:0:0:0:
457,277,5681,1,0,0:0:0:0:
387,268,5843,5,2,0:0:0:0:
387,268,6167,1,2,0:0:0:0:
16,288,6492,5,2,0:0:0:0:
48,368,6654,1,0,0:0:0:0:
128,336,6816,1,0,0:0:0:0:
96,256,6978,1,2,0:0:0:0:
48,368,7140,5,0,0:0:0:0:
128,336,7303,1,0,0:0:0:0:
216,360,7465,1,2,0:0:0:0:
296,328,7628,1,0,0:0:0:0:
388,340,7789,5,0,0:0:0:0:
354,256,7951,1,2,0:0:0:0:
476,332,8113,1,0,0:0:0:0:
423,198,8275,1,0,0:0:0:0:
498,245,8438,1,2,0:0:0:0:
427,271,8762,1,2,0:0:0:0:
28,180,9086,5,2,0:0:0:0:
3,86,9248,1,0,0:0:0:0:
192,136,9411,1,0,0:0:0:0:
123,206,9573,1,2,0:0:0:0:
72,17,9735,1,0,0:0:0:0:
166,42,9897,1,0,0:0:0:0:
97,111,10059,6,0,B|139:108|139:108|24:216,1,170,2|0,0:0|0:0,0:0:0:0:
148,336,10546,1,2,0:0:0:0:
277,206,10708,1,0,0:0:0:0:
233,336,10870,1,0,0:0:0:0:
191,206,11032,1,2,0:0:0:0:
452,284,11357,2,0,L|340:284,1,85,2|0,0:0|0:0,0:0:0:0:
168,40,11681,5,6,0:0:0:0:
120,152,11843,1,0,1:0:0:0:
72,264,12005,1,0,1:0:0:0:
24,376,12167,5,2,0:0:0:0:
144,361,12329,1,0,1:0:0:0:
265,347,12492,1,0,1:0:0:0:
386,333,12654,5,2,0:0:0:0:
313,236,12816,1,0,1:0:0:0:
240,138,12979,1,0,1:0:0:0:
136,200,13140,5,2,0:0:0:0:
248,124,13302,1,0,1:0:0:0:
328,260,13465,1,0,1:0:0:0:
376,192,13627,2,0,B|324:176|288:192|288:192|252:208|208:192,1,170,2|2,0:0|0:0,0:0:0:0:
4,196,14275,5,2,0:0:0:0:
93,281,14438,1,0,1:0:0:0:
183,366,14600,1,0,1:0:0:0:
100,268,14762,5,2,0:0:0:0:
185,353,14925,1,0,1:0:0:0:
302,313,15087,1,0,1:0:0:0:
216,224,15248,5,2,0:0:0:0:
310,301,15411,1,0,1:0:0:0:
332,180,15573,1,0,1:0:0:0:
233,101,15735,2,0,B|240:137|240:137|272:145|272:145|298:125|298:125|328:133|328:133|340:169,1,170,2|0,0:0|1:0,0:0:0:0:
339,167,16221,1,2,0:0:0:0:
395,32,16546,2,0,B|364:59|364:59|314:47,1,85,2|0,0:0|1:0,0:0:0:0:
104,30,16870,5,6,0:0:0:0:
208,86,17032,1,0,1:0:0:0:
104,142,17194,1,0,1:0:0:0:
156,30,17357,1,2,0:0:0:0:
208,142,17519,1,0,1:0:0:0:
104,86,17681,1,0,1:0:0:0:
208,30,17843,1,2,0:0:0:0:
156,142,18005,1,0,1:0:0:0:
1,30,18167,5,0,1:0:0:0:
53,142,18330,1,2,0:0:0:0:
156,87,18492,1,0,1:0:0:0:
208,199,18655,1,0,1:0:0:0:
184,320,18816,2,0,B|196:298|196:298|276:282,1,85,2|0,0:0|1:0,0:0:0:0:
400,346,19140,2,0,B|298:369|247:272,1,170,2|2,0:0|0:0,0:0:0:0:
254,285,19627,5,0,1:0:0:0:
264,174,19789,1,0,1:0:0:0:
172,110,19951,1,2,0:0:0:0:
70,157,20113,1,0,1:0:0:0:
60,268,20275,5,0,1:0:0:0:
161,221,20438,1,2,0:0:0:0:
172,110,20600,1,0,1:0:0:0:
80,46,20762,1,0,1:0:0:0:
70,157,20924,5,2,0:0:0:0:
161,221,21086,1,0,1:0:0:0:
264,174,21248,1,0,1:0:0:0:
367,127,21411,2,0,L|474:78,1,85,2|0,0:0|1:0,0:0:0:0:
289,10,21735,2,0,L|396:59,1,85,2|0,0:0|1:0,0:0:0:0:
499,95,22059,5,6,3:2:0:0:
495,111,22140,1,0,0:0:0:0:
491,127,22221,1,0,0:0:0:0:
366,181,22384,1,0,3:0:0:0:
451,299,22546,1,2,0:2:0:0:
455,283,22627,1,0,0:0:0:0:
459,267,22708,1,0,3:0:0:0:
487,143,22871,1,0,0:0:0:0:
366,181,23032,6,0,B|321:290|199:239,1,170,2|0,3:2|3:0,0:0:0:0:
459,267,23519,1,2,0:2:0:0:
146,203,23681,2,0,B|191:94|313:145,1,170,0|2,3:0|3:2,0:0:0:0:
53,117,24330,1,2,3:2:0:0:
468,152,24654,5,2,3:2:0:0:
460,164,24816,1,0,0:0:0:0:
360,212,24978,1,0,3:0:0:0:
374,212,25140,1,2,0:2:0:0:
464,276,25302,1,0,3:0:0:0:
457,263,25464,1,0,0:0:0:0:
363,100,25627,5,2,3:2:0:0:
285,7,25789,1,0,0:0:0:0:
167,28,25951,1,0,3:0:0:0:
203,233,26113,5,2,0:2:0:0:
248,120,26275,1,0,3:0:0:0:
130,140,26438,1,0,0:0:0:0:
93,253,26600,2,0,B|69:277|69:277|4:285,1,85,2|0,3:2|0:0,0:0:0:0:
208,368,26924,2,0,B|232:344|232:344|297:336,1,85,2|0,3:2|0:0,0:0:0:0:
480,320,27248,5,6,3:2:0:0:
368,256,27411,1,0,0:0:0:0:
371,384,27573,1,0,3:0:0:0:
401,330,27735,5,2,0:2:0:0:
418,320,27897,1,0,3:0:0:0:
400,309,28060,1,0,0:0:0:0:
500,180,28221,5,2,3:2:0:0:
368,256,28384,1,0,0:0:0:0:
364,104,28546,1,0,3:0:0:0:
496,172,28708,5,2,0:2:0:0:
492,16,28871,1,0,3:0:0:0:
360,96,29033,1,0,0:0:0:0:
364,248,29194,5,2,3:2:0:0:
360,240,29519,1,2,3:2:0:0:
4,268,29843,5,2,3:2:0:0:
57,171,30005,1,0,0:0:0:0:
154,225,30167,1,0,3:0:0:0:
101,322,30330,5,2,0:2:0:0:
159,215,30492,1,0,3:0:0:0:
265,274,30654,1,0,0:0:0:0:
207,381,30816,6,0,B|226:363|226:363|297:357,1,85,2|0,3:2|0:0,0:0:0:0:
485,342,31140,2,0,B|459:334|459:334|406:256,1,101.999996887207,4|6,3:2|3:2,0:0:0:0:
325,107,31465,2,0,B|331:132|331:132|289:221,1,118.999996368408,4|0,3:2|0:0,0:0:0:0:
96,328,31789,5,6,3:2:0:0:
96,312,31870,1,0,3:0:0:0:
80,296,31951,1,4,3:2:0:0:
80,280,32032,1,0,3:0:0:0:
96,264,32113,1,6,3:2:0:0:
96,248,32194,1,0,3:0:0:0:
80,232,32275,1,4,3:2:0:0:
80,216,32357,1,0,3:0:0:0:
96,200,32438,5,6,3:2:0:0:
136,176,32519,1,2,0:0:0:0:
136,128,32600,1,2,0:0:0:0:
96,104,32681,1,2,0:0:0:0:
56,128,32762,1,2,0:0:0:0:
16,104,32843,1,2,0:0:0:0:
16,56,32924,1,2,0:0:0:0:
56,32,33005,1,2,0:0:0:0:
96,56,33086,5,2,0:0:0:0:
120,32,33167,1,2,0:0:0:0:
144,56,33248,1,2,0:0:0:0:
168,32,33329,1,2,0:0:0:0:
192,56,33411,1,2,0:0:0:0:
216,32,33492,1,2,0:0:0:0:
240,56,33573,1,2,0:0:0:0:
264,32,33654,1,2,0:0:0:0:
288,8,33735,5,2,0:0:0:0:
304,0,33816,1,2,0:0:0:0:
320,0,33897,1,2,0:0:0:0:
336,8,33978,1,2,0:0:0:0:
344,24,34059,1,2,0:0:0:0:
344,40,34140,1,2,0:0:0:0:
336,56,34221,1,2,0:0:0:0:
320,64,34302,1,2,0:0:0:0:
328,88,34384,5,2,0:0:0:0:
311,93,34465,1,2,0:0:0:0:
299,104,34546,1,2,0:0:0:0:
294,121,34627,1,2,0:0:0:0:
299,138,34708,1,2,0:0:0:0:
311,150,34789,1,2,0:0:0:0:
328,155,34870,1,2,0:0:0:0:
344,150,34951,1,2,0:0:0:0:
356,140,35032,5,2,0:0:0:0:
396,164,35113,1,2,0:0:0:0:
396,212,35194,1,2,0:0:0:0:
356,236,35275,1,2,0:0:0:0:
316,212,35356,1,2,0:0:0:0:
276,236,35437,1,2,0:0:0:0:
276,284,35518,1,2,0:0:0:0:
316,308,35599,1,2,0:0:0:0:
356,284,35681,1,2,0:0:0:0:
396,308,35762,1,2,0:0:0:0:
396,356,35843,1,2,0:0:0:0:
356,381,35924,1,2,0:0:0:0:
316,357,36005,1,2,0:0:0:0:
316,308,36086,1,2,0:0:0:0:
356,284,36167,1,2,0:0:0:0:
356,236,36248,1,2,0:0:0:0:
324,177,36330,5,2,0:0:0:0:
318,179,36411,1,2,0:0:0:0:
313,181,36492,1,2,0:0:0:0:
308,183,36573,1,2,0:0:0:0:
240,145,36654,5,2,0:0:0:0:
242,150,36735,1,2,0:0:0:0:
244,155,36816,1,2,0:0:0:0:
246,160,36897,1,2,0:0:0:0:
210,228,36978,5,2,0:0:0:0:
215,226,37059,1,2,0:0:0:0:
220,224,37140,1,2,0:0:0:0:
225,222,37221,1,2,0:0:0:0:
292,259,37302,5,2,0:0:0:0:
290,254,37383,1,2,0:0:0:0:
288,249,37464,1,2,0:0:0:0:
286,244,37545,1,2,0:0:0:0:
268,200,37627,5,2,0:0:0:0:
228,192,37708,1,2,0:0:0:0:
188,184,37789,1,2,0:0:0:0:
148,176,37870,1,2,0:0:0:0:
108,168,37951,1,2,0:0:0:0:
68,160,38032,1,2,0:0:0:0:
76,120,38113,1,2,0:0:0:0:
116,128,38194,1,2,0:0:0:0:
108,168,38275,1,2,0:0:0:0:
100,208,38357,1,2,0:0:0:0:
92,248,38438,1,2,0:0:0:0:
84,288,38519,1,2,0:0:0:0:
124,296,38600,1,2,0:0:0:0:
132,256,38681,1,2,0:0:0:0:
92,248,38762,1,2,0:0:0:0:
52,240,38843,1,2,0:0:0:0:
12,232,38924,5,2,0:0:0:0:
7,261,39005,1,2,0:0:0:0:
10,290,39086,1,2,0:0:0:0:
21,318,39167,1,2,0:0:0:0:
40,341,39248,1,2,0:0:0:0:
64,358,39329,1,2,0:0:0:0:
91,369,39410,1,2,0:0:0:0:
121,371,39491,1,2,0:0:0:0:
188,376,39573,5,2,0:0:0:0:
186,370,39654,1,2,0:0:0:0:
185,364,39735,1,2,0:0:0:0:
183,358,39816,1,2,0:0:0:0:
177,288,39897,5,2,0:0:0:0:
194,293,39978,1,2,0:0:0:0:
211,298,40059,1,2,0:0:0:0:
228,303,40140,1,2,0:0:0:0:
290,312,40221,5,2,0:0:0:0:
294,286,40302,1,2,0:0:0:0:
299,261,40383,1,2,0:0:0:0:
303,236,40464,1,2,0:0:0:0:
266,178,40546,5,2,0:0:0:0:
295,163,40627,1,2,0:0:0:0:
329,167,40708,1,2,0:0:0:0:
356,186,40789,1,2,0:0:0:0:
384,203,40870,1,2,0:0:0:0:
418,206,40951,1,2,0:0:0:0:
449,194,41032,1,2,0:0:0:0:
473,170,41113,1,2,0:0:0:0:
483,137,41194,1,2,0:0:0:0:
478,104,41275,1,2,0:0:0:0:
459,76,41356,1,2,0:0:0:0:
430,58,41437,1,2,0:0:0:0:
368,23,41519,5,6,3:2:0:0:
360,35,41600,1,2,0:0:0:0:
324,55,41681,1,2,0:0:0:0:
316,67,41762,1,2,0:0:0:0:
280,87,41843,1,8,0:3:0:0:
272,99,41924,1,2,0:0:0:0:
236,119,42005,1,2,0:0:0:0:
228,131,42086,1,2,0:0:0:0:
204,207,42167,5,2,0:0:0:0:
168,184,42248,1,2,0:0:0:0:
151,146,42329,1,2,3:2:0:0:
158,105,42410,1,2,0:0:0:0:
216,55,42492,5,2,3:2:0:0:
171,29,42573,1,2,0:0:0:0:
120,37,42654,2,0,B|101:52|101:52|57:52,1,42.5,2|2,3:2|3:2,0:0:0:0:
27,50,42816,5,4,3:2:0:0:
48,184,42978,1,2,0:0:0:0:
76,316,43140,1,0,0:0:0:0:
84,329,43221,1,2,0:0:0:0:
150,266,43384,1,0,0:0:0:0:
164,274,43465,1,2,0:0:0:0:
155,177,43627,1,0,0:0:0:0:
172,177,43708,1,2,0:0:0:0:
132,88,43870,1,0,0:0:0:0:
145,79,43951,2,0,B|110:88|110:88|83:142,1,85,2|0,0:0|0:0,0:0:0:0:
40,312,44275,5,2,0:0:0:0:
40,224,44438,1,0,0:0:0:0:
26,215,44519,1,2,0:0:0:0:
89,149,44681,1,0,0:0:0:0:
81,135,44762,1,2,0:0:0:0:
179,144,44924,1,0,0:0:0:0:
178,127,45005,1,2,0:0:0:0:
72,2,45167,1,0,0:0:0:0:
80,16,45248,2,0,B|96:32|96:32|177:36,1,85,2|0,0:0|0:0,0:0:0:0:
303,43,45573,5,2,0:0:0:0:
431,107,45735,1,0,0:0:0:0:
423,123,45816,1,2,0:0:0:0:
308,184,45978,1,0,0:0:0:0:
325,182,46059,1,2,0:0:0:0:
440,252,46221,1,0,0:0:0:0:
429,238,46302,1,2,0:0:0:0:
392,188,46465,1,0,0:0:0:0:
392,188,46546,2,0,B|368:196|368:196|344:260,1,85,2|0,0:0|0:0,0:0:0:0:
281,383,46870,5,2,0:0:0:0:
152,320,47032,1,0,0:0:0:0:
136,312,47113,1,2,0:0:0:0:
0,256,47275,1,0,0:0:0:0:
16,248,47356,1,2,0:0:0:0:
152,184,47519,1,0,0:0:0:0:
136,176,47600,1,2,0:0:0:0:
0,120,47762,1,0,0:0:0:0:
16,112,47843,2,0,B|40:120|40:120|128:88,1,85,2|4,0:0|0:0,0:0:0:0:
232,56,48167,5,2,0:0:0:0:
376,16,48330,1,0,0:0:0:0:
384,32,48411,1,2,0:0:0:0:
512,104,48573,1,0,0:0:0:0:
494,122,48654,1,2,0:0:0:0:
482,145,48735,1,2,0:0:0:0:
476,169,48816,1,0,0:0:0:0:
475,195,48897,1,2,0:0:0:0:
488,336,49059,1,0,0:0:0:0:
496,320,49140,2,0,B|472:304|472:304|384:320,1,85,2|0,0:0|0:0,0:0:0:0:
296,384,49465,5,2,0:0:0:0:
176,304,49627,1,0,0:0:0:0:
161,294,49708,1,2,0:0:0:0:
44,204,49870,1,0,0:0:0:0:
29,194,49951,1,2,0:0:0:0:
48,322,50113,1,0,0:0:0:0:
57,307,50194,1,2,0:0:0:0:
147,191,50356,1,0,0:0:0:0:
157,176,50438,2,0,B|171:153|171:153|253:136,1,85,2|0,0:0|0:0,0:0:0:0:
369,112,50762,5,2,0:0:0:0:
440,248,50924,1,0,0:0:0:0:
432,264,51005,1,2,0:0:0:0:
269,293,51167,1,0,0:0:0:0:
275,265,51248,1,2,0:0:0:0:
290,241,51330,1,2,0:0:0:0:
313,224,51411,1,0,0:0:0:0:
340,216,51492,1,2,0:0:0:0:
488,136,51654,1,0,0:0:0:0:
480,152,51735,2,0,B|456:160|456:160|385:126,1,85,2|0,0:0|0:0,0:0:0:0:
279,81,52059,5,2,0:0:0:0:
141,3,52221,1,0,0:0:0:0:
142,21,52302,1,2,0:0:0:0:
130,175,52465,1,0,0:0:0:0:
146,165,52546,1,2,0:0:0:0:
162,155,52627,1,2,0:0:0:0:
179,146,52708,1,0,0:0:0:0:
195,136,52789,1,2,0:0:0:0:
279,81,52951,1,0,0:0:0:0:
263,73,53032,2,0,B|239:68|239:68|181:102,1,85,2|4,0:0|0:0,0:0:0:0:
72,187,53357,5,2,0:0:0:0:
29,349,53519,1,0,0:0:0:0:
44,338,53600,1,2,0:0:0:0:
59,327,53681,1,0,0:0:0:0:
191,272,53843,1,2,0:0:0:0:
207,280,53924,1,2,0:0:0:0:
224,288,54005,1,0,0:0:0:0:
241,297,54086,1,2,0:0:0:0:
258,305,54167,1,0,0:0:0:0:
383,368,54330,1,2,0:0:0:0:
398,357,54411,1,0,0:0:0:0:
413,346,54492,1,0,0:0:0:0:
361,214,54654,5,2,0:0:0:0:
489,166,54816,1,0,0:0:0:0:
497,150,54897,1,2,0:0:0:0:
353,198,55059,1,0,0:0:0:0:
345,182,55140,1,2,0:0:0:0:
246,76,55302,1,0,0:0:0:0:
254,60,55383,1,2,0:0:0:0:
110,108,55545,1,0,0:0:0:0:
102,92,55627,2,0,B|129:97|129:97|158:165,1,85,2|0,0:0|0:0,0:0:0:0:
123,307,55951,6,0,P|164:275|237:268,1,85,2|0,0:0|0:0,0:0:0:0:
339,256,56275,1,0,0:0:0:0:
491,249,56438,1,2,0:0:0:0:
487,221,56519,1,2,0:0:0:0:
477,194,56600,1,0,0:0:0:0:
461,171,56681,1,2,0:0:0:0:
440,152,56762,1,0,0:0:0:0:
298,122,56924,2,0,B|279:145|279:145|218:162,1,85,2|0,0:0|0:0,0:0:0:0:
80,196,57248,5,2,0:0:0:0:
160,56,57411,1,0,0:0:0:0:
170,41,57492,1,2,0:0:0:0:
194,179,57654,1,0,0:0:0:0:
208,189,57735,1,2,0:0:0:0:
70,212,57897,1,0,0:0:0:0:
61,227,57978,1,2,0:0:0:0:
37,89,58140,1,0,0:0:0:0:
22,79,58221,2,0,B|50:74|50:74|114:117,1,85,2|4,0:0|0:0,0:0:0:0:
208,189,58546,5,2,0:0:0:0:
336,264,58708,1,0,0:0:0:0:
350,274,58789,1,2,0:0:0:0:
496,296,58951,1,0,0:0:0:0:
475,277,59032,1,2,0:0:0:0:
459,254,59113,1,2,0:0:0:0:
449,228,59194,1,0,0:0:0:0:
446,200,59275,1,2,0:0:0:0:
464,56,59438,1,0,0:0:0:0:
456,32,59519,2,0,B|432:40|432:40|408:120,1,85,2|0,0:0|0:0,0:0:0:0:
384,240,59843,5,2,0:0:0:0:
400,360,60005,2,0,P|360:360|304:320,1,85,0|0,0:0|0:0,0:0:0:0:
192,248,60330,1,2,0:0:0:0:
184,264,60411,1,2,0:0:0:0:
72,320,60573,1,2,0:0:0:0:
89,318,60654,1,0,0:0:0:0:
192,384,60816,1,2,0:0:0:0:
181,370,60897,1,0,0:0:0:0:
170,356,60978,5,0,3:2:0:0:
157,336,61059,1,0,0:0:0:0:
148,315,61140,1,2,0:0:0:0:
143,293,61221,1,0,0:0:0:0:
143,270,61302,1,0,3:3:0:0:
147,247,61383,1,2,0:0:0:0:
155,226,61464,1,0,0:0:0:0:
167,206,61545,1,0,0:0:0:0:
178,187,61627,1,2,3:2:0:0:
185,165,61708,1,2,0:0:0:0:
187,142,61789,1,0,0:0:0:0:
184,119,61870,1,2,0:0:0:0:
175,98,61951,1,0,3:3:0:0:
162,80,62032,1,0,0:0:0:0:
144,65,62113,1,2,0:0:0:0:
123,55,62194,1,0,0:0:0:0:
52,47,62275,5,0,3:2:0:0:
51,59,62356,1,0,0:0:0:0:
50,72,62437,1,2,0:0:0:0:
49,84,62518,1,0,0:0:0:0:
45,155,62600,5,0,3:3:0:0:
59,156,62681,1,2,0:0:0:0:
74,158,62762,1,0,0:0:0:0:
89,159,62843,1,0,0:0:0:0:
159,164,62924,5,2,3:2:0:0:
161,147,63005,2,0,L|183:190,1,42.5,2|0,0:0|3:0,0:0:0:0:
299,233,63167,1,2,0:0:0:0:
312,243,63248,2,0,L|263:240,1,42.5,0|0,3:3|0:0,0:0:0:0:
152,323,63411,1,2,3:0:0:0:
163,305,63492,1,0,0:0:0:0:
174,287,63573,5,6,0:0:0:0:
320,348,73951,5,2,0:0:0:0:
228,188,74113,1,0,0:0:0:0:
284,292,74275,1,2,0:0:0:0:
248,284,74384,1,0,0:0:0:0:
256,248,74492,1,0,0:0:0:0:
292,256,74601,1,2,0:0:0:0:
192,324,74762,1,0,0:0:0:0:
100,352,74924,2,0,B|68:364|68:364|84:288|84:288|132:272,1,144.500002756119,2|2,0:0|0:0,0:0:0:0:
192,252,75411,5,0,0:0:0:0:
268,232,75573,1,2,0:0:0:0:
304,221,75681,1,0,0:0:0:0:
304,183,75789,1,0,0:0:0:0:
268,172,75897,1,2,0:0:0:0:
192,151,76059,1,0,0:0:0:0:
112,131,76221,2,0,B|81:120|81:120|65:44|65:44|97:56,1,144.500002756119,2|2,0:0|0:0,0:0:0:0:
180,72,76708,5,0,0:0:0:0:
272,60,76870,1,2,0:0:0:0:
308,68,76978,1,0,0:0:0:0:
300,104,77086,1,0,0:0:0:0:
264,96,77194,1,2,0:0:0:0:
388,80,77357,1,0,0:0:0:0:
468,44,77519,2,0,B|499:29|499:29|461:138,1,144.500002756119,2|2,0:0|0:0,0:0:0:0:
440,208,78005,5,0,0:0:0:0:
356,232,78167,2,0,L|336:308,1,48.1666675853729,2|0,0:0|0:0,0:0:0:0:
294,253,78384,2,0,L|274:329,1,48.1666675853729,0|2,0:0|0:0,0:0:0:0:
260,384,78654,1,0,0:0:0:0:
192,328,78816,2,0,P|144:328|64:384,1,144.500002756119,2|2,0:0|0:0,0:0:0:0:
24,316,79302,5,0,0:0:0:0:
28,236,79465,1,2,0:0:0:0:
64,252,79573,1,0,0:0:0:0:
100,240,79681,1,0,0:0:0:0:
120,208,79789,1,2,0:0:0:0:
56,164,79951,1,0,0:0:0:0:
168,264,80113,2,0,B|201:286|201:286|268:261|268:261|242:237,1,144.500002756119,2|2,0:0|0:0,0:0:0:0:
192,184,80600,5,0,0:0:0:0:
216,104,80762,1,2,0:0:0:0:
180,88,80870,1,0,0:0:0:0:
144,100,80978,1,0,0:0:0:0:
124,132,81086,1,2,0:0:0:0:
220,20,81248,1,0,0:0:0:0:
340,124,81411,2,0,P|384:132|432:100,1,72.2500013780594,2|0,0:0|0:0,0:0:0:0:
392,224,81735,5,2,0:0:0:0:
376,224,81816,1,0,0:0:0:0:
360,208,81897,1,0,0:0:0:0:
344,208,81978,1,0,0:0:0:0:
328,224,82059,1,2,0:0:0:0:
312,224,82140,1,0,0:0:0:0:
296,208,82221,1,0,0:0:0:0:
280,208,82302,1,0,0:0:0:0:
264,224,82384,1,2,0:0:0:0:
248,224,82465,1,0,0:0:0:0:
232,208,82546,1,0,0:0:0:0:
216,208,82627,1,0,0:0:0:0:
200,224,82708,1,2,0:0:0:0:
184,224,82789,1,0,0:0:0:0:
168,208,82870,1,0,0:0:0:0:
152,208,82951,1,0,0:0:0:0:
136,224,83032,6,0,L|104:224,28,18.0625003445149,2|0|0|0|0|0|0|0|2|0|0|0|0|0|0|0|2|0|0|0|0|0|0|0|2|0|0|0|0,0:0|0:0|0:0|0:0|0:0|0:0|0:0|0:0|0:0|0:0|0:0|0:0|0:0|0:0|0:0|0:0|0:0|0:0|0:0|0:0|0:0|0:0|0:0|0:0|0:0|0:0|0:0|0:0|0:0,0:0:0:0:
16,60,84330,5,4,3:2:0:0:
40,204,84492,1,0,1:0:0:0:
48,188,84573,1,0,0:0:0:0:
56,172,84654,2,0,L|72:130,1,42.5,10|0,3:3|0:0,0:0:0:0:
128,158,84816,2,0,L|144:116,1,42.5,0|0,1:0|0:0,0:0:0:0:
116,14,84978,2,0,L|132:56,1,42.5,2|0,3:2|0:0,0:0:0:0:
203,67,85140,1,0,1:0:0:0:
236,200,85302,2,0,B|252:242|252:242|296:266,1,85,10|0,3:3|1:0,0:0:0:0:
489,322,85627,5,0,3:2:0:0:
366,216,85789,1,0,1:0:0:0:
509,142,85951,1,10,3:3:0:0:
501,158,86032,1,0,0:0:0:0:
493,174,86113,2,0,L|441:182,1,42.5,0|0,1:0|0:0,0:0:0:0:
334,230,86275,1,2,3:2:0:0:
350,223,86356,1,0,0:0:0:0:
366,216,86437,2,0,L|410:243,1,42.5,0|0,1:0|0:0,0:0:0:0:
376,135,86600,1,10,3:3:0:0:
358,130,86681,1,0,0:0:0:0:
341,125,86762,2,0,L|304:72,2,42.5,0|0|0,1:0|0:0|3:2,0:0:0:0:
202,198,87086,5,0,1:0:0:0:
52,295,87248,1,10,3:3:0:0:
38,117,87410,1,0,1:0:0:0:
123,202,87573,1,2,3:2:0:0:
86,226,87654,1,0,0:0:0:0:
82,181,87735,1,0,1:0:0:0:
158,134,87897,5,10,3:3:0:0:
154,89,87978,1,0,0:0:0:0:
117,113,88059,1,0,1:0:0:0:
38,117,88222,1,0,3:2:0:0:
188,21,88384,1,0,1:0:0:0:
202,198,88546,1,10,3:3:0:0:
52,295,88708,1,0,1:0:0:0:
36,189,88870,5,2,3:2:0:0:
61,189,88951,1,0,0:0:0:0:
85,198,89032,1,0,1:0:0:0:
104,215,89113,1,0,0:0:0:0:
157,274,89194,5,10,3:3:0:0:
177,290,89275,1,0,0:0:0:0:
200,299,89356,1,0,1:0:0:0:
226,301,89437,1,0,0:0:0:0:
250,295,89519,2,0,P|288:288|352:304,1,85,4|0,3:2|1:0,0:0:0:0:
488,368,89843,5,10,3:3:0:0:
480,360,89924,1,0,0:0:0:0:
472,352,90005,2,0,L|472:296,1,42.5,0|0,1:0|0:0,0:0:0:0:
408,233,90167,1,2,3:2:0:0:
416,225,90248,1,0,0:0:0:0:
424,217,90329,2,0,L|424:161,1,42.5,0|0,1:0|0:0,0:0:0:0:
496,112,90492,1,10,3:3:0:0:
488,104,90573,1,0,0:0:0:0:
480,96,90654,2,0,L|480:40,1,42.5,0|0,1:0|0:0,0:0:0:0:
408,0,90816,5,0,3:2:0:0:
393,24,90897,1,0,0:0:0:0:
372,42,90978,1,0,1:0:0:0:
345,52,91059,1,0,0:0:0:0:
264,72,91140,5,10,3:3:0:0:
256,80,91221,1,0,0:0:0:0:
248,88,91302,2,0,L|200:80,1,42.5,0|0,1:0|0:0,0:0:0:0:
128,160,91465,1,2,3:2:0:0:
136,152,91546,1,0,0:0:0:0:
144,144,91627,2,0,L|192:152,1,42.5,0|0,1:0|0:0,0:0:0:0:
256,168,91789,1,10,3:3:0:0:
247,195,91870,1,0,0:0:0:0:
230,218,91951,1,0,1:0:0:0:
207,235,92032,1,0,0:0:0:0:
180,244,92113,1,0,3:2:0:0:
8,256,92275,5,0,1:0:0:0:
80,104,92437,1,10,3:3:0:0:
64,232,92600,1,0,1:0:0:0:
136,72,92762,1,2,3:2:0:0:
144,56,92843,1,0,0:0:0:0:
152,40,92924,1,0,1:0:0:0:
160,224,93086,1,10,3:3:0:0:
152,240,93167,1,0,0:0:0:0:
144,256,93248,1,0,1:0:0:0:
288,40,93410,5,0,3:2:0:0:
216,192,93572,1,0,1:0:0:0:
232,64,93735,1,10,3:3:0:0:
264,232,93897,1,0,1:0:0:0:
286,215,93978,1,0,0:0:0:0:
312,203,94059,1,2,3:2:0:0:
340,198,94140,1,0,0:0:0:0:
368,200,94221,1,0,1:0:0:0:
512,308,94384,1,10,3:3:0:0:
491,327,94465,1,0,0:0:0:0:
465,337,94546,1,0,1:0:0:0:
437,339,94627,1,0,0:0:0:0:
372,373,94708,5,6,3:2:0:0:
348,365,94789,1,0,0:0:0:0:
324,357,94870,1,2,1:2:0:0:
300,349,94951,1,0,0:0:0:0:
230,363,95032,5,10,3:3:0:0:
213,370,95113,1,0,0:0:0:0:
197,377,95194,2,0,L|135:372,1,42.5,0|0,1:0|0:0,0:0:0:0:
123,306,95357,1,2,3:2:0:0:
107,296,95438,1,0,0:0:0:0:
92,286,95519,2,0,L|30:281,1,42.5,0|0,1:0|0:0,0:0:0:0:
0,347,95681,1,10,3:3:0:0:
21,349,95762,1,0,0:0:0:0:
42,351,95843,1,0,1:0:0:0:
63,353,95924,1,0,0:0:0:0:
82,355,96005,2,0,B|116:357|116:357|184:308,1,85,2|2,3:2|1:2,0:0:0:0:
240,272,96330,5,10,3:3:0:0:
264,256,96411,1,0,0:0:0:0:
288,240,96492,1,0,1:0:0:0:
312,224,96573,1,0,0:0:0:0:
336,208,96654,5,2,3:2:0:0:
328,172,96735,1,0,0:0:0:0:
320,136,96816,1,0,1:0:0:0:
312,100,96897,1,0,0:0:0:0:
304,64,96978,2,0,B|346:37|346:37|394:82,1,85,10|0,3:3|1:0,0:0:0:0:
512,52,97302,5,2,3:2:0:0:
481,80,97384,1,0,0:0:0:0:
463,119,97465,1,2,1:2:0:0:
456,161,97546,1,0,0:0:0:0:
488,224,97627,5,10,3:3:0:0:
483,228,97708,1,0,0:0:0:0:
478,233,97789,1,0,1:0:0:0:
474,237,97870,1,0,0:0:0:0:
456,320,97951,5,2,3:2:0:0:
454,313,98032,1,0,0:0:0:0:
452,307,98113,1,0,1:0:0:0:
451,301,98194,1,0,0:0:0:0:
389,242,98275,5,10,3:3:0:0:
395,244,98356,1,0,0:0:0:0:
401,246,98437,1,0,1:0:0:0:
407,248,98518,1,0,0:0:0:0:
444,259,98600,6,0,B|421:282|421:282|342:303,1,85,2|2,3:2|1:2,0:0:0:0:
264,320,98924,1,10,3:3:0:0:
246,324,99005,1,0,0:0:0:0:
229,328,99086,2,0,L|185:301,1,42.5,0|0,1:0|0:0,0:0:0:0:
162,218,99248,1,2,3:2:0:0:
180,214,99329,1,0,0:0:0:0:
197,210,99410,2,0,L|240:236,1,42.5,0|0,1:0|0:0,0:0:0:0:
280,270,99573,5,10,3:3:0:0:
238,278,99654,1,2,0:0:0:0:
196,276,99735,1,2,1:2:0:0:
155,263,99816,1,2,3:2:0:0:
120,239,99897,2,0,L|90:195,3,42.5,6|0|2|0,3:2|0:0|1:2|0:0,0:0:0:0:
89,301,100221,6,0,P|47:331|-18:328,1,85,10|0,3:3|1:0,0:0:0:0:
196,197,100546,2,0,P|242:218|272:276,1,85,2|0,3:2|1:0,0:0:0:0:
56,150,100870,2,0,P|51:98|86:43,1,85,10|0,3:3|1:0,0:0:0:0:
196,197,101194,1,2,3:2:0:0:
184,222,101275,1,0,0:0:0:0:
167,244,101357,1,2,1:2:0:0:
143,261,101438,1,0,0:0:0:0:
117,270,101519,6,0,B|74:274|74:274|33:239,1,85,10|0,3:3|1:0,0:0:0:0:
200,56,101843,2,0,B|218:16|218:16|268:-1,1,85,2|0,3:2|1:0,0:0:0:0:
349,231,102167,2,0,B|373:266|373:266|364:319,1,85,10|0,3:3|1:0,0:0:0:0:
173,270,102492,5,2,3:2:0:0:
162,256,102573,1,0,0:0:0:0:
160,240,102654,1,2,1:2:0:0:
165,223,102735,1,0,0:0:0:0:
179,212,102816,1,10,3:3:0:0:
194,209,102897,1,0,0:0:0:0:
211,215,102978,1,0,1:0:0:0:
222,229,103059,1,0,0:0:0:0:
245,217,103141,5,2,3:2:0:0:
253,233,103222,1,0,0:0:0:0:
265,243,103303,1,0,1:0:0:0:
283,245,103384,1,0,0:0:0:0:
299,237,103465,1,10,3:3:0:0:
309,222,103546,1,0,0:0:0:0:
311,205,103627,1,0,1:0:0:0:
303,191,103708,1,0,0:0:0:0:
272,125,103789,5,2,3:2:0:0:
283,120,103870,1,0,0:0:0:0:
295,114,103951,1,2,1:2:0:0:
306,109,104032,1,0,0:0:0:0:
367,71,104113,5,10,3:3:0:0:
379,77,104194,1,0,0:0:0:0:
390,83,104275,1,0,1:0:0:0:
402,89,104356,1,0,0:0:0:0:
463,129,104438,5,2,3:2:0:0:
474,124,104519,1,0,0:0:0:0:
486,118,104600,1,0,3:0:0:0:
497,112,104681,1,0,0:0:0:0:
462,48,104762,5,10,3:3:0:0:
438,82,104843,1,0,0:0:0:0:
422,122,104924,1,0,3:0:0:0:
415,164,105005,1,0,0:0:0:0:
418,206,105086,5,4,3:2:0:0:
503,302,105248,1,2,0:0:0:0:
386,328,105411,1,0,0:0:0:0:
378,352,105492,1,2,0:0:0:0:
306,272,105654,1,0,0:0:0:0:
298,248,105735,1,2,0:0:0:0:
266,360,105897,1,0,0:0:0:0:
258,384,105978,1,2,0:0:0:0:
186,304,106140,1,0,0:0:0:0:
178,280,106221,2,0,L|143:192,1,85,2|0,0:0|0:0,0:0:0:0:
108,87,106546,5,2,0:0:0:0:
223,115,106708,1,0,0:0:0:0:
231,91,106789,1,2,0:0:0:0:
303,13,106951,1,0,0:0:0:0:
311,35,107032,1,2,0:0:0:0:
343,147,107194,1,0,0:0:0:0:
351,123,107275,1,2,0:0:0:0:
423,43,107438,1,0,0:0:0:0:
431,67,107519,2,0,L|461:149,1,85,2|0,0:0|0:0,0:0:0:0:
508,255,107843,5,2,0:0:0:0:
466,366,108005,1,0,0:0:0:0:
451,341,108086,1,2,0:0:0:0:
430,322,108167,1,0,0:0:0:0:
312,348,108330,1,2,0:0:0:0:
290,330,108411,1,2,0:0:0:0:
274,306,108492,1,0,0:0:0:0:
267,279,108573,1,2,0:0:0:0:
269,250,108655,2,0,B|256:232|256:232|180:212,1,85,0|2,0:0|0:0,0:0:0:0:
136,192,108897,1,0,0:0:0:0:
128,170,108978,1,0,0:0:0:0:
96,56,109140,5,2,0:0:0:0:
20,132,109302,2,0,B|41:108|41:108|133:91,1,85,0|0,0:0|0:0,0:0:0:0:
208,80,109627,1,2,0:0:0:0:
216,102,109708,1,2,0:0:0:0:
297,191,109870,1,2,0:0:0:0:
304,168,109951,2,0,B|312:144|312:144|376:112,1,85,0|2,0:0|0:0,0:0:0:0:
480,80,110275,5,4,0:0:0:0:
392,0,110438,1,2,0:0:0:0:
280,40,110600,1,0,0:0:0:0:
256,32,110681,1,2,0:0:0:0:
120,64,110843,1,0,0:0:0:0:
144,72,110924,1,2,0:0:0:0:
224,160,111086,1,0,0:0:0:0:
200,152,111167,1,2,0:0:0:0:
64,184,111329,1,0,0:0:0:0:
88,192,111411,2,0,B|91:224|91:224|42:292,1,85,2|0,0:0|0:0,0:0:0:0:
1,370,111735,5,2,0:0:0:0:
143,384,111897,1,0,0:0:0:0:
119,376,111978,1,2,0:0:0:0:
255,344,112140,1,0,0:0:0:0:
279,352,112221,1,2,0:0:0:0:
199,264,112383,1,0,0:0:0:0:
175,256,112464,1,2,0:0:0:0:
311,224,112626,1,0,0:0:0:0:
335,232,112708,2,0,B|361:239|361:239|427:198,1,85,2|0,0:0|0:0,0:0:0:0:
511,147,113032,5,2,0:0:0:0:
368,24,113194,1,0,0:0:0:0:
357,0,113275,1,2,0:0:0:0:
333,120,113438,1,0,0:0:0:0:
309,131,113519,1,2,0:0:0:0:
421,168,113681,1,0,0:0:0:0:
432,192,113762,1,2,0:0:0:0:
464,72,113924,1,0,0:0:0:0:
488,64,114005,2,0,B|464:56|464:56|400:88,1,85,2|0,0:0|0:0,0:0:0:0:
256,192,114330,5,2,0:0:0:0:
217,109,114492,1,0,0:0:0:0:
208,89,114573,1,2,0:0:0:0:
199,69,114654,1,0,0:0:0:0:
294,274,114816,1,2,0:0:0:0:
303,294,114897,1,2,0:0:0:0:
338,153,115059,1,2,0:0:0:0:
358,144,115140,1,2,0:0:0:0:
153,239,115302,1,2,0:0:0:0:
256,192,115465,5,6,0:0:0:0:
256,192,115546,12,4,125843,0:0:0:0:
