osu file format v14

[General]
AudioFilename: audio.mp3
AudioLeadIn: 0
PreviewTime: 42715
Countdown: 0
SampleSet: Drum
StackLeniency: 0.4
Mode: 0
LetterboxInBreaks: 0
WidescreenStoryboard: 1

[Editor]
Bookmarks: 11681,22059,32438,53194,63573,73951,84330,94708,105086,115465,125843
DistanceSpacing: 1.3
BeatDivisor: 4
GridSize: 4
TimelineZoom: 1.3

[Metadata]
Title:Todestrieb
TitleUnicode:Todestrieb
Artist:Rche
ArtistUnicode:Rche
Creator:FrenZ396
Version:Dementation's Extra
Source:beatmania IIDX 19 Lincle
Tags:bemani konami reflec beat groovin'!! upper tomosuke funaki zektbach 傲慢 傲慢ちゃん entelecheia pendual sacred trance piano calm instrumental dementation
BeatmapID:2031188
BeatmapSetID:968678

[Difficulty]
HPDrainRate:5
CircleSize:3.3
OverallDifficulty:9
ApproachRate:9.3
SliderMultiplier:1.9
SliderTickRate:1

[Events]
//Background and Video events
0,0,"landscape.jpg",0,0
//Break Periods
2,64870,73397
//Storyboard Layer 0 (Background)
//Storyboard Layer 1 (Fail)
//Storyboard Layer 2 (Pass)
//Storyboard Layer 3 (Foreground)
//Storyboard Layer 4 (Overlay)
//Storyboard Sound Samples

[TimingPoints]
1303,324.324324324324,4,2,2,50,1,0
1303,-333.333333333333,4,2,2,50,0,0
11681,-200,4,2,2,55,0,0
21411,-166.666666666667,4,2,2,55,0,0
21735,-142.857142857143,4,2,2,55,0,0
22059,-142.857142857143,4,3,2,60,0,0
31140,-100,4,3,1,65,0,0
32438,-166.666666666667,4,2,2,45,0,0
37627,-166.666666666667,4,3,2,55,0,0
38924,-166.666666666667,4,3,2,60,0,0
39573,-125,4,3,2,60,0,0
40221,-100,4,3,2,65,0,0
41519,-76.9230769230769,4,3,2,70,0,0
42816,-66.6666666666667,4,3,2,80,0,1
53194,-66.6666666666667,4,3,2,80,0,1
60978,-66.6666666666667,4,3,2,85,0,1
62275,-66.6666666666667,4,3,2,90,0,1
63573,-66.6666666666667,4,3,2,90,0,0
73951,-250,4,2,2,50,0,0
81735,-153.846153846154,4,2,2,65,0,0
83032,-153.846153846154,4,3,2,45,0,0
84330,-83.3333333333333,4,3,2,75,0,0
94708,-111.111111111111,4,3,2,65,0,0
95032,-76.9230769230769,4,3,2,65,0,0
95357,-111.111111111111,4,3,2,65,0,0
95762,-200,4,3,2,65,0,0
96005,-111.111111111111,4,3,2,65,0,0
96330,-76.9230769230769,4,3,2,65,0,0
96654,-111.111111111111,4,3,2,65,0,0
97059,-76.9230769230769,4,3,2,65,0,0
97302,-111.111111111111,4,3,2,65,0,0
97951,-76.9230769230769,4,3,2,65,0,0
98275,-58.8235294117647,4,3,2,65,0,0
98600,-111.111111111111,4,3,2,65,0,0
98924,-76.9230769230769,4,3,2,65,0,0
99248,-111.111111111111,4,3,2,65,0,0
99573,-200,4,3,2,65,0,0
100221,-76.9230769230769,4,3,2,65,0,0
100546,-111.111111111111,4,3,2,65,0,0
100870,-200,4,3,2,65,0,0
101519,-76.9230769230769,4,3,2,65,0,0
101843,-111.111111111111,4,3,2,65,0,0
102167,-76.9230769230769,4,3,2,65,0,0
102492,-76.9230769230769,4,3,2,73,0,0
103789,-66.6666666666667,4,3,1,81,0,0
105086,-58.8235294117647,4,3,2,90,0,1
114167,-58.8235294117647,4,3,1,95,0,1
115465,-58.8235294117647,4,3,1,95,0,0
116762,-58.8235294117647,4,3,1,88,0,0
118059,-58.8235294117647,4,3,1,81,0,0
119357,-58.8235294117647,4,3,1,74,0,0
120654,-58.8235294117647,4,3,1,67,0,0
121951,-58.8235294117647,4,3,1,60,0,0
123248,-58.8235294117647,4,3,1,53,0,0
124546,-58.8235294117647,4,3,1,46,0,0
125843,-58.8235294117647,4,3,1,60,0,0

[Colours]
Combo1 : 89,1,126
Combo2 : 11,146,244
Combo3 : 43,43,255
Combo4 : 179,37,254

[HitObjects]
0,384,1303,5,6,0:0:0:0:
222,273,1789,6,0,P|259:280|307:292,2,85.4999973907472,2|2|2,0:0|0:0|0:0,0:0:0:0:
164,343,3249,1,2,0:0:0:0:
164,343,3573,1,2,0:0:0:0:
65,263,3897,6,0,P|55:209|49:172,1,85.4999973907472,2|2,0:0|0:0,0:0:0:0:
140,149,4870,2,0,P|148:107|155:64,1,85.4999973907472,2|2,0:0|0:0,0:0:0:0:
90,4,5843,1,2,0:0:0:0:
90,4,6168,1,2,0:0:0:0:
236,36,6492,6,0,P|282:30|322:23,1,85.4999973907472,2|2,0:0|0:0,0:0:0:0:
356,117,7465,2,0,P|402:123|442:130,1,85.4999973907472,2|2,0:0|0:0,0:0:0:0:
503,201,8438,1,2,0:0:0:0:
503,201,8762,1,2,0:0:0:0:
360,214,9086,6,0,P|350:160|344:123,1,85.4999973907472,2|2,0:0|0:0,0:0:0:0:
243,63,10059,2,0,P|237:101|228:147,1,85.4999973907472,2|2,0:0|0:0,0:0:0:0:
149,90,11032,1,2,0:0:0:0:
149,90,11357,1,2,0:0:0:0:
203,302,11681,6,0,P|250:301|295:337,1,95,6|2,0:0|0:0,0:0:0:0:
227,380,12167,1,2,0:0:0:0:
437,204,12654,6,0,L|432:252,1,47.5,2|0,0:0|0:0,0:0:0:0:
355,194,12978,1,2,0:0:0:0:
355,194,13140,2,0,P|410:176|446:139,1,95,2|2,0:0|0:0,0:0:0:0:
456,73,13627,2,0,L|451:24,1,47.5,2|0,0:0|0:0,0:0:0:0:
361,97,13951,2,0,L|365:48,1,47.5,2|0,0:0|0:0,0:0:0:0:
169,12,14275,6,0,P|196:50|237:73,1,95,2|2,0:0|0:0,0:0:0:0:
133,124,14762,2,0,P|93:148|65:186,1,95,2|2,0:0|0:0,0:0:0:0:
55,280,15248,2,0,L|109:275,1,47.5,2|0,0:0|0:0,0:0:0:0:
118,284,15573,1,2,0:0:0:0:
192,332,15735,2,0,L|303:341,1,95,2|2,0:0|0:0,0:0:0:0:
392,260,16221,2,0,P|363:263|341:275,1,47.5,2|0,0:0|0:0,0:0:0:0:
439,355,16546,2,0,P|412:343|387:342,1,47.5,2|0,0:0|0:0,0:0:0:0:
502,247,16870,6,0,P|472:210|459:164,1,95,6|2,0:0|0:0,0:0:0:0:
472,78,17357,2,0,L|528:73,2,47.5,2|0|2,0:0|0:0|0:0,0:0:0:0:
381,45,17843,1,2,0:0:0:0:
381,45,18005,2,0,L|317:39,1,47.5,0|2,0:0|0:0,0:0:0:0:
183,155,18330,2,0,P|227:138|261:105,1,95,2|2,0:0|0:0,0:0:0:0:
113,19,18816,2,0,L|107:78,1,47.5,2|0,0:0|0:0,0:0:0:0:
29,7,19140,2,0,L|23:66,1,47.5,2|0,0:0|0:0,0:0:0:0:
125,235,19465,6,0,P|91:202|47:185,1,95,2|2,0:0|0:0,0:0:0:0:
0,295,19951,2,0,P|33:282|47:264,2,47.5,2|0|2,0:0|0:0|0:0,0:0:0:0:
84,348,20438,2,0,P|111:351|139:356,1,47.5,2|0,0:0|0:0,0:0:0:0:
241,335,20762,1,2,0:0:0:0:
241,335,20924,1,2,0:0:0:0:
241,335,21086,6,0,L|236:281,1,47.5,0|2,0:0|0:0,0:0:0:0:
288,151,21411,2,0,L|282:217,1,56.9999982604981,2|0,0:0|0:0,0:0:0:0:
333,365,21735,2,0,L|325:284,1,66.4999979705811,2|0,0:0|0:0,0:0:0:0:
389,123,22059,5,4,2:0:0:0:
408,124,22384,1,2,0:0:0:0:
426,126,22708,1,2,0:0:0:0:
499,177,23032,1,2,0:0:0:0:
313,375,23357,5,2,0:0:0:0:
308,362,23681,1,2,0:0:0:0:
420,287,24005,1,2,0:0:0:0:
415,301,24329,1,2,0:0:0:0:
123,155,24654,5,2,0:0:0:0:
156,127,24979,1,2,0:0:0:0:
200,135,25303,1,2,0:0:0:0:
320,65,25627,1,2,0:0:0:0:
205,280,25952,5,2,0:0:0:0:
211,266,26276,1,2,0:0:0:0:
117,359,26600,1,2,0:0:0:0:
112,345,26924,1,2,0:0:0:0:
253,5,27248,5,6,2:0:0:0:
338,29,27573,1,2,0:0:0:0:
359,115,27897,1,2,0:0:0:0:
512,226,28221,1,2,0:0:0:0:
278,384,28546,5,2,0:0:0:0:
287,357,28870,1,2,0:0:0:0:
171,239,29194,1,2,0:0:0:0:
180,266,29518,1,2,0:0:0:0:
509,66,29843,5,2,0:0:0:0:
385,11,30167,1,2,0:0:0:0:
293,110,30492,1,2,0:0:0:0:
16,198,30816,1,2,0:0:0:0:
113,368,31140,6,0,P|118:310|128:266,1,95,4|2,2:0|0:0,0:0:0:0:
289,115,31465,2,0,P|301:161|308:208,1,95,4|0,2:0|0:0,0:0:0:0:
191,148,31789,5,6,2:0:0:0:
201,166,31870,1,2,0:0:0:0:
160,158,31951,1,2,0:0:0:0:
157,115,32032,1,2,0:0:0:0:
186,74,32113,1,6,2:0:0:0:
238,70,32194,1,2,0:0:0:0:
280,106,32275,1,2,0:0:0:0:
332,96,32357,1,2,0:0:0:0:
399,136,32438,5,4,2:0:0:0:
402,141,32519,1,0,0:0:0:0:
405,146,32600,2,0,L|401:178,5,28.4999991302491,0|0|0|0|0|0,0:0|0:0|0:0|0:0|0:0|0:0,0:0:0:0:
321,281,33086,5,0,0:0:0:0:
328,266,33167,1,0,0:0:0:0:
348,255,33248,1,0,0:0:0:0:
365,256,33330,1,0,0:0:0:0:
369,265,33411,1,0,0:0:0:0:
365,273,33492,1,0,0:0:0:0:
359,273,33573,1,0,0:0:0:0:
355,269,33654,1,0,0:0:0:0:
369,265,33735,6,0,P|390:271|410:282,7,28.4999991302491,2|0|0|0|0|0|0|0,2:0|0:0|0:0|0:0|0:0|0:0|0:0|0:0,0:0:0:0:
303,200,34384,2,0,P|281:206|261:217,7,28.4999991302491,0|0|0|0|0|0|0|0,0:0|0:0|0:0|0:0|0:0|0:0|0:0|0:0,0:0:0:0:
237,319,35032,5,2,2:0:0:0:
230,320,35113,1,0,0:0:0:0:
227,330,35194,2,0,P|232:352|243:366,1,28.4999991302491,0|0,0:0|0:0,0:0:0:0:
132,317,35357,1,0,0:0:0:0:
150,291,35438,1,0,0:0:0:0:
147,264,35519,1,0,0:0:0:0:
136,249,35600,1,0,0:0:0:0:
122,248,35681,2,0,P|103:253|83:264,7,28.4999991302491
161,152,36330,6,0,L|156:100,3,28.4999991302491,2|0|0|0,2:0|0:0|0:0|0:0,0:0:0:0:
179,172,36654,1,0,0:0:0:0:
206,181,36735,1,0,0:0:0:0:
229,178,36816,1,0,0:0:0:0:
242,173,36897,1,0,0:0:0:0:
250,166,36978,2,0,L|254:114,7,28.4999991302491,0|0|0|0|0|0|0|0,0:0|0:0|0:0|0:0|0:0|0:0|0:0|0:0,0:0:0:0:
366,69,37627,6,0,L|368:97,7,28.4999991302491,2|0|0|0|2|0|0|0,0:0|0:0|0:0|0:0|0:0|0:0|0:0|0:0,0:0:0:0:
360,202,38276,5,2,0:0:0:0:
362,201,38357,1,0,0:0:0:0:
359,199,38438,1,0,0:0:0:0:
357,201,38519,1,0,0:0:0:0:
362,206,38600,1,2,0:0:0:0:
366,197,38681,1,0,0:0:0:0:
354,192,38762,1,0,0:0:0:0:
350,202,38843,1,0,0:0:0:0:
391,211,38924,5,2,0:0:0:0:
393,199,39005,1,0,0:0:0:0:
388,180,39086,1,2,0:0:0:0:
377,167,39167,1,0,0:0:0:0:
351,165,39248,1,2,0:0:0:0:
319,175,39330,1,0,0:0:0:0:
309,210,39411,1,2,0:0:0:0:
334,244,39492,1,0,0:0:0:0:
341,282,39573,6,0,P|339:305|325:329,7,38,2|0|2|0|2|0|2|0,0:0|0:0|0:0|0:0|0:0|0:0|0:0|0:0,0:0:0:0:
197,331,40221,5,2,0:0:0:0:
218,326,40302,1,2,0:0:0:0:
237,338,40384,2,0,P|252:358|254:384,1,47.5,2|2,0:0|0:0,0:0:0:0:
76,228,40546,5,2,0:0:0:0:
83,218,40627,1,2,0:0:0:0:
100,221,40708,1,2,0:0:0:0:
111,235,40789,1,2,0:0:0:0:
103,256,40870,1,2,0:0:0:0:
79,261,40951,1,2,0:0:0:0:
59,241,41032,1,2,0:0:0:0:
62,213,41113,1,2,0:0:0:0:
77,193,41194,1,2,0:0:0:0:
105,189,41275,1,2,0:0:0:0:
134,200,41357,1,2,0:0:0:0:
147,230,41438,1,2,0:0:0:0:
145,268,41519,6,0,P|129:299|100:313,1,61.7499971733095,6|2,0:0|0:0,0:0:0:0:
232,197,41681,5,2,0:0:0:0:
256,203,41762,1,2,0:0:0:0:
277,223,41843,2,0,P|298:256|296:292,3,61.7499971733095,6|2|2|2,0:0|0:0|0:0|0:0,0:0:0:0:
194,88,42167,5,6,0:0:0:0:
189,98,42248,1,2,0:0:0:0:
200,114,42330,1,2,0:0:0:0:
227,108,42411,1,2,0:0:0:0:
239,76,42492,5,6,0:0:0:0:
189,69,42573,1,2,0:0:0:0:
128,90,42654,1,2,0:0:0:0:
91,132,42735,1,2,0:0:0:0:
77,193,42816,5,4,2:0:0:0:
171,319,42978,1,2,2:0:0:0:
181,315,43059,1,0,0:0:0:0:
184,308,43140,2,0,P|113:320|90:392,1,142.500005435944,10|0,2:0|0:0,0:0:0:0:
280,223,43465,6,0,P|358:194|418:181,1,142.500005435944,2|0,0:0|0:0,0:0:0:0:
511,271,43708,2,0,P|433:242|373:229,1,142.500005435944,2|0,2:0|0:0,0:0:0:0:
322,305,43951,2,0,P|367:289|412:281,1,71.2500027179719,2|0,2:0|0:0,0:0:0:0:
350,13,44113,6,0,P|346:77|258:122,1,142.500005435944,6|2,0:0|2:0,0:0:0:0:
176,114,44357,1,0,0:0:0:0:
168,106,44438,2,0,P|264:121|254:251,1,213.750008153916,10|0,2:0|0:0,0:0:0:0:
163,384,44762,6,0,P|134:306|121:246,1,142.500005435944,2|0,0:0|0:0,0:0:0:0:
36,257,45005,2,0,P|52:187|77:121,1,142.500005435944,2|0,2:0|0:0,0:0:0:0:
5,78,45248,2,0,P|36:41|71:12,1,71.2500027179719,2|0,2:0|0:0,0:0:0:0:
328,166,45411,6,0,P|309:106|221:54,2,142.500005435944,6|2|10,0:0|2:0|2:0,0:0:0:0:
295,384,45897,1,0,0:0:0:0:
286,378,45978,1,0,0:0:0:0:
284,370,46059,6,0,P|350:344|419:328,1,142.500005435944,2|0,0:0|0:0,0:0:0:0:
512,328,46302,2,0,P|445:302|376:286,1,142.500005435944,2|0,2:0|0:0,0:0:0:0:
281,284,46545,2,0,P|314:271|348:262,1,71.2500027179719,2|0,2:0|0:0,0:0:0:0:
147,9,46708,6,0,P|151:73|239:118,1,142.500005435944,6|2,0:0|2:0,0:0:0:0:
321,110,46952,1,0,0:0:0:0:
329,102,47033,2,0,P|233:117|243:247,1,213.750008153916,10|0,2:0|0:0,0:0:0:0:
355,381,47357,6,0,P|384:303|397:243,1,142.500005435944,2|0,0:0|0:0,0:0:0:0:
482,254,47600,2,0,P|466:184|441:118,1,142.500005435944,2|0,2:0|0:0,0:0:0:0:
465,22,47843,2,0,P|490:46|512:74,1,71.2500027179719,2|0,2:0|0:0,0:0:0:0:
190,126,48005,6,0,P|225:88|251:79,1,71.2500027179719,6|0,0:0|0:0,0:0:0:0:
204,230,48167,1,2,2:0:0:0:
214,229,48248,1,0,0:0:0:0:
217,218,48330,2,0,P|174:164|105:162,1,142.500005435944,10|0,2:0|0:0,0:0:0:0:
512,302,48654,6,0,P|434:273|374:260,1,142.500005435944,2|0,0:0|0:0,0:0:0:0:
281,350,48897,2,0,P|359:321|419:308,1,142.500005435944,2|0,2:0|0:0,0:0:0:0:
470,384,49140,2,0,P|425:368|380:360,1,71.2500027179719,2|0,2:0|0:0,0:0:0:0:
292,105,49302,6,0,P|348:145|355:214,1,142.500005435944,6|2,0:0|2:0,0:0:0:0:
267,14,49546,1,0,0:0:0:0:
284,4,49627,2,0,P|271:103|173:121,1,213.750008153916,10|0,2:0|0:0,0:0:0:0:
30,11,49951,6,0,P|59:89|72:149,1,142.500005435944,2|0,0:0|0:0,0:0:0:0:
157,138,50194,2,0,P|141:208|116:274,1,142.500005435944,2|0,2:0|0:0,0:0:0:0:
188,317,50437,2,0,P|157:354|122:383,1,71.2500027179719,2|0,2:0|0:0,0:0:0:0:
392,183,50600,6,0,P|356:181|290:94,2,142.500005435944,6|2|10,0:0|2:0|2:0,0:0:0:0:
290,384,51086,1,0,0:0:0:0:
281,378,51167,1,0,0:0:0:0:
279,370,51248,6,0,P|345:344|414:328,1,142.500005435944,2|0,0:0|0:0,0:0:0:0:
507,328,51491,2,0,P|440:302|371:286,1,142.500005435944,2|0,2:0|0:0,0:0:0:0:
276,284,51734,2,0,P|309:271|343:262,1,71.2500027179719,2|0,2:0|0:0,0:0:0:0:
220,105,51897,6,0,P|164:145|157:214,1,142.500005435944,6|2,0:0|2:0,0:0:0:0:
245,14,52141,1,0,0:0:0:0:
228,4,52222,2,0,P|241:103|339:121,1,213.750008153916,10|0,2:0|0:0,0:0:0:0:
482,11,52546,6,0,P|453:89|440:149,1,142.500005435944,2|0,0:0|0:0,0:0:0:0:
348,141,52789,1,2,2:0:0:0:
339,120,52870,1,10,0:0:0:0:
262,287,53032,1,2,2:0:0:0:
239,335,53113,1,0,0:0:0:0:
268,321,53194,5,4,2:0:0:0:
135,191,53356,1,2,2:0:0:0:
145,187,53437,1,0,0:0:0:0:
147,180,53518,2,0,P|76:192|53:264,1,142.500005435944,10|0,2:0|0:0,0:0:0:0:
504,63,53843,6,0,P|426:34|366:21,1,142.500005435944,2|0,0:0|0:0,0:0:0:0:
274,111,54086,2,0,P|352:82|412:69,1,142.500005435944,2|0,2:0|0:0,0:0:0:0:
462,145,54329,2,0,P|417:129|372:121,1,71.2500027179719,2|0,2:0|0:0,0:0:0:0:
389,378,54491,6,0,P|325:374|279:286,1,142.500005435944,6|2,0:0|2:0,0:0:0:0:
277,198,54735,1,0,0:0:0:0:
288,202,54816,2,0,P|273:297|143:288,1,213.750008153916,10|0,2:0|0:0,0:0:0:0:
4,67,55140,6,0,P|87:74|147:88,1,142.500005435944,2|0,0:0|0:0,0:0:0:0:
172,7,55383,2,0,P|229:51|278:101,1,142.500005435944,2|0,2:0|0:0,0:0:0:0:
348,53,55626,2,0,P|369:97|380:141,1,71.2500027179719,2|0,2:0|0:0,0:0:0:0:
81,353,55789,6,0,P|135:315|154:224,2,142.500005435944,6|2|10,0:0|2:0|2:0,0:0:0:0:
477,260,56275,1,0,0:0:0:0:
486,266,56356,1,0,0:0:0:0:
488,274,56437,6,0,P|422:300|353:316,1,142.500005435944,2|0,0:0|0:0,0:0:0:0:
260,316,56680,2,0,P|327:342|396:358,1,142.500005435944,2|0,2:0|0:0,0:0:0:0:
491,360,56923,2,0,P|458:373|424:382,1,71.2500027179719,2|0,2:0|0:0,0:0:0:0:
389,6,57086,6,0,P|325:10|279:97,1,142.500005435944,6|2,0:0|2:0,0:0:0:0:
277,186,57330,1,0,0:0:0:0:
288,182,57411,2,0,P|273:86|143:96,1,213.750008153916,10|0,2:0|0:0,0:0:0:0:
2,315,57735,6,0,P|85:308|145:295,1,142.500005435944,2|0,0:0|0:0,0:0:0:0:
170,376,57978,2,0,P|227:332|276:281,1,142.500005435944,2|0,2:0|0:0,0:0:0:0:
373,263,58221,2,0,P|362:297|346:329,1,71.2500027179719,2|0,2:0|0:0,0:0:0:0:
160,100,58384,6,0,P|162:129|204:155,1,71.2500027179719,6|0,0:0|0:0,0:0:0:0:
90,67,58546,1,2,2:0:0:0:
85,76,58627,1,0,0:0:0:0:
92,84,58709,2,0,P|160:73|196:14,1,142.500005435944,10|0,2:0|0:0,0:0:0:0:
512,133,59033,6,0,P|434:104|374:91,1,142.500005435944,2|0,0:0|0:0,0:0:0:0:
281,181,59276,2,0,P|359:152|419:139,1,142.500005435944,2|0,2:0|0:0,0:0:0:0:
470,215,59519,2,0,P|425:199|380:191,1,71.2500027179719,2|0,2:0|0:0,0:0:0:0:
137,267,59681,6,0,P|143:335|199:376,1,142.500005435944,6|2,0:0|2:0,0:0:0:0:
51,207,59925,1,0,0:0:0:0:
43,224,60006,2,0,P|141:237|184:147,1,213.750008153916,10|0,2:0|0:0,0:0:0:0:
508,158,60330,6,0,P|430:129|370:116,1,142.500005435944,2|0,0:0|0:0,0:0:0:0:
381,31,60573,2,0,P|311:47|245:72,1,142.500005435944,2|0,2:0|0:0,0:0:0:0:
202,0,60816,2,0,P|165:31|136:66,1,71.2500027179719,2|0,2:0|0:0,0:0:0:0:
43,224,60978,5,2,0:0:0:0:
53,230,61059,1,2,0:0:0:0:
59,238,61140,2,0,P|67:278|69:323,1,71.2500027179719,2|2,0:0|0:0,0:0:0:0:
201,275,61302,5,10,0:0:0:0:
196,268,61384,1,2,0:0:0:0:
182,263,61465,1,2,0:0:0:0:
156,265,61546,1,2,0:0:0:0:
142,283,61627,1,2,0:0:0:0:
144,317,61708,1,2,0:0:0:0:
175,331,61789,1,2,0:0:0:0:
213,316,61870,1,2,0:0:0:0:
227,281,61951,1,10,0:0:0:0:
245,239,62032,1,2,0:0:0:0:
286,219,62113,1,2,0:0:0:0:
334,232,62194,1,2,0:0:0:0:
349,286,62275,6,0,P|370:251|403:213,3,71.2500027179719,2|2|2|2,0:0|0:0|0:0|0:0,0:0:0:0:
265,78,62600,2,0,P|286:113|319:151,3,71.2500027179719,10|2|2|2,0:0|0:0|0:0|0:0,0:0:0:0:
472,93,62924,5,2,0:0:0:0:
449,95,63005,1,2,0:0:0:0:
422,111,63086,1,2,0:0:0:0:
402,142,63167,1,2,0:0:0:0:
406,187,63248,1,10,0:0:0:0:
434,217,63330,1,2,0:0:0:0:
466,254,63411,1,2,0:0:0:0:
477,310,63492,1,2,0:0:0:0:
419,367,63573,5,6,2:0:0:0:
86,335,73951,5,4,0:0:0:0:
86,335,74275,5,2,2:0:0:0:
104,340,74384,1,0,0:0:0:0:
114,330,74492,1,0,0:0:0:0:
122,279,74600,5,2,2:0:0:0:
163,357,74762,1,0,0:0:0:0:
242,373,74924,1,2,2:0:0:0:
394,249,75248,5,4,3:0:0:0:
394,249,75572,5,2,2:0:0:0:
374,255,75681,1,0,0:0:0:0:
363,244,75789,1,0,0:0:0:0:
355,190,75897,5,2,2:0:0:0:
311,273,76059,1,0,0:0:0:0:
227,290,76221,1,2,2:0:0:0:
13,154,76546,5,4,3:0:0:0:
13,154,76870,5,2,2:0:0:0:
34,160,76979,1,0,0:0:0:0:
46,148,77087,1,0,0:0:0:0:
54,90,77195,5,2,2:0:0:0:
101,179,77357,1,0,0:0:0:0:
191,197,77519,1,2,2:0:0:0:
439,68,77843,5,4,3:0:0:0:
439,68,78167,5,2,2:0:0:0:
416,74,78276,1,0,0:0:0:0:
404,62,78384,1,0,0:0:0:0:
396,2,78492,5,2,2:0:0:0:
347,94,78654,1,0,0:0:0:0:
254,113,78816,1,2,2:0:0:0:
130,382,79140,5,4,3:0:0:0:
130,382,79465,5,2,2:0:0:0:
110,369,79573,1,0,0:0:0:0:
108,339,79681,1,0,0:0:0:0:
78,315,79789,5,2,2:0:0:0:
118,241,79951,1,0,0:0:0:0:
128,156,80113,1,2,2:0:0:0:
351,230,80438,5,4,3:0:0:0:
351,230,80763,5,2,2:0:0:0:
371,217,80871,1,0,0:0:0:0:
373,187,80979,1,0,0:0:0:0:
403,163,81087,5,2,2:0:0:0:
363,89,81249,1,0,0:0:0:0:
353,4,81411,1,2,2:0:0:0:
137,370,81735,5,4,3:0:0:0:
129,360,81816,1,0,0:0:0:0:
133,342,81897,1,0,0:0:0:0:
156,337,81978,1,0,0:0:0:0:
187,354,82059,2,0,P|204:360|232:359,3,30.8749985866547,2|0|0|0,2:0|0:0|0:0|0:0,0:0:0:0:
300,283,82384,5,2,2:0:0:0:
286,304,82465,1,0,0:0:0:0:
298,339,82546,1,0,0:0:0:0:
345,347,82627,1,0,0:0:0:0:
390,326,82708,2,0,P|384:343|385:371,3,30.8749985866547,2|0|0|0,2:0|0:0|0:0|0:0,0:0:0:0:
372,247,83032,6,0,L|369:219,28,15.4374992933274,4|0|0|0|0|0|0|0|0|0|0|0|0|0|0|0|0|0|0|0|0|0|0|0|0|0|0|0|0,0:0|0:0|0:0|0:0|0:0|0:0|0:0|0:0|0:0|0:0|0:0|0:0|0:0|0:0|0:0|0:0|0:0|0:0|0:0|0:0|0:0|0:0|0:0|0:0|0:0|0:0|0:0|0:0|0:0,0:0:0:0:
454,365,84330,6,0,P|423:259|375:217,1,170.999994781494,4|0,2:0|0:0,0:0:0:0:
189,188,84654,5,8,0:0:0:0:
211,225,84735,1,0,0:0:0:0:
263,241,84816,1,0,0:0:0:0:
218,198,84978,5,2,2:0:0:0:
229,216,85059,1,2,2:0:0:0:
255,224,85140,1,2,2:0:0:0:
259,191,85302,5,2,2:0:0:0:
259,191,85383,1,2,2:0:0:0:
259,191,85464,1,2,2:0:0:0:
119,247,85627,6,0,P|106:333|114:377,1,113.999996520996,6|0,0:0|0:0,0:0:0:0:
172,54,85951,5,8,0:0:0:0:
118,60,86032,1,0,0:0:0:0:
89,93,86113,1,0,0:0:0:0:
161,69,86275,5,2,2:0:0:0:
134,72,86356,1,2,2:0:0:0:
120,88,86437,1,2,2:0:0:0:
172,54,86600,5,2,2:0:0:0:
118,60,86681,1,2,2:0:0:0:
89,93,86762,1,2,2:0:0:0:
352,148,86924,6,0,P|370:94|372:37,1,113.999996520996,6|0,0:0|0:0,0:0:0:0:
356,298,87249,5,8,0:0:0:0:
370,314,87330,1,0,0:0:0:0:
397,317,87411,1,0,0:0:0:0:
334,298,87573,5,2,2:0:0:0:
360,327,87654,1,2,2:0:0:0:
408,332,87735,1,2,2:0:0:0:
310,297,87897,5,2,2:0:0:0:
348,341,87978,1,2,2:0:0:0:
420,348,88059,1,2,2:0:0:0:
212,152,88221,6,0,P|161:177|119:216,1,113.999996520996,6|0,0:0|0:0,0:0:0:0:
457,136,88546,5,8,0:0:0:0:
467,94,88627,1,0,0:0:0:0:
442,46,88708,1,0,0:0:0:0:
443,108,88870,5,2,0:0:0:0:
448,87,88951,1,0,0:0:0:0:
435,63,89032,1,0,0:0:0:0:
426,100,89194,5,8,0:0:0:0:
429,90,89275,1,0,0:0:0:0:
422,78,89356,1,2,2:0:0:0:
268,173,89519,6,0,P|302:252|306:297,1,113.999996520996,6|0,0:0|0:0,0:0:0:0:
112,75,89843,5,8,0:0:0:0:
134,38,89924,1,0,0:0:0:0:
186,22,90005,1,0,0:0:0:0:
141,65,90167,5,2,2:0:0:0:
152,47,90248,1,2,2:0:0:0:
178,39,90329,1,2,2:0:0:0:
182,72,90491,5,2,2:0:0:0:
182,72,90572,1,2,2:0:0:0:
182,72,90653,1,2,2:0:0:0:
29,289,90816,6,0,P|25:232|38:176,1,113.999996520996,6|0,0:0|0:0,0:0:0:0:
254,370,91140,5,8,0:0:0:0:
200,364,91221,1,0,0:0:0:0:
171,331,91302,1,0,0:0:0:0:
243,355,91464,5,2,2:0:0:0:
216,352,91545,1,2,2:0:0:0:
202,336,91626,1,2,2:0:0:0:
254,370,91789,5,2,2:0:0:0:
200,364,91870,1,2,2:0:0:0:
171,331,91951,1,2,2:0:0:0:
289,51,92113,6,0,P|250:92|224:143,1,113.999996520996,6|0,0:0|0:0,0:0:0:0:
432,324,92438,5,8,0:0:0:0:
453,325,92519,1,0,0:0:0:0:
474,308,92600,1,0,0:0:0:0:
416,339,92762,5,2,2:0:0:0:
455,341,92843,1,2,2:0:0:0:
492,311,92924,1,2,2:0:0:0:
398,355,93086,5,2,2:0:0:0:
456,360,93167,1,2,2:0:0:0:
512,314,93248,1,2,2:0:0:0:
346,147,93410,6,0,P|327:200|325:258,1,113.999996520996,6|0,0:0|0:0,0:0:0:0:
512,109,93735,5,8,0:0:0:0:
500,58,93816,1,0,0:0:0:0:
464,35,93897,1,0,0:0:0:0:
500,102,94059,5,2,0:0:0:0:
492,76,94140,1,0,0:0:0:0:
474,65,94221,1,2,0:0:0:0:
480,101,94383,5,10,0:0:0:0:
476,87,94464,1,0,0:0:0:0:
467,82,94545,1,2,2:0:0:0:
437,75,94627,1,2,2:0:0:0:
389,82,94708,6,0,P|327:98|271:61,1,128.249996086121,6|0,0:0|0:0,0:0:0:0:
229,5,95032,2,0,P|220:93|214:193,1,185.249991519928,10|0,2:0|0:0,0:0:0:0:
178,263,95357,2,0,P|173:198|166:135,1,128.249996086121,2|0,0:0|0:0,0:0:0:0:
98,52,95681,1,10,2:0:0:0:
114,64,95762,2,0,P|118:85|120:110,1,47.5,0|0,0:0|0:0,0:0:0:0:
82,281,96005,6,0,P|146:281|191:332,1,128.249996086121,6|0,0:0|0:0,0:0:0:0:
272,384,96330,2,0,P|277:290|287:198,1,185.249991519928,10|0,2:0|0:0,0:0:0:0:
316,125,96654,2,0,P|322:190|326:256,1,128.249996086121,2|0,0:0|0:0,0:0:0:0:
397,346,96978,1,10,2:0:0:0:
382,366,97059,2,0,P|376:341|358:228,1,123.499994346619,0|0,0:0|0:0,0:0:0:0:
464,57,97302,6,0,P|481:118|427:172,1,128.249996086121,6|0,0:0|0:0,0:0:0:0:
166,75,97627,2,0,P|238:51|290:-7,1,128.249996086121,10|0,2:0|0:0,0:0:0:0:
92,52,97951,2,0,P|173:105|263:138,1,185.249991519928,2|0,0:0|0:0,0:0:0:0:
38,1,98275,2,0,P|75:94|104:241,1,242.250004620552,10|0,2:0|0:0,0:0:0:0:
157,342,98600,6,0,P|129:283|170:231,1,128.249996086121,6|0,0:0|0:0,0:0:0:0:
457,195,98924,2,0,P|369:186|271:179,1,185.249991519928,10|0,2:0|0:0,0:0:0:0:
194,152,99249,2,0,P|259:147|322:140,1,128.249996086121,2|0,0:0|0:0,0:0:0:0:
404,77,99573,1,10,2:0:0:0:
390,92,99654,1,0,0:0:0:0:
340,98,99735,1,0,0:0:0:0:
295,63,99816,1,0,0:0:0:0:
291,0,99897,5,6,0:0:0:0:
238,6,99978,1,0,0:0:0:0:
212,25,100059,1,0,0:0:0:0:
199,40,100140,1,0,0:0:0:0:
187,62,100221,2,0,P|178:150|174:250,1,185.249991519928,10|0,2:0|0:0,0:0:0:0:
223,347,100546,2,0,P|218:282|211:219,1,128.249996086121,2|0,0:0|0:0,0:0:0:0:
279,149,100870,1,10,2:0:0:0:
263,161,100951,2,0,P|259:182|257:207,1,47.5,0|0,0:0|0:0,0:0:0:0:
472,133,101194,5,6,0:0:0:0:
508,95,101275,1,0,0:0:0:0:
512,58,101357,1,0,0:0:0:0:
507,31,101438,1,0,0:0:0:0:
497,15,101519,2,0,P|403:20|311:30,1,185.249991519928,10|0,2:0|0:0,0:0:0:0:
236,63,101843,2,0,P|301:69|367:73,1,128.249996086121,2|0,0:0|0:0,0:0:0:0:
452,148,102167,1,10,2:0:0:0:
472,133,102248,2,0,P|447:127|334:109,1,123.499994346619,0|0,0:0|0:0,0:0:0:0:
156,167,102492,5,2,0:0:0:0:
150,174,102573,1,2,0:0:0:0:
145,189,102654,1,2,0:0:0:0:
148,209,102735,1,2,0:0:0:0:
165,227,102816,2,0,P|190:255|192:301,3,61.7499971733095,10|2|2|2,0:0|0:0|0:0|0:0,0:0:0:0:
331,219,103140,5,2,0:0:0:0:
324,206,103221,1,2,0:0:0:0:
311,204,103303,1,2,0:0:0:0:
303,216,103384,1,2,0:0:0:0:
296,238,103465,1,10,0:0:0:0:
306,264,103546,1,2,0:0:0:0:
338,277,103627,1,2,0:0:0:0:
377,269,103708,1,2,0:0:0:0:
425,250,103789,6,0,P|453:262|488:304,3,71.2500027179719,6|2|2|2,2:0|3:0|3:0|3:0,0:0:0:0:
446,121,104113,2,0,P|473:109|508:67,3,71.2500027179719,14|2|2|2,2:0|3:0|3:0|3:0,0:0:0:0:
308,144,104438,5,6,2:0:0:0:
299,141,104519,1,2,0:0:0:0:
293,124,104600,1,2,0:0:0:0:
309,110,104681,1,2,0:0:0:0:
331,120,104762,1,14,2:0:0:0:
326,157,104843,1,2,0:0:0:0:
302,192,104924,1,6,0:0:0:0:
247,196,105005,1,2,0:0:0:0:
198,166,105086,6,0,P|126:157|56:215,1,161.500003080368,4|2,2:0|2:0,0:0:0:0:
104,306,105330,1,0,0:0:0:0:
117,313,105411,2,0,P|120:223|66:50,1,242.250004620552,10|0,2:0|0:0,0:0:0:0:
512,49,105735,6,0,P|423:16|354:9,1,161.500003080368,2|0,0:0|0:0,0:0:0:0:
252,89,105978,2,0,P|340:56|409:50,1,161.500003080368,2|0,2:0|0:0,0:0:0:0:
459,120,106221,2,0,P|408:101|359:97,1,80.750001540184,2|0,2:0|0:0,0:0:0:0:
157,247,106384,5,6,0:0:0:0:
320,296,106546,1,2,2:0:0:0:
233,212,106708,5,10,2:0:0:0:
230,189,106789,1,0,0:0:0:0:
213,166,106870,1,0,0:0:0:0:
327,384,107032,6,0,P|359:296|373:229,1,161.500003080368,2|0,0:0|0:0,0:0:0:0:
455,211,107275,1,2,2:0:0:0:
477,198,107357,2,0,P|465:139|456:111,1,80.750001540184,10|0,0:0|0:0,0:0:0:0:
512,59,107519,2,0,P|472:32|442:-1,1,80.750001540184,2|0,2:0|0:0,0:0:0:0:
94,87,107681,6,0,P|189:70|248:22,1,161.500003080368,6|2,0:0|2:0,0:0:0:0:
311,230,108005,5,10,2:0:0:0:
318,250,108086,1,0,0:0:0:0:
307,275,108167,1,0,0:0:0:0:
359,136,108329,5,2,0:0:0:0:
398,144,108410,1,2,2:0:0:0:
426,183,108491,1,0,0:0:0:0:
269,60,108653,5,10,0:2:0:0:
307,14,108734,1,0,0:0:0:0:
370,5,108815,1,2,2:0:0:0:
362,384,108978,6,0,P|342:314|352:215,1,161.500003080368,6|2,0:0|2:0,0:0:0:0:
226,161,109303,5,10,2:0:0:0:
188,115,109384,1,0,0:0:0:0:
123,108,109465,1,0,0:0:0:0:
134,245,109627,5,2,0:0:0:0:
95,253,109708,1,2,2:0:0:0:
67,292,109789,1,0,0:0:0:0:
183,335,109951,5,10,0:0:0:0:
176,355,110032,1,0,0:0:0:0:
187,380,110113,1,2,2:0:0:0:
414,300,110275,6,0,P|342:291|272:349,1,161.500003080368,6|2,0:0|2:0,0:0:0:0:
414,384,110519,1,0,0:0:0:0:
435,379,110600,2,0,P|431:275|345:166,1,242.250004620552,10|0,2:0|0:0,0:0:0:0:
0,221,110924,6,0,P|89:254|158:261,1,161.500003080368,2|0,0:0|0:0,0:0:0:0:
260,181,111167,2,0,P|172:214|103:220,1,161.500003080368,2|0,2:0|0:0,0:0:0:0:
53,150,111410,2,0,P|104:169|153:173,1,80.750001540184,2|0,2:0|0:0,0:0:0:0:
281,275,111573,5,6,0:0:0:0:
254,88,111735,1,2,2:0:0:0:
362,216,111897,5,10,2:0:0:0:
369,199,111978,1,0,0:0:0:0:
371,171,112059,1,0,0:0:0:0:
184,382,112221,6,0,P|152:294|138:227,1,161.500003080368,2|0,0:0|0:0,0:0:0:0:
59,211,112464,1,2,2:0:0:0:
35,198,112546,2,0,P|47:139|56:111,1,80.750001540184,10|0,0:0|0:0,0:0:0:0:
0,57,112708,2,0,P|40:30|70:-3,1,80.750001540184,2|0,2:0|0:0,0:0:0:0:
501,67,112870,6,0,P|428:53|340:35,1,161.500003080368,6|2,0:0|2:0,0:0:0:0:
208,98,113194,5,10,2:0:0:0:
211,78,113275,1,0,0:0:0:0:
233,62,113356,1,0,0:0:0:0:
120,153,113518,5,2,0:0:0:0:
89,126,113599,1,2,2:0:0:0:
85,78,113680,1,0,0:0:0:0:
158,267,113842,5,10,0:2:0:0:
103,287,113923,1,0,0:0:0:0:
41,268,114004,1,2,2:0:0:0:
321,189,114167,6,0,B|291:255|291:255|330:337,1,161.500003080368,6|0,2:0|0:0,0:0:0:0:
479,223,114492,1,14,2:0:0:0:
428,12,114654,1,0,0:0:0:0:
267,93,114816,5,6,2:0:0:0:
287,103,114897,1,2,0:0:0:0:
306,104,114978,1,2,0:0:0:0:
316,103,115059,1,2,0:0:0:0:
322,97,115140,5,14,2:0:0:0:
274,79,115221,1,2,0:0:0:0:
207,94,115302,1,2,0:0:0:0:
146,143,115384,1,2,0:0:0:0:
63,151,115465,5,6,2:0:0:0:
256,192,115546,12,0,125843,0:0:0:0:
