osu file format v14

[General]
AudioFilename: audio.mp3
AudioLeadIn: 0
PreviewTime: 221896
Countdown: 0
SampleSet: Soft
StackLeniency: 0.7
Mode: 0
LetterboxInBreaks: 0
WidescreenStoryboard: 1

[Editor]
Bookmarks: 22335,44661,66986,89312,111637,133963,156289,178614,200940,223265,234428,235126,235300,235562,235736,235998,236260,236434,236608,236783,237044,237219,237393,237568,237742,238004,238178,238353,238614,238789,238963,239137,239312,239486,239661,239835,240010,240184,240446,240620,240794,240969,241230,241405,241579,241841,242015,242190,242451,242626,242800,243062,243236,243411,243585,243760,244021,244196,244370,244544,244719,244980,245155,245416,245591,245765,245940,246201,246376,246550,246812,246986,247161,247335,247597,247771,247946,248382,248730,248905,249079,249341,249515,249777,249951,250300,250649,251347,252132,252655,252829,253353,253701,253963,254399,254748,255097,255358,255707,255882,256318,256666,257103,257539,257975,258323,258760,259196,259632,259980,260416,260765,261201,261637,262073,262422,262858,263207,263643,263992,264428,264864,265213,265649,265911,266347,266696,267044,267393,267742,268178,268527,268876,269225,269573,270010,270358,270707,271056,271405,271754,272190,272626,272975,273323,273672,274021,274370,274632,274980,275329,275678,275940,276289,276637,276899,277248,277510,277858,278207,278469,279079,290242,312568,334893,357219,379544,401870,424196,446521,468847,474428
DistanceSpacing: 1.3
BeatDivisor: 4
GridSize: 4
TimelineZoom: 1.6

[Metadata]
Title:Darkmist
TitleUnicode:Darkmist
Artist:Razlom
ArtistUnicode:Razlom
Creator:vanucik
Version:Darkness
Source:
Tags:Arrival EP 2017 Dark Mist drum and bass dnb
BeatmapID:1356243
BeatmapSetID:639468

[Difficulty]
HPDrainRate:6.3
CircleSize:3.8
OverallDifficulty:8.3
ApproachRate:9.3
SliderMultiplier:1.59999990463257
SliderTickRate:1

[Events]
//Background and Video events
0,0,"BG1.jpg",0,0
//Break Periods
2,279305,281342
//Storyboard Layer 0 (Background)
//Storyboard Layer 1 (Fail)
//Storyboard Layer 2 (Pass)
//Storyboard Layer 3 (Foreground)
//Storyboard Sound Samples

[TimingPoints]
36,348.837209302326,4,2,1,15,1,0
36,-200,4,2,1,15,0,0
22361,-200,4,2,1,30,0,0
33524,-200,4,2,1,25,0,0
36315,-200,4,2,1,20,0,0
39105,-200,4,2,1,25,0,0
41896,-200,4,2,1,20,0,0
44599,-200,4,2,1,5,0,0
44687,-142.857142857143,4,2,1,50,0,0
66925,-142.857142857143,4,2,1,5,0,0
67012,-333.333333333333,4,2,4,70,0,0
67099,-333.333333333333,4,2,1,20,0,0
69803,-166.666666666667,4,2,4,50,0,0
69890,-166.666666666667,4,2,1,25,0,0
71198,-166.666666666667,4,2,1,30,0,0
72594,-333.333333333333,4,2,4,50,0,0
72681,-333.333333333333,4,2,1,20,0,0
75384,-166.666666666667,4,2,4,50,0,0
75472,-166.666666666667,4,2,1,25,0,0
76780,-166.666666666667,4,2,1,30,0,0
78175,-333.333333333333,4,2,4,50,0,0
78262,-333.333333333333,4,2,1,30,0,0
80966,-166.666666666667,4,2,4,50,0,0
81053,-166.666666666667,4,2,1,30,0,0
83756,-333.333333333333,4,2,4,50,0,0
83844,-333.333333333333,4,2,1,30,0,0
86547,-166.666666666667,4,2,4,75,0,0
86634,-166.666666666667,4,2,1,25,0,0
87942,-166.666666666667,4,2,1,30,0,0
89251,-166.666666666667,4,2,1,5,0,0
89338,-125,4,2,2,50,0,0
89425,-125,4,2,1,20,0,0
92129,-125,4,2,2,30,0,0
92216,-125,4,2,1,20,0,0
94832,-125,4,2,2,30,0,0
95006,-125,4,2,1,20,0,0
97623,-125,4,2,2,30,0,0
97797,-125,4,2,1,20,0,0
100501,-111.111111111111,4,2,2,30,0,0
100588,-111.111111111111,4,2,1,30,0,0
106082,-99.9999999999999,4,2,2,40,0,0
106169,-99.9999999999999,4,2,1,40,0,0
111663,-100,4,2,2,60,0,0
111751,-100,4,2,1,50,0,0
114454,-100,4,2,2,60,0,0
114541,-100,4,2,1,50,0,0
117158,-100,4,2,2,60,0,0
117332,-100,4,2,1,50,0,0
120036,-100,4,2,2,60,0,0
120123,-100,4,2,1,50,0,0
122826,-90.9090909090909,4,2,2,60,0,0
122913,-90.9090909090909,4,2,1,50,0,0
125617,-90.9090909090909,4,2,2,60,0,0
125704,-90.9090909090909,4,2,1,50,0,0
128408,-90.9090909090909,4,2,2,60,0,0
128495,-90.9090909090909,4,2,1,50,0,0
131198,-90.9090909090909,4,2,2,60,0,0
131286,-90.9090909090909,4,2,1,50,0,0
133989,-71.4285714285714,4,2,1,70,0,1
145152,-71.4285714285714,4,2,1,80,0,1
156315,-200,4,2,1,30,0,0
167477,-200,4,2,1,40,0,0
175849,-200,4,2,4,80,0,0
175937,-200,4,2,1,40,0,0
178640,-125,4,2,4,50,0,0
178727,-125,4,2,1,40,0,0
189803,-111.111111111111,4,2,1,40,0,0
195384,-100,4,2,1,50,0,0
198175,-90.9090909090909,4,2,1,60,0,0
199570,-83.3333333333333,4,2,1,60,0,0
200966,-76.9230769230769,4,3,2,70,0,0
201053,-76.9230769230769,4,3,1,70,0,0
206547,-76.9230769230769,4,3,2,70,0,0
206634,-76.9230769230769,4,3,1,70,0,0
212129,-62.5,4,2,2,80,0,0
212216,-62.5,4,2,1,70,0,0
220501,-83.3333333333333,4,1,0,60,0,0
221896,-83.3333333333333,4,2,1,80,0,0
223291,-55.5555555555556,4,2,4,80,0,0
223640,-50,4,2,1,90,0,0
224687,-62.5,4,2,1,80,0,0
225036,-50,4,2,1,80,0,0
225733,-66.6666666666667,4,2,1,80,0,0
225995,-50,4,2,1,5,0,0
226082,-55.5555555555556,4,2,4,80,0,0
226431,-50,4,2,1,80,0,0
227477,-62.5,4,2,1,80,0,0
227826,-50,4,2,1,80,0,0
228524,-66.6666666666667,4,2,1,80,0,0
228873,-55.5555555555556,4,2,4,80,0,0
229222,-50,4,2,1,70,0,0
229919,-62.5,4,2,1,70,0,0
230268,-50,4,2,1,70,0,0
231315,-66.6666666666667,4,2,1,80,0,0
231663,-55.5555555555556,4,2,4,80,0,0
232012,-43.4782608695652,4,2,1,90,0,0
232710,-55.5555555555556,4,2,1,90,0,0
233059,-43.4782608695652,4,2,1,90,0,0
234454,-200,4,2,3,90,0,0
234803,-40,4,2,5,90,0,0
237245,-200,4,2,1,90,0,0
237594,-55.5555555555556,4,2,5,70,0,0
240036,-200,4,2,4,90,0,0
240384,-47.6190476190476,4,2,5,80,0,0
242826,-200,4,2,1,90,0,0
243175,-66.6666666666667,4,2,5,70,0,0
245268,-90.9090909090909,4,2,1,90,0,0
245530,-90.9090909090909,4,2,1,5,0,0
245617,-200,4,2,3,90,0,0
245966,-40,4,2,5,90,0,0
248408,-200,4,2,1,90,0,0
248756,-55.5555555555556,4,2,5,70,0,0
250849,-90.9090909090909,4,2,1,90,0,0
251111,-90.9090909090909,4,2,1,5,0,0
251198,-200,4,2,4,90,0,0
251547,-47.6190476190476,4,2,5,80,0,0
253989,-200,4,2,1,90,0,0
254338,-66.6666666666667,4,2,5,70,0,0
255384,-50,4,2,1,80,0,0
256780,-100,4,2,3,90,0,1
257129,-50,4,2,5,90,0,1
259570,-100,4,2,1,90,0,1
259919,-58.8235294117647,4,2,5,80,0,1
262012,-50,4,2,1,90,0,1
262361,-100,4,2,4,90,0,1
262710,-55.5555555555556,4,2,5,90,0,1
265152,-100,4,2,1,90,0,1
265501,-66.6666666666667,4,2,5,80,0,1
267942,-100,4,2,3,90,0,1
268291,-50,4,2,5,90,0,1
270733,-100,4,2,1,90,0,1
271082,-58.8235294117647,4,2,5,80,0,1
273524,-100,4,2,4,90,0,1
273873,-55.5555555555556,4,2,5,90,0,1
276315,-100,4,2,1,90,0,1
276663,-66.6666666666667,4,2,5,70,0,1
277710,-55.5555555555556,4,2,1,90,0,1
278408,-50,4,2,3,90,0,1
278495,-50,4,2,1,90,0,1
279105,-55.5555555555556,4,2,4,90,0,0
281896,-100,4,2,4,70,0,0
281983,-100,4,2,1,70,0,0
284687,-90.9090909090909,4,2,4,70,0,0
284774,-90.9090909090909,4,2,1,70,0,0
287129,-90.9090909090909,4,2,4,70,0,0
287216,-90.9090909090909,4,2,1,70,0,0
287477,-83.3333333333333,4,2,4,70,0,0
287565,-83.3333333333333,4,2,1,70,0,0
290268,-58.8235294117647,4,2,4,70,0,0
301082,-200,4,2,1,30,0,0
301431,-55.5555555555556,4,2,4,70,0,0
306489,-90.9090909090909,4,2,1,70,0,0
306838,-55.5555555555556,4,2,4,70,0,0
311198,-55.5555555555556,4,2,1,70,0,0
311373,-83.3333333333333,4,2,1,70,0,0
312245,-55.5555555555556,4,2,1,70,0,0
312594,-58.8235294117647,4,2,4,80,0,0
333524,-83.3333333333333,4,2,1,70,0,0
334919,-55.5555555555556,4,2,4,90,0,0
355849,-100,4,2,1,90,0,0
357245,-66.6666666666667,4,2,1,90,0,1
357594,-52.6315789473684,4,2,1,90,0,1
360036,-66.6666666666667,4,2,1,90,0,1
360384,-58.8235294117647,4,2,1,90,0,1
362826,-66.6666666666667,4,2,1,90,0,1
363175,-52.6315789473684,4,2,1,90,0,1
365617,-66.6666666666667,4,2,1,90,0,1
365966,-58.8235294117647,4,2,1,90,0,1
368408,-66.6666666666667,4,2,1,90,0,1
368756,-52.6315789473684,4,2,1,90,0,1
371198,-66.6666666666667,4,2,1,90,0,1
371547,-58.8235294117647,4,2,1,90,0,1
373989,-66.6666666666667,4,2,1,90,0,1
374338,-52.6315789473684,4,2,1,90,0,1
376780,-66.6666666666667,4,2,1,90,0,1
377129,-58.8235294117647,4,2,1,90,0,1
379570,-200,4,2,1,30,0,0
401896,-142.857142857143,4,2,1,30,0,0
407477,-142.857142857143,4,2,1,40,0,0
413059,-125,4,2,1,50,0,0
418640,-111.111111111111,4,2,1,60,0,0
420036,-99.9999999999999,4,2,1,60,0,0
421431,-90.9090909090909,4,2,1,70,0,0
422826,-83.3333333333333,4,2,1,80,0,0
424222,-200,4,2,2,60,0,0
424309,-200,4,2,2,40,0,0
435384,-111.111111111111,4,2,2,50,0,0
440966,-100,4,2,2,60,0,0
446460,-100,4,2,2,5,0,0
446547,-400,4,2,1,40,0,0
446634,-400,4,2,1,20,0,0
452129,-400,4,2,1,40,0,0
452216,-400,4,2,1,20,0,0
457710,-400,4,2,1,40,0,0
457797,-400,4,2,1,20,0,0
463291,-400,4,2,1,40,0,0
463379,-400,4,2,1,20,0,0
468873,-400,4,2,2,50,0,0
474454,-400,4,2,4,70,0,0

[Colours]
Combo1 : 196,98,0
Combo2 : 206,165,0
Combo3 : 255,190,125
Combo4 : 0,102,51

[HitObjects]
291,215,36,6,0,B|333:160|311:76|235:32|167:65|167:65|201:58|233:73,1,319.999980926514,2|0,0:0|0:0,0:0:0:0:
222,69,2826,6,0,B|249:95|285:91|285:91|257:157|189:149|189:149|208:187|208:187|165:179|118:202,1,319.999980926514,2|0,0:0|0:0,0:0:0:0:
123,199,5617,6,0,B|109:168|74:151|74:151|115:158|144:158|172:147|190:133|207:106|207:106|234:158|290:156,1,319.999980926514,2|0,0:0|0:0,0:0:0:0:
286,156,8408,6,0,B|304:216|253:252|253:252|265:276|282:294|282:294|248:321|201:314|201:314|248:342|247:381,1,319.999980926514,2|0,0:0|0:0,0:0:0:0:
193,207,11198,6,0,B|150:197|114:202|84:220|67:246|67:246|77:185|38:156|38:156|62:124|51:80,1,319.999980926514,2|0,0:0|0:0,0:0:0:0:
236,45,13989,6,0,B|266:75|264:106|255:131|223:153|223:153|276:162|295:205|295:205|257:246|278:301,1,319.999980926514,2|0,0:0|0:0,0:0:0:0:
276,297,16780,6,0,B|280:269|259:232|259:232|286:241|318:242|318:242|281:167|331:110|331:110|324:139|336:164,1,319.999980926514,8|0,0:0|0:0,0:0:0:0:
333,158,19570,6,0,B|313:215|359:249|359:249|346:303|398:347|398:347|347:303|284:317,1,319.999980926514,2|0,0:0|0:0,0:0:0:0:
256,192,21053,12,2,22361,0:0:0:0:
158,298,22972,6,0,L|154:228,1,59.9999964237214
143,70,23756,1,0,0:0:0:0:
334,114,24367,1,2,0:0:0:0:
359,194,24629,1,2,0:0:0:0:
291,243,24890,1,2,0:0:0:0:
318,322,25152,5,2,0:0:0:0:
459,186,25762,2,0,L|455:120,1,59.9999964237214
294,77,26547,1,0,0:0:0:0:
104,127,27158,1,2,0:0:0:0:
63,200,27419,1,2,0:0:0:0:
123,258,27681,1,2,0:0:0:0:
73,325,27942,5,2,0:0:0:0:
296,305,28553,2,0,P|310:275|317:241,1,59.9999964237214
297,81,29338,1,0,0:0:0:0:
436,218,29948,1,2,0:0:0:0:
377,278,30210,1,2,0:0:0:0:
303,237,30472,1,2,0:0:0:0:
249,301,30733,5,2,0:0:0:0:
73,213,31344,2,0,L|75:147,1,59.9999964237214
193,34,32129,1,0,0:0:0:0:
374,107,32739,1,2,0:0:0:0:
309,161,33001,1,2,0:0:0:0:
302,244,33262,1,2,0:0:0:0:
351,312,33524,5,6,0:0:0:0:
447,143,34134,1,0,0:0:0:0:
368,112,34396,1,0,0:0:0:0:
203,116,34919,1,0,0:0:0:0:
238,309,35530,1,2,0:0:0:0:
164,268,35791,2,0,P|153:241|146:203,1,59.9999964237214,2|2,0:0|0:0,0:0:0:0:
159,127,36315,5,2,0:0:0:0:
334,214,36925,1,0,0:0:0:0:
319,131,37187,1,0,0:0:0:0:
245,281,37710,1,0,0:0:0:0:
439,254,38320,1,2,0:0:0:0:
377,196,38582,2,0,L|371:136,1,59.9999964237214,2|2,0:0|0:0,0:0:0:0:
391,54,39105,5,2,0:0:0:0:
199,104,39716,1,0,0:0:0:0:
186,186,39977,1,0,0:0:0:0:
111,35,40501,1,0,0:0:0:0:
305,61,41111,1,2,0:0:0:0:
334,139,41373,2,0,L|329:206,1,59.9999964237214,2|2,0:0|0:0,0:0:0:0:
279,266,41896,5,2,0:0:0:0:
102,181,42506,1,0,0:0:0:0:
136,104,42768,1,0,0:0:0:0:
307,110,43291,1,2,0:0:0:0:
256,192,43379,12,0,44599,0:0:0:0:
169,37,44687,6,0,B|196:66|184:102|184:102|171:141|204:167|204:167|180:203|202:245|247:248|247:248|239:302|275:340|342:325,1,391.99996467209,2|0,0:0|0:0,0:0:0:0:
414,287,46082,6,0,B|452:234|426:163|370:129|308:141|308:141|366:92|366:92|320:91|295:46,1,391.99996467209,2|0,0:0|0:0,0:0:0:0:
205,76,47477,6,0,B|204:117|195:154|151:171|56:179|-8:119|-14:51|17:-2|94:-10|156:5|185:90|117:142|20:151|20:151|70:182|66:242|66:242|52:217|28:212|28:212,1,671.999939437869,2|0,0:0|0:0,0:0:0:0:
402,326,50268,6,0,B|378:267|409:204|474:199|474:199|430:197|403:162|419:117|419:117|369:149|324:107,1,391.99996467209,2|0,0:0|0:0,0:0:0:0:
230,116,51663,6,0,B|208:135|177:135|177:135|190:187|158:228|158:228|71:172|107:82|107:82|80:104|39:102,1,391.99996467209,2|0,0:0|0:0,0:0:0:0:
33,197,53059,6,0,B|72:248|59:300|59:300|143:283|210:329|210:329|204:275|221:233|269:194|339:193|394:225|407:296|390:352|359:362|318:362|289:337|294:303,1,671.999939437869,2|0,0:0|0:0,0:0:0:0:
251,143,55849,6,0,B|210:149|178:118|178:118|111:158|67:119|67:119|117:108|139:134|139:134|167:194|136:259,1,391.99996467209,2|0,0:0|0:0,0:0:0:0:
124,339,57245,6,0,B|175:326|216:352|216:352|244:314|312:309|312:309|336:256|310:216|310:216|350:247|398:236,1,391.99996467209,2|0,0:0|0:0,0:0:0:0:
468,175,58640,6,0,B|429:135|373:146|373:146|325:109|313:80|313:20|334:-8|400:-13|448:-1|471:37|449:79|421:134|350:89|302:93|247:63|247:63|193:118|131:85,1,671.999939437869,2|0,0:0|0:0,0:0:0:0:
325,316,61431,6,0,B|384:312|420:332|420:332|437:310|468:305|468:305|428:292|413:256|413:256|460:221|469:149|413:99,1,391.99996467209,2|0,0:0|0:0,0:0:0:0:
337,77,62826,6,0,B|310:84|281:78|281:78|338:131|296:197|244:209|198:176|198:176|260:221|237:293,1,391.99996467209,2|0,0:0|0:0,0:0:0:0:
148,254,64222,6,0,B|85:199|102:118|172:90|172:90|120:112|70:82|70:82|22:128|35:212,1,447.999959625246,2|0,0:0|0:0,0:0:0:0:
256,192,65704,12,0,66925,0:0:0:0:
333,63,67012,5,2,0:0:0:0:
258,130,67361,2,0,L|176:136,1,71.9999935112002,2|0,0:0|0:0,0:0:0:0:
38,102,68408,2,0,L|120:96,1,71.9999935112002,2|2,0:0|0:0,0:0:0:0:
170,235,69454,1,2,0:0:0:0:
415,100,69803,5,2,0:0:0:0:
386,263,70152,2,0,L|329:271,1,47.9999956741335,2|0,0:0|0:0,0:0:0:0:
235,200,70501,2,0,L|289:207,1,47.9999956741335,2|0,0:0|0:0,0:0:0:0:
415,100,70849,2,0,L|361:107,1,47.9999956741335,2|0,0:0|0:0,0:0:0:0:
265,53,71198,5,0,0:0:0:0:
180,115,71373,1,2,0:0:0:0:
105,40,71547,1,0,0:0:0:0:
181,100,71722,1,0,0:0:0:0:
63,195,71896,1,2,0:0:0:0:
250,236,72070,1,2,0:0:0:0:
265,235,72158,1,2,0:0:0:0:
279,234,72245,1,2,0:0:0:0:
400,57,72594,5,2,0:0:0:0:
307,96,72942,2,0,L|226:93,1,71.9999935112002,2|0,0:0|0:0,0:0:0:0:
116,187,73989,2,0,L|194:190,1,71.9999935112002,2|0,0:0|0:0,0:0:0:0:
296,295,75036,1,2,0:0:0:0:
41,278,75384,5,2,0:0:0:0:
112,118,75733,2,0,L|168:111,1,47.9999956741335,2|0,0:0|0:0,0:0:0:0:
248,149,76082,1,2,0:0:0:0:
316,82,76256,1,0,0:0:0:0:
325,69,76344,1,0,0:0:0:0:
329,52,76431,1,2,0:0:0:0:
240,16,76605,1,0,0:0:0:0:
395,148,76780,5,0,0:0:0:0:
406,60,76954,1,2,0:0:0:0:
285,185,77129,1,0,0:0:0:0:
370,223,77303,1,0,0:0:0:0:
273,96,77477,1,2,0:0:0:0:
211,243,77652,1,2,0:0:0:0:
209,261,77739,1,2,0:0:0:0:
214,278,77826,1,2,0:0:0:0:
400,122,78175,5,2,0:0:0:0:
309,167,78524,2,0,P|277:171|234:161,1,71.9999935112002,2|0,0:0|0:0,0:0:0:0:
114,76,79570,2,0,P|79:68|43:71,1,71.9999935112002,2|0,0:0|0:0,0:0:0:0:
124,199,80617,1,2,0:0:0:0:
328,65,80966,5,2,0:0:0:0:
398,210,81315,2,0,L|397:156,1,47.9999956741335,2|0,0:0|0:0,0:0:0:0:
328,65,81663,2,0,L|329:119,1,47.9999956741335,2|0,0:0|0:0,0:0:0:0:
474,277,82012,2,0,L|479:225,1,47.9999956741335,2|0,0:0|0:0,0:0:0:0:
273,213,82361,5,0,0:0:0:0:
266,334,82536,1,2,0:0:0:0:
372,279,82710,1,0,0:0:0:0:
362,189,82884,1,0,0:0:0:0:
190,258,83059,1,2,0:0:0:0:
354,367,83233,1,2,0:0:0:0:
264,187,83408,1,2,0:0:0:0:
63,344,83756,5,2,0:0:0:0:
125,264,84105,2,0,L|120:188,1,71.9999935112002,2|0,0:0|0:0,0:0:0:0:
227,86,85152,2,0,L|220:165,1,71.9999935112002,2|0,0:0|0:0,0:0:0:0:
326,265,86198,1,2,0:0:0:0:
441,99,86547,5,2,0:0:0:0:
247,40,86896,2,0,P|214:39|178:50,1,47.9999956741335,2|0,0:0|0:0,0:0:0:0:
92,112,87245,2,0,L|145:117,1,47.9999956741335,2|0,0:0|0:0,0:0:0:0:
161,137,87506,1,0,0:0:0:0:
179,155,87594,2,0,L|247:161,1,47.9999956741335,2|0,0:0|0:0,0:0:0:0:
369,130,87942,5,0,0:0:0:0:
284,74,88117,1,2,0:0:0:0:
278,238,88291,1,0,0:0:0:0:
376,259,88466,1,0,0:0:0:0:
240,148,88640,1,2,0:0:0:0:
219,327,88815,1,2,0:0:0:0:
241,345,88902,1,2,0:0:0:0:
263,354,88989,2,0,P|299:345|350:348,1,71.9999935112002,2|0,0:0|0:0,0:0:0:0:
382,369,89338,6,0,L|380:295,1,63.9999961853028,12|0,0:0|0:0,0:0:0:0:
465,239,89687,2,0,P|467:189|469:171,1,63.9999961853028
360,193,90036,2,0,P|319:197|283:191,1,63.9999961853028,2|0,0:0|0:0,0:0:0:0:
215,132,90384,1,0,0:0:0:0:
130,190,90559,1,0,0:0:0:0:
141,67,90733,5,2,0:0:0:0:
210,143,90908,2,0,P|218:172|222:208,1,63.9999961853028
225,307,91256,1,0,0:0:0:0:
352,363,91431,2,0,P|355:325|355:293,1,63.9999961853028,2|0,0:0|0:0,0:0:0:0:
328,199,91780,1,0,0:0:0:0:
425,229,91954,1,0,0:0:0:0:
256,276,92129,5,8,0:0:0:0:
219,180,92303,1,0,0:0:0:0:
150,256,92477,2,0,P|150:301|155:323,1,63.9999961853028
328,199,92826,2,0,P|335:141|332:122,1,63.9999961853028,2|0,0:0|0:0,0:0:0:0:
302,38,93175,1,0,0:0:0:0:
401,63,93349,1,0,0:0:0:0:
233,118,93524,5,2,0:0:0:0:
210,18,93698,1,0,0:0:0:0:
241,132,93873,2,0,L|234:208,1,63.9999961853028
119,297,94222,2,0,P|108:243|107:233,1,63.9999961853028,2|0,0:0|0:0,0:0:0:0:
129,134,94570,1,0,0:0:0:0:
31,166,94745,1,0,0:0:0:0:
203,202,94919,5,8,0:0:0:0:
223,101,95094,1,0,0:0:0:0:
303,164,95268,2,0,P|313:202|315:241,1,63.9999961853028
193,345,95617,2,0,P|193:301|197:278,1,63.9999961853028,2|0,0:0|0:0,0:0:0:0:
98,249,95966,1,0,0:0:0:0:
89,349,96140,1,0,0:0:0:0:
95,232,96315,5,2,0:0:0:0:
191,266,96489,1,0,0:0:0:0:
250,182,96663,2,0,P|248:143|241:116,1,63.9999961853028
192,28,97012,1,2,0:0:0:0:
290,57,97187,2,0,P|332:69|354:68,1,63.9999961853028
452,45,97536,1,0,0:0:0:0:
359,175,97710,5,8,0:0:0:0:
259,151,97884,1,0,0:0:0:0:
290,248,98059,2,0,P|291:298|289:317,1,63.9999961853028
256,138,98408,1,2,0:0:0:0:
167,213,98582,2,0,P|125:225|98:227,1,63.9999961853028
34,157,98931,1,0,0:0:0:0:
104,59,99105,5,2,0:0:0:0:
171,130,99280,1,0,0:0:0:0:
47,167,99454,1,0,0:0:0:0:
88,49,99629,1,0,0:0:0:0:
169,150,99803,1,2,0:0:0:0:
276,64,99977,2,0,P|285:28|285:-4,1,63.9999961853028
343,174,100326,1,0,0:0:0:0:
130,224,100501,5,8,0:0:0:0:
205,300,100675,1,0,0:0:0:0:
236,196,100849,2,0,P|238:162|234:116,1,71.9999935112002
139,3,101198,1,2,0:0:0:0:
239,42,101373,2,0,P|287:48|319:45,1,71.9999935112002
414,17,101722,1,0,0:0:0:0:
364,164,101896,5,2,0:0:0:0:
466,121,102070,1,0,0:0:0:0:
310,46,102245,2,0,P|272:40|229:43,1,71.9999935112002
146,98,102594,1,2,0:0:0:0:
242,202,102768,2,0,P|262:163|269:123,1,71.9999935112002
316,304,103117,1,0,0:0:0:0:
130,258,103291,6,0,P|103:215|93:172,1,71.9999935112002,2|0,0:0|0:0,0:0:0:0:
220,364,103640,2,0,P|166:369|140:364,1,71.9999935112002
248,218,103989,1,2,0:0:0:0:
374,271,104163,2,0,P|389:314|389:351,1,71.9999935112002
237,204,104512,1,0,0:0:0:0:
303,117,104687,5,2,0:0:0:0:
384,167,104861,1,0,0:0:0:0:
223,189,105036,2,0,P|180:181|142:183,1,71.9999935112002
42,260,105384,1,2,0:0:0:0:
191,363,105559,2,0,P|211:321|212:287,1,71.9999935112002
223,189,105908,1,0,0:0:0:0:
343,341,106082,5,8,0:0:0:0:
441,273,106256,1,0,0:0:0:0:
330,226,106431,2,0,P|317:185|316:146,1,79.9999952316285
357,21,106780,1,2,0:0:0:0:
477,119,106954,2,0,P|444:155|407:167,1,79.9999952316285
351,37,107303,1,0,0:0:0:0:
247,154,107477,5,2,0:0:0:0:
165,65,107652,1,0,0:0:0:0:
178,244,107826,2,0,P|228:268|264:266,1,79.9999952316285
357,201,108175,1,2,0:0:0:0:
307,358,108349,2,0,P|259:374|224:371,1,79.9999952316285
157,167,108698,1,2,0:0:0:0:
157,167,108786,1,2,0:0:0:0:
157,167,108873,6,0,L|245:161,1,79.9999952316285,2|0,0:0|0:0,0:0:0:0:
400,91,109222,2,0,L|306:83,1,79.9999952316285
353,250,109570,1,2,0:0:0:0:
483,149,109745,2,0,P|499:98|495:65,1,79.9999952316285
471,266,110094,1,2,0:0:0:0:
343,261,110268,5,0,0:0:0:0:
475,281,110442,1,0,0:0:0:0:
365,140,110617,2,0,P|312:133|263:139,1,79.9999952316285
119,234,110966,5,10,0:0:0:0:
209,58,111140,1,10,0:0:0:0:
343,261,111315,1,10,0:0:0:0:
351,15,111489,1,10,0:0:0:0:
229,266,111663,6,4,P|239:336|314:385,1,159.999990463257,14|0,0:0|0:0,0:0:0:0:
123,263,112187,1,0,0:0:0:0:
123,263,112274,1,0,0:0:0:0:
123,263,112361,2,0,P|84:254|37:263,1,79.9999952316285,2|0,0:0|0:0,0:0:0:0:
99,169,112623,1,0,0:0:0:0:
99,169,112710,2,0,P|53:133|27:127,1,79.9999952316285
213,82,113059,5,2,0:0:0:0:
256,162,113233,1,0,0:0:0:0:
340,199,113408,1,0,0:0:0:0:
428,184,113582,1,0,0:0:0:0:
354,51,113756,2,0,P|307:33|272:34,1,79.9999952316285,2|0,0:0|0:0,0:0:0:0:
120,106,114105,1,0,0:0:0:0:
120,106,114192,1,0,0:0:0:0:
120,106,114280,1,0,0:0:0:0:
260,251,114454,6,0,P|312:209|318:106,1,159.999990463257,8|0,0:0|0:0,0:0:0:0:
216,146,114977,1,0,0:0:0:0:
216,146,115065,1,0,0:0:0:0:
216,146,115152,2,0,P|194:163|167:215,1,79.9999952316285,2|0,0:0|0:0,0:0:0:0:
192,291,115413,1,0,0:0:0:0:
192,291,115501,2,0,P|182:333|189:376,1,79.9999952316285
287,333,115849,5,2,0:0:0:0:
81,322,116024,1,0,0:0:0:0:
22,239,116198,1,0,0:0:0:0:
129,235,116373,1,0,0:0:0:0:
129,235,116460,1,0,0:0:0:0:
129,235,116547,2,0,P|135:179|126:150,1,79.9999952316285,2|0,0:0|0:0,0:0:0:0:
61,51,116896,1,0,0:0:0:0:
78,54,116983,1,0,0:0:0:0:
94,58,117070,1,0,0:0:0:0:
241,174,117245,6,0,P|297:172|350:85,1,159.999990463257,8|0,0:0|0:0,0:0:0:0:
170,115,117768,1,0,0:0:0:0:
170,115,117855,1,0,0:0:0:0:
170,115,117942,2,0,P|146:156|148:195,1,79.9999952316285,2|0,0:0|0:0,0:0:0:0:
197,249,118204,1,0,0:0:0:0:
197,249,118291,2,0,P|203:296|228:325,1,79.9999952316285
371,203,118640,5,2,0:0:0:0:
277,92,118815,1,0,0:0:0:0:
266,199,118989,1,0,0:0:0:0:
385,107,119163,1,0,0:0:0:0:
385,107,119251,1,0,0:0:0:0:
385,107,119338,1,2,0:0:0:0:
266,199,119512,1,0,0:0:0:0:
170,140,119687,1,0,0:0:0:0:
166,128,119774,1,0,0:0:0:0:
166,115,119861,1,0,0:0:0:0:
207,327,120036,6,0,P|264:280|243:168,1,159.999990463257,8|0,0:0|0:0,0:0:0:0:
239,87,120559,1,0,0:0:0:0:
239,87,120646,1,0,0:0:0:0:
239,87,120733,2,0,P|288:104|326:102,1,79.9999952316285,2|0,0:0|0:0,0:0:0:0:
402,87,120995,1,0,0:0:0:0:
402,87,121082,2,0,P|445:80|481:85,1,79.9999952316285
370,184,121431,5,2,0:0:0:0:
309,39,121605,1,0,0:0:0:0:
290,129,121780,1,0,0:0:0:0:
204,160,121954,1,0,0:0:0:0:
204,160,122041,1,0,0:0:0:0:
204,160,122129,1,2,0:0:0:0:
314,239,122303,1,0,0:0:0:0:
219,266,122477,1,0,0:0:0:0:
216,256,122565,1,0,0:0:0:0:
215,244,122652,1,0,0:0:0:0:
57,225,122826,6,0,P|25:170|74:67,1,175.999994880676,8|0,0:0|0:0,0:0:0:0:
163,186,123349,1,0,0:0:0:0:
163,186,123437,1,0,0:0:0:0:
163,186,123524,2,0,L|156:276,1,87.9999974403381,2|0,0:0|0:0,0:0:0:0:
229,310,123786,1,0,0:0:0:0:
229,310,123873,2,0,L|236:220,1,87.9999974403381
241,113,124222,5,2,0:0:0:0:
340,207,124396,1,0,0:0:0:0:
363,85,124570,1,0,0:0:0:0:
234,230,124745,1,0,0:0:0:0:
234,230,124832,1,0,0:0:0:0:
234,230,124919,2,0,P|181:238|140:226,1,87.9999974403381,2|0,0:0|0:0,0:0:0:0:
107,100,125268,2,0,L|177:97,1,43.9999987201691
241,113,125442,1,0,0:0:0:0:
110,318,125617,6,0,P|58:266|76:169,1,175.999994880676,8|0,0:0|0:0,0:0:0:0:
241,209,126140,1,0,0:0:0:0:
241,209,126227,1,0,0:0:0:0:
241,209,126315,2,0,P|238:255|230:305,1,87.9999974403381,2|0,0:0|0:0,0:0:0:0:
154,238,126576,1,0,0:0:0:0:
154,238,126663,2,0,P|157:192|163:148,1,87.9999974403381
245,64,127012,5,2,0:0:0:0:
357,191,127187,1,0,0:0:0:0:
367,74,127361,1,0,0:0:0:0:
233,186,127536,1,0,0:0:0:0:
233,186,127623,1,0,0:0:0:0:
233,186,127710,1,2,0:0:0:0:
286,306,127884,1,0,0:0:0:0:
408,250,128059,1,0,0:0:0:0:
411,234,128146,1,0,0:0:0:0:
414,217,128233,1,0,0:0:0:0:
253,95,128408,6,0,P|195:93|122:181,1,175.999994880676,8|0,0:0|0:0,0:0:0:0:
321,162,128931,1,0,0:0:0:0:
321,162,129018,1,0,0:0:0:0:
321,162,129105,2,0,P|345:118|345:71,1,87.9999974403381,2|0,0:0|0:0,0:0:0:0:
253,95,129367,1,0,0:0:0:0:
253,95,129454,2,0,P|229:139|229:187,1,87.9999974403381
345,293,129803,5,2,0:0:0:0:
429,213,129977,2,0,L|434:110,1,87.9999974403381
244,251,130326,1,0,0:0:0:0:
244,251,130413,1,0,0:0:0:0:
244,251,130501,2,0,P|232:296|244:348,1,87.9999974403381,2|0,0:0|0:0,0:0:0:0:
325,142,130849,1,0,0:0:0:0:
299,134,130937,1,0,0:0:0:0:
274,133,131024,1,0,0:0:0:0:
96,248,131198,5,8,0:0:0:0:
311,275,131373,1,2,0:0:0:0:
155,56,131547,1,10,0:0:0:0:
274,133,131722,1,2,0:0:0:0:
54,153,131896,1,2,0:0:0:0:
275,9,132070,1,10,0:0:0:0:
284,288,132245,1,2,0:0:0:0:
134,160,132419,1,2,0:0:0:0:
364,185,132594,5,10,0:0:0:0:
134,323,132768,1,2,0:0:0:0:
236,130,132942,1,2,0:0:0:0:
393,352,133117,1,10,0:0:0:0:
350,103,133291,1,10,0:0:0:0:
220,335,133640,6,8,P|180:324|129:323,1,87.9999974403381,0|0,0:0|0:0,0:0:0:0:
236,130,133989,6,0,P|265:64|405:23,1,223.999979812623,2|0,0:0|0:0,0:0:0:0:
388,237,134512,2,0,B|332:261|278:230|278:230|222:255|172:220,1,223.999979812623,2|0,0:0|0:0,0:0:0:0:
339,133,135036,2,0,P|403:105|460:108,1,111.999989906311,2|0,0:0|0:0,0:0:0:0:
295,342,135384,6,0,B|210:364|164:303|164:303|130:328|84:323,1,223.999979812623,2|0,0:0|0:0,0:0:0:0:
245,93,135908,2,0,B|216:167|250:239|250:239|222:205|167:191,1,223.999979812623,2|0,0:0|0:0,0:0:0:0:
175,35,136431,2,0,P|230:4|290:13,1,111.999989906311,2|0,0:0|0:0,0:0:0:0:
399,131,136780,6,0,B|414:180|414:180|398:219|398:219|411:264|411:264|403:311|352:340,1,223.999979812623,2|0,0:0|0:0,0:0:0:0:
210,309,137303,2,0,B|180:254|212:204|212:204|245:155|210:95,1,223.999979812623,2|0,0:0|0:0,0:0:0:0:
292,259,137826,2,0,P|306:328|288:369,1,111.999989906311,2|0,0:0|0:0,0:0:0:0:
113,155,138175,5,2,0:0:0:0:
305,117,138349,1,0,0:0:0:0:
200,221,138524,5,0,0:0:0:0:
171,63,138698,1,2,0:0:0:0:
345,247,138873,5,8,0:0:0:0:
58,304,139047,1,2,0:0:0:0:
305,117,139222,6,0,B|361:98|415:133,1,111.999989906311,8|2,0:0|0:0,0:0:0:0:
315,357,139570,6,0,P|241:298|266:168,1,223.999979812623,2|0,0:0|0:0,0:0:0:0:
171,75,140094,2,0,B|111:111|24:88|24:88|61:109|86:153,1,223.999979812623,2|0,0:0|0:0,0:0:0:0:
262,104,140617,2,0,P|263:48|222:-6,1,111.999989906311,2|0,0:0|0:0,0:0:0:0:
136,256,140966,6,0,B|165:309|230:301|230:301|259:324|259:324|295:311|338:324,1,223.999979812623,2|0,0:0|0:0,0:0:0:0:
423,199,141489,2,0,B|377:214|334:192|334:192|299:221|299:221|258:201|208:214,1,223.999979812623,2|0,0:0|0:0,0:0:0:0:
501,252,142012,2,0,P|517:210|498:143,1,111.999989906311,2|0,0:0|0:0,0:0:0:0:
266,137,142361,6,0,B|238:67|288:-2|288:-2|260:30|208:49,1,223.999979812623,2|0,0:0|0:0,0:0:0:0:
81,125,142884,2,0,P|24:111|88:12,1,223.999979812623,2|0,0:0|0:0,0:0:0:0:
140,203,143408,2,0,P|84:227|18:218,1,111.999989906311,2|0,0:0|0:0,0:0:0:0:
253,56,143756,5,2,0:0:0:0:
297,187,143931,1,0,0:0:0:0:
183,134,144105,5,0,0:0:0:0:
355,79,144280,1,2,0:0:0:0:
190,268,144454,5,8,0:0:0:0:
243,29,144629,1,2,0:0:0:0:
425,203,144803,5,8,0:0:0:0:
428,218,144890,1,0,0:0:0:0:
427,233,144977,1,2,0:0:0:0:
115,149,145152,6,0,P|129:56|261:40,1,223.999979812623,2|0,0:0|0:0,0:0:0:0:
199,230,145675,2,0,B|125:294|45:242|45:242|30:269|0:282,1,223.999979812623,2|0,0:0|0:0,0:0:0:0:
275,303,146198,2,0,P|302:246|292:191,1,111.999989906311,2|0,0:0|0:0,0:0:0:0:
206,55,146547,6,0,P|249:99|301:108,1,111.999989906311,2|0,0:0|0:0,0:0:0:0:
418,77,146896,1,0,0:0:0:0:
300,0,147070,1,2,0:0:0:0:
413,191,147245,2,0,P|457:185|508:143,1,111.999989906311
346,309,147594,2,0,P|389:355|439:363,1,111.999989906311,2|0,0:0|0:0,0:0:0:0:
272,194,147942,6,0,B|229:175|184:201|184:201|137:183|137:183|99:209|49:200,1,223.999979812623,2|0,0:0|0:0,0:0:0:0:
346,309,148466,2,0,P|455:297|497:201,1,223.999979812623,2|0,0:0|0:0,0:0:0:0:
344,80,148989,2,0,P|301:74|222:108,1,111.999989906311,2|0,0:0|0:0,0:0:0:0:
261,301,149338,5,2,0:0:0:0:
91,289,149512,1,0,0:0:0:0:
216,210,149687,5,0,0:0:0:0:
204,373,149861,1,2,0:0:0:0:
89,161,150036,5,8,0:0:0:0:
357,182,150210,1,2,0:0:0:0:
91,289,150384,5,8,0:0:0:0:
75,284,150472,1,2,0:0:0:0:
59,277,150559,1,2,0:0:0:0:
350,320,150733,6,0,P|408:325|500:201,1,223.999979812623,2|0,0:0|0:0,0:0:0:0:
257,159,151256,2,0,B|238:213|238:213|259:268|259:268|229:324|261:375,1,223.999979812623,2|0,0:0|0:0,0:0:0:0:
430,317,151780,2,0,P|435:259|410:210,1,111.999989906311,2|0,0:0|0:0,0:0:0:0:
207,61,152129,5,2,0:0:0:0:
301,104,152303,1,0,0:0:0:0:
400,142,152477,1,0,0:0:0:0:
291,0,152652,1,2,0:0:0:0:
301,104,152826,1,0,0:0:0:0:
392,43,153001,1,0,0:0:0:0:
358,230,153175,1,2,0:0:0:0:
342,238,153262,1,0,0:0:0:0:
324,242,153349,1,2,0:0:0:0:
150,131,153524,6,0,P|170:72|313:68,1,223.999979812623,2|0,0:0|0:0,0:0:0:0:
194,236,154047,2,0,B|136:257|90:227|90:227|130:276|119:339,1,223.999979812623,2|0,0:0|0:0,0:0:0:0:
6,302,154570,1,2,0:0:0:0:
25,172,154745,1,0,0:0:0:0:
150,131,154919,5,2,0:0:0:0:
280,319,155094,1,0,0:0:0:0:
327,223,155268,1,0,0:0:0:0:
304,119,155442,1,2,0:0:0:0:
205,192,155617,5,0,0:0:0:0:
434,153,155791,1,0,0:0:0:0:
434,153,155879,1,0,0:0:0:0:
434,153,155966,1,10,0:0:0:0:
304,119,156140,1,2,0:0:0:0:
471,277,156315,6,0,B|418:254|369:293|369:293|347:259|362:215|362:215|325:256|265:240,1,279.9999833107,6|0,0:0|0:0,0:0:0:0:
295,148,157710,6,0,P|338:121|412:135,1,119.999992847443,2|0,0:0|0:0,0:0:0:0:
435,38,158408,2,0,B|375:13|378:61|311:34,1,119.999992847443,2|0,0:0|0:0,0:0:0:0:
226,62,159105,6,0,B|166:106|180:185|180:185|121:169|98:110|98:110|114:168|79:211|79:211|122:230|136:268,1,439.999973773957,2|0,0:0|0:0,0:0:0:0:
151,358,161198,6,0,P|183:333|265:344,1,119.999992847443,2|0,0:0|0:0,0:0:0:0:
348,372,161896,6,0,B|331:307|385:267|385:267|334:254|311:209|311:209|341:191|349:147,1,279.9999833107,2|0,0:0|0:0,0:0:0:0:
367,64,163291,6,0,P|410:84|440:162,1,119.999992847443,2|0,0:0|0:0,0:0:0:0:
420,241,163989,2,0,P|377:221|347:143,1,119.999992847443,2|0,0:0|0:0,0:0:0:0:
267,212,164687,6,0,B|280:269|331:308|331:308|283:282|221:302|221:302|216:250|172:223|172:223|200:161|172:105|103:101,1,479.999971389771,2|0,0:0|0:0,0:0:0:0:
375,35,167477,6,0,B|355:80|380:120|404:128|404:128|370:164|397:209|397:209|380:226|376:247|376:247,1,239.999985694885,6|2,0:0|0:0,0:0:0:0:
200,324,168873,6,0,P|187:285|214:208,1,119.999992847443,2|0,0:0|0:0,0:0:0:0:
282,149,169570,2,0,P|305:94|292:37,1,119.999992847443,2|0,0:0|0:0,0:0:0:0:
195,36,170268,6,0,B|151:46|151:46|157:128|123:176|83:171|43:166|21:110|42:63|89:48|129:68|188:111|174:200,1,439.999973773957,2|0,0:0|0:0,0:0:0:0:
184,280,172361,6,0,P|217:307|302:299,1,119.999992847443,2|0,0:0|0:0,0:0:0:0:
374,257,173059,6,0,B|340:177|398:98|398:98|366:124|325:125,1,239.999985694885,2|2,0:0|0:0,0:0:0:0:
163,35,174454,6,0,P|204:19|275:48,1,119.999992847443,2|0,0:0|0:0,0:0:0:0:
208,117,175152,2,0,P|167:133|96:104,1,119.999992847443,2|0,0:0|0:0,0:0:0:0:
63,18,175849,5,2,0:0:0:0:
256,192,175937,12,0,178030,0:0:0:0:
174,238,178640,5,2,0:0:0:0:
256,188,178815,1,0,0:0:0:0:
261,283,178989,2,0,P|265:315|258:350,1,63.9999961853028
184,153,179338,2,0,P|180:121|187:86,2,63.9999961853028,2|0|0,0:0|0:0|0:0,0:0:0:0:
265,101,179861,1,0,0:0:0:0:
88,138,180036,5,2,0:0:0:0:
63,230,180210,1,0,0:0:0:0:
156,211,180384,2,0,P|204:208|230:217,1,63.9999961853028
327,113,180733,2,0,P|286:101|255:102,2,63.9999961853028,2|0|0,0:0|0:0|0:0,0:0:0:0:
382,191,181256,1,0,0:0:0:0:
285,195,181431,5,2,0:0:0:0:
328,280,181605,2,0,P|373:302|395:302,1,63.9999961853028
234,318,181954,1,0,0:0:0:0:
181,232,182129,2,0,P|172:194|181:153,2,63.9999961853028,2|0|0,0:0|0:0|0:0,0:0:0:0:
266,146,182652,1,0,0:0:0:0:
156,78,182826,5,2,0:0:0:0:
80,137,183001,2,0,P|45:141|9:133,1,63.9999961853028
53,47,183349,1,0,0:0:0:0:
161,163,183524,2,0,P|170:199|168:233,2,63.9999961853028,2|0|0,0:0|0:0|0:0,0:0:0:0:
88,269,184047,1,0,0:0:0:0:
225,313,184222,5,2,0:0:0:0:
288,241,184396,1,0,0:0:0:0:
257,150,184570,2,0,P|249:122|253:76,1,63.9999961853028
404,153,184919,2,0,P|366:170|340:172,2,63.9999961853028,2|0|0,0:0|0:0|0:0,0:0:0:0:
349,73,185442,1,0,0:0:0:0:
288,241,185617,5,2,0:0:0:0:
378,273,185791,1,0,0:0:0:0:
465,231,185966,2,0,P|473:194|467:157,1,63.9999961853028
349,73,186315,2,0,P|341:29|345:4,2,63.9999961853028,2|0|0,0:0|0:0|0:0,0:0:0:0:
437,34,186838,1,0,0:0:0:0:
349,176,187012,5,2,0:0:0:0:
252,176,187187,1,0,0:0:0:0:
204,92,187361,2,0,P|245:74|282:72,1,63.9999961853028
117,172,187710,2,0,P|80:169|46:154,2,63.9999961853028,2|0|0,0:0|0:0|0:0,0:0:0:0:
104,76,188233,1,0,0:0:0:0:
44,255,188408,5,2,0:0:0:0:
127,301,188582,1,0,0:0:0:0:
195,234,188756,2,0,P|233:220|275:217,1,63.9999961853028
377,319,189105,2,0,L|302:308,2,63.9999961853028,2|0|0,0:0|0:0|0:0,0:0:0:0:
460,270,189629,1,0,0:0:0:0:
345,135,189803,6,0,P|301:126|266:128,1,71.9999935112002,2|0,0:0|0:0,0:0:0:0:
182,164,190152,1,0,0:0:0:0:
196,71,190326,1,0,0:0:0:0:
262,219,190501,2,0,P|270:274|262:303,2,71.9999935112002,2|0|0,0:0|0:0|0:0,0:0:0:0:
178,263,191024,1,0,0:0:0:0:
374,343,191198,5,2,0:0:0:0:
354,252,191373,1,0,0:0:0:0:
416,182,191547,2,0,P|461:173|493:175,1,71.9999935112002
316,166,191896,2,0,P|271:153|245:137,1,71.9999935112002,2|0,0:0|0:0,0:0:0:0:
131,48,192245,1,0,0:0:0:0:
221,31,192419,1,0,0:0:0:0:
93,177,192594,6,0,P|94:221|103:262,1,71.9999935112002,2|0,0:0|0:0,0:0:0:0:
181,301,192942,1,0,0:0:0:0:
239,226,193117,1,0,0:0:0:0:
310,352,193291,2,0,P|270:367|237:370,2,71.9999935112002,2|0|0,0:0|0:0|0:0,0:0:0:0:
354,262,193815,1,0,0:0:0:0:
270,126,193989,6,0,P|221:117|196:117,1,71.9999935112002,2|0,0:0|0:0,0:0:0:0:
394,134,194338,2,0,P|386:89|367:58,1,71.9999935112002
266,244,194687,1,2,0:0:0:0:
366,235,194861,1,0,0:0:0:0:
375,335,195036,1,0,0:0:0:0:
275,346,195210,1,0,0:0:0:0:
305,159,195384,6,0,P|354:147|388:148,1,79.9999952316285,2|0,0:0|0:0,0:0:0:0:
192,83,195733,2,0,P|155:62|110:52,1,79.9999952316285
91,168,196082,1,2,0:0:0:0:
203,218,196256,1,0,0:0:0:0:
99,285,196431,1,0,0:0:0:0:
211,342,196605,1,0,0:0:0:0:
303,206,196780,6,0,P|310:150|299:121,1,79.9999952316285,2|0,0:0|0:0,0:0:0:0:
99,285,197129,2,0,P|92:341|103:370,1,79.9999952316285
193,185,197477,1,2,0:0:0:0:
47,192,197652,1,0,0:0:0:0:
163,93,197826,1,0,0:0:0:0:
163,93,197913,1,0,0:0:0:0:
163,93,198001,1,0,0:0:0:0:
233,272,198175,6,0,P|284:276|332:262,1,87.9999974403381,2|0,0:0|0:0,0:0:0:0:
415,154,198524,1,0,0:0:0:0:
436,295,198698,1,0,0:0:0:0:
265,166,198873,2,0,P|245:117|244:80,1,87.9999974403381,2|0,0:0|0:0,0:0:0:0:
360,99,199222,1,0,0:0:0:0:
308,273,199396,1,0,0:0:0:0:
146,196,199570,6,0,P|97:178|44:175,1,95.9999913482669,2|0,0:0|0:0,0:0:0:0:
223,292,199919,1,0,0:0:0:0:
213,103,200094,1,0,0:0:0:0:
107,296,200268,1,2,0:0:0:0:
313,186,200442,1,2,0:0:0:0:
92,120,200617,1,0,0:0:0:0:
76,115,200704,1,0,0:0:0:0:
58,116,200791,1,0,0:0:0:0:
272,279,200966,5,8,0:2:0:0:
263,113,201140,2,0,P|230:104|206:103,1,51.9999945201877,2|0,0:0|0:0,0:0:0:0:
313,186,201315,2,0,P|344:143|342:76,1,103.999989040375,2|0,0:0|0:0,0:0:0:0:
89,187,201663,2,0,L|91:244,1,51.9999945201877,2|0,0:0|0:0,0:0:0:0:
184,213,201838,2,0,L|186:277,1,51.9999945201877,2|0,0:0|0:0,0:0:0:0:
119,85,202012,2,0,P|72:81|16:112,1,103.999989040375,0|2,0:0|0:0,0:0:0:0:
276,173,202361,5,0,0:0:0:0:
357,82,202536,2,0,P|358:44|352:24,1,51.9999945201877,2|0,0:0|0:0,0:0:0:0:
198,115,202710,2,0,P|176:184|194:231,1,103.999989040375,2|0,0:0|0:0,0:0:0:0:
372,256,203059,2,0,P|324:247|304:248,1,51.9999945201877,2|0,0:0|0:0,0:0:0:0:
459,221,203233,2,0,P|441:183|428:170,1,51.9999945201877,2|0,0:0|0:0,0:0:0:0:
350,350,203408,2,0,P|379:355|447:319,1,103.999989040375,0|2,0:0|0:0,0:0:0:0:
296,184,203756,5,0,0:0:0:0:
188,268,203931,2,0,P|219:279|240:278,1,51.9999945201877,2|0,0:0|0:0,0:0:0:0:
198,169,204105,2,0,P|139:176|96:215,1,103.999989040375,2|0,0:0|0:0,0:0:0:0:
331,322,204454,2,0,P|341:276|340:262,1,51.9999945201877,2|0,0:0|0:0,0:0:0:0:
406,204,204629,2,0,P|399:168|392:152,1,51.9999945201877,2|0,0:0|0:0,0:0:0:0:
412,69,204803,2,0,P|368:43|303:40,1,103.999989040375,0|2,0:0|0:0,0:0:0:0:
169,100,205152,5,0,0:0:0:0:
306,212,205326,2,0,L|303:149,1,51.9999945201877,2|0,0:0|0:0,0:0:0:0:
238,290,205501,2,0,P|285:322|334:320,1,103.999989040375,2|0,0:0|0:0,0:0:0:0:
93,179,205849,2,0,P|60:174|27:178,1,51.9999945201877,2|0,0:0|0:0,0:0:0:0:
122,95,206024,2,0,P|88:80|67:77,1,51.9999945201877,2|0,0:0|0:0,0:0:0:0:
214,133,206198,2,0,P|214:68|178:22,1,103.999989040375,0|2,0:0|0:0,0:0:0:0:
205,226,206547,5,8,0:2:0:0:
357,217,206722,2,0,L|297:211,1,51.9999945201877,2|0,0:0|0:0,0:0:0:0:
159,314,206896,2,0,P|220:328|265:306,1,103.999989040375,2|0,0:0|0:0,0:0:0:0:
292,124,207245,2,0,L|218:115,1,51.9999945201877,2|0,0:0|0:0,0:0:0:0:
153,219,207419,2,0,L|227:228,1,51.9999945201877,2|0,0:0|0:0,0:0:0:0:
388,148,207594,2,0,P|389:100|340:41,1,103.999989040375,0|2,0:0|0:0,0:0:0:0:
291,313,207942,5,0,0:0:0:0:
431,245,208117,2,0,L|375:240,1,51.9999945201877,2|0,0:0|0:0,0:0:0:0:
197,297,208291,2,0,P|253:323|301:308,1,103.999989040375,2|0,0:0|0:0,0:0:0:0:
246,167,208640,2,0,P|219:160|187:160,1,51.9999945201877,2|0,0:0|0:0,0:0:0:0:
304,99,208815,2,0,P|282:74|252:60,1,51.9999945201877,2|0,0:0|0:0,0:0:0:0:
404,100,208989,2,0,P|394:44|366:-6,1,103.999989040375,0|2,0:0|0:0,0:0:0:0:
323,230,209338,5,0,0:0:0:0:
195,159,209512,2,0,P|220:160|246:167,1,51.9999945201877,2|0,0:0|0:0,0:0:0:0:
360,319,209687,2,0,P|299:327|250:296,1,103.999989040375,2|0,0:0|0:0,0:0:0:0:
97,186,210036,2,0,P|97:219|111:256,1,51.9999945201877,2|0,0:0|0:0,0:0:0:0:
91,336,210210,2,0,P|120:352|148:355,1,51.9999945201877,2|0,0:0|0:0,0:0:0:0:
199,201,210384,2,0,P|192:144|156:105,1,103.999989040375,0|2,0:0|0:0,0:0:0:0:
12,255,210733,5,0,0:0:0:0:
261,270,210908,2,0,P|288:230|291:213,1,51.9999945201877,2|0,0:0|0:0,0:0:0:0:
97,186,211082,2,0,P|104:243|140:282,1,103.999989040375,2|0,0:0|0:0,0:0:0:0:
259,81,211431,5,2,0:2:0:0:
105,84,211605,1,2,0:2:0:0:
187,201,211780,1,2,0:2:0:0:
259,81,211954,1,2,0:2:0:0:
251,291,212129,6,0,B|194:319|194:319|123:299,1,127.999992370606,10|0,0:0|0:0,0:0:0:0:
291,151,212477,2,0,B|338:157|338:157|387:241,1,127.999992370606,2|0,0:0|0:0,0:0:0:0:
147,168,212826,1,2,0:0:0:0:
147,168,213001,1,0,0:0:0:0:
262,44,213175,2,0,B|312:25|312:25|394:59,1,127.999992370606,2|0,0:0|0:0,0:0:0:0:
264,281,213524,6,0,B|187:290|187:290|148:255,1,127.999992370606,2|0,0:0|0:0,0:0:0:0:
367,184,213873,2,0,B|402:255|402:255|379:316,1,127.999992370606,2|0,0:0|0:0,0:0:0:0:
222,155,214222,1,2,0:0:0:0:
222,155,214396,1,0,0:0:0:0:
313,54,214570,2,0,B|392:50|392:50|425:85,1,127.999992370606,2|0,0:0|0:0,0:0:0:0:
314,240,214919,6,0,B|255:258|255:258|175:208,1,127.999992370606,2|0,0:0|0:0,0:0:0:0:
117,113,215268,1,2,0:0:0:0:
117,113,215442,1,0,0:0:0:0:
272,17,215617,2,0,B|291:102|291:102|271:145,1,127.999992370606,2|0,0:0|0:0,0:0:0:0:
128,243,215966,1,2,0:0:0:0:
128,243,216140,1,0,0:0:0:0:
252,319,216315,6,0,B|322:332|322:332|375:285,1,127.999992370606,2|0,0:0|0:0,0:0:0:0:
436,207,216663,1,2,0:0:0:0:
436,207,216838,1,0,0:0:0:0:
296,122,217012,6,0,B|248:109|248:109|159:162,1,127.999992370606,2|0,0:0|0:0,0:0:0:0:
288,235,217361,1,2,0:0:0:0:
288,235,217536,1,0,0:0:0:0:
382,104,217710,5,2,0:0:0:0:
381,98,217884,1,0,0:0:0:0:
288,86,218059,1,2,0:0:0:0:
285,79,218233,1,0,0:0:0:0:
180,112,218408,1,2,0:0:0:0:
169,106,218582,1,0,0:0:0:0:
140,223,218756,1,2,0:0:0:0:
126,220,218931,1,0,0:0:0:0:
291,325,219105,5,2,0:0:0:0:
307,318,219280,1,0,0:0:0:0:
227,231,219454,1,2,0:0:0:0:
234,211,219629,1,0,0:0:0:0:
126,220,219803,1,2,0:0:0:0:
119,196,219977,1,0,0:0:0:0:
25,256,220152,1,2,0:0:0:0:
5,233,220326,1,0,0:0:0:0:
113,120,220501,5,2,2:0:0:0:
138,106,220588,1,0,0:0:0:0:
166,101,220675,1,0,0:0:0:0:
194,101,220762,1,0,0:0:0:0:
221,107,220849,1,2,2:2:0:0:
246,120,220937,1,0,0:0:0:0:
265,140,221024,1,0,0:0:0:0:
280,164,221111,1,0,0:0:0:0:
297,187,221198,1,2,2:2:0:0:
318,206,221286,1,0,0:0:0:0:
343,219,221373,1,0,0:0:0:0:
371,224,221460,1,0,0:0:0:0:
399,222,221547,1,2,2:2:0:0:
426,214,221634,1,0,0:0:0:0:
444,191,221722,1,0,0:0:0:0:
453,163,221809,1,0,0:0:0:0:
450,135,221896,6,0,P|429:130|391:126,1,47.9999956741335,2|0,0:0|0:0,0:0:0:0:
248,92,222070,1,2,0:0:0:0:
248,92,222158,1,2,0:0:0:0:
248,92,222245,2,0,P|239:130|245:157,1,47.9999956741335,2|0,0:0|0:0,0:0:0:0:
252,241,222419,1,2,0:0:0:0:
252,241,222506,1,2,0:0:0:0:
252,241,222594,6,0,P|215:255|191:254,1,47.9999956741335,2|0,0:0|0:0,0:0:0:0:
62,154,222768,2,0,P|100:153|126:161,1,47.9999956741335,2|0,0:0|0:0,0:0:0:0:
221,342,222942,6,0,P|184:356|160:355,1,47.9999956741335,2|0,0:0|0:0,0:0:0:0:
31,255,223117,2,0,P|69:254|95:262,1,47.9999956741335,2|0,0:0|0:0,0:0:0:0:
329,126,223291,6,0,B|265:144|265:144|219:111|219:111|177:144|120:129,1,215.999980533601,2|0,0:0|0:0,0:0:0:0:
156,34,223640,6,0,B|204:17|204:17|258:43|258:43|306:28,1,159.999990463257,12|0,0:0|0:0,0:0:0:0:
416,23,223902,1,0,0:0:0:0:
416,23,223989,2,0,B|443:72|443:72|413:118|413:118|412:171,1,159.999990463257,8|0,0:0|0:0,0:0:0:0:
415,346,224338,1,2,0:0:0:0:
162,204,224512,1,8,0:0:0:0:
328,69,224687,6,0,B|346:98|346:98|339:139,1,63.9999961853028,2|0,0:0|0:0,0:0:0:0:
271,271,224861,2,0,B|257:244|257:244|269:206,1,63.9999961853028
332,354,225036,6,0,P|279:375|185:318,1,159.999990463257,8|2,3:0|0:0,0:0:0:0:
164,242,225297,1,0,0:0:0:0:
164,242,225384,2,0,B|151:200|151:200|170:145,1,79.9999952316285,8|0,0:0|0:0,0:0:0:0:
254,84,225559,1,2,0:0:0:0:
426,173,225733,6,0,B|442:218|442:218|425:257|425:257|452:293|452:293|436:343,1,179.999996137619
341,284,226082,6,0,P|293:211|375:113,1,215.999980533601,2|0,0:0|0:0,0:0:0:0:
442,52,226431,6,0,B|397:49|397:49|369:23|369:23|328:52|276:33|276:33,1,159.999990463257,12|0,0:0|0:0,0:0:0:0:
195,28,226692,1,0,0:0:0:0:
189,45,226780,2,0,B|194:161|194:161|250:123,1,159.999990463257,8|0,0:0|0:0,0:0:0:0:
369,22,227129,1,2,0:0:0:0:
95,90,227303,1,8,0:0:0:0:
336,220,227477,6,0,B|369:226|369:226|406:215,1,63.9999961853028,2|0,0:0|0:0,0:0:0:0:
230,136,227652,2,0,B|199:127|199:127|157:139,1,63.9999961853028
148,321,227826,6,0,B|194:337|194:337|225:328|225:328|275:340|275:340|326:326,1,159.999990463257,8|2,0:0|0:0,0:0:0:0:
392,300,228088,1,0,0:0:0:0:
392,300,228175,1,8,0:0:0:0:
250,210,228349,1,2,0:0:0:0:
469,348,228524,6,0,P|483:272|402:207,1,179.999996137619,8|0,0:0|0:0,0:0:0:0:
327,173,228873,6,0,B|345:125|345:125|326:70|326:70|379:27|379:27|397:68,1,215.999980533601,2|0,0:0|0:0,0:0:0:0:
424,131,229222,5,12,0:0:0:0:
230,215,229396,1,0,0:0:0:0:
230,215,229483,1,0,0:0:0:0:
230,215,229570,2,0,P|211:172|217:113,1,79.9999952316285
245,40,229745,1,8,0:0:0:0:
307,243,229919,6,0,L|306:323,1,63.9999961853028
126,187,230094,2,0,L|127:107,1,63.9999961853028
341,145,230268,6,0,P|406:201|398:288,1,159.999990463257,8|0,0:0|0:0,0:0:0:0:
370,349,230530,1,0,0:0:0:0:
370,349,230617,2,0,B|412:356|412:356|452:330,1,79.9999952316285
269,317,230791,2,0,B|217:305|217:305|176:331|176:331|114:313,1,159.999990463257,8|0,0:0|0:0,0:0:0:0:
159,226,231053,1,0,0:0:0:0:
159,226,231140,2,0,P|183:211|242:210,1,79.9999952316285
383,237,231315,6,0,P|319:224|376:152,1,179.999996137619,8|0,0:3|0:0,0:0:0:0:
456,64,231663,6,0,B|398:82|398:82|347:58|347:58|292:84|243:55,1,215.999980533601,2|0,0:0|0:0,0:0:0:0:
167,16,232012,6,0,B|147:57|147:57|161:100|161:100|142:142|142:142|159:189,1,183.999992542267,12|0,0:0|0:0,0:0:0:0:
249,221,232274,1,0,0:0:0:0:
249,221,232361,2,0,P|248:154|214:116,1,91.9999962711334
63,81,232536,1,8,0:0:0:0:
100,265,232710,6,0,L|181:261,1,71.9999935112002
307,130,232884,2,0,L|222:135,1,71.9999935112002
361,237,233059,6,0,P|419:175|409:86,1,159.999990463257,8|0,0:0|0:0,0:0:0:0:
359,29,233320,1,0,0:0:0:0:
359,29,233408,2,0,L|251:17,1,91.9999962711334
503,73,233582,1,8,0:0:0:0:
307,130,233756,2,0,L|207:117,1,91.9999962711334
260,240,233931,1,0,0:0:0:0:
260,240,234018,1,0,0:0:0:0:
430,252,234454,6,0,P|440:224|435:182,1,59.9999964237214,2|0,0:0|0:0,0:0:0:0:
434,181,234803,6,0,B|396:176|396:176|371:188|371:188|323:182,1,99.9999940395356,12|0,0:0|0:0,0:0:0:0:
224,76,234977,1,2,0:0:0:0:
279,71,235065,1,0,0:0:0:0:
329,93,235152,1,2,0:0:0:0:
383,90,235239,1,0,0:0:0:0:
434,110,235326,6,0,B|454:66|454:66|428:19,1,99.9999940395356,8|0,0:0|0:0,0:0:0:0:
260,161,235501,1,2,0:0:0:0:
244,213,235588,1,0,0:0:0:0:
268,261,235675,1,2,0:0:0:0:
250,312,235762,1,0,0:0:0:0:
278,358,235849,6,0,B|326:338|326:338|375:355,1,99.9999940395356,8|0,0:0|0:0,0:0:0:0:
423,194,236024,1,2,0:0:0:0:
385,153,236111,1,0,0:0:0:0:
330,144,236198,1,2,0:0:0:0:
279,167,236286,1,0,0:0:0:0:
244,213,236373,6,0,B|198:234|198:234|145:218,1,99.9999940395356,8|0,0:0|0:0,0:0:0:0:
77,76,236547,1,2,0:0:0:0:
122,46,236634,1,0,0:0:0:0:
173,67,236722,1,2,0:0:0:0:
220,39,236809,1,0,0:0:0:0:
268,63,236896,6,0,B|316:53|316:53|350:81|350:81|412:68|412:68|430:27,1,199.999988079071,8|0,0:0|0:0,0:0:0:0:
101,208,237245,6,0,B|103:185|103:185|97:171|97:171|100:140,1,59.9999964237214,2|0,0:0|0:0,0:0:0:0:
101,208,237594,6,0,P|93:251|104:286,1,71.9999935112002,8|0,0:0|0:0,0:0:0:0:
219,348,237768,1,2,0:0:0:0:
239,318,237855,1,0,0:0:0:0:
244,282,237942,1,2,0:0:0:0:
232,247,238030,1,0,0:0:0:0:
207,220,238117,6,0,P|246:231|283:225,1,71.9999935112002,8|0,0:0|0:0,0:0:0:0:
375,124,238291,1,2,0:0:0:0:
348,98,238379,1,0,0:0:0:0:
313,89,238466,1,2,0:0:0:0:
278,97,238553,1,0,0:0:0:0:
250,119,238640,6,0,B|213:131|164:106,1,71.9999935112002,8|0,0:0|0:0,0:0:0:0:
72,56,238815,1,2,0:0:0:0:
93,84,238902,1,0,0:0:0:0:
102,118,238989,1,2,0:0:0:0:
90,151,239076,1,0,0:0:0:0:
67,178,239163,6,0,B|53:220|83:264,1,71.9999935112002,8|0,0:0|0:0,0:0:0:0:
147,309,239338,1,2,0:0:0:0:
181,320,239425,1,0,0:0:0:0:
214,308,239512,1,2,0:0:0:0:
248,316,239599,1,0,0:0:0:0:
282,304,239687,6,0,B|335:319|335:319|370:298|370:298|437:315,1,143.9999870224,8|0,0:0|0:0,0:0:0:0:
248,87,240036,6,0,B|216:100|216:100|176:93,1,59.9999964237214,2|0,0:0|0:0,0:0:0:0:
257,75,240384,6,0,P|300:66|343:75,1,83.9999924297336,8|0,0:0|0:0,0:0:0:0:
438,136,240559,1,2,0:0:0:0:
418,177,240646,1,0,0:0:0:0:
383,207,240733,1,2,0:0:0:0:
337,212,240820,1,0,0:0:0:0:
292,196,240908,6,0,B|281:239|281:239|300:276,1,83.9999924297336,8|0,0:0|0:0,0:0:0:0:
345,371,241082,1,2,0:0:0:0:
306,346,241169,1,0,0:0:0:0:
260,340,241256,1,2,0:0:0:0:
214,351,241344,1,0,0:0:0:0:
176,377,241431,6,0,B|157:340|157:340|170:282,1,83.9999924297336,8|0,0:0|0:0,0:0:0:0:
198,179,241605,1,2,0:0:0:0:
173,139,241692,1,0,0:0:0:0:
128,125,241780,1,2,0:0:0:0:
82,134,241867,1,0,0:0:0:0:
45,162,241954,6,0,B|31:204|31:204|50:246,1,83.9999924297336,8|0,0:0|0:0,0:0:0:0:
234,263,242129,1,2,0:0:0:0:
272,238,242216,1,0,0:0:0:0:
292,196,242303,1,2,0:0:0:0:
290,149,242390,1,0,0:0:0:0:
263,111,242477,6,0,B|343:136|343:136|429:77,1,167.999984859467,8|0,0:0|0:0,0:0:0:0:
429,324,242826,6,0,L|364:327,1,59.9999964237214,2|0,0:0|0:0,0:0:0:0:
288,269,243175,6,0,P|335:230|417:240,1,119.999997425079,8|2,0:0|0:0,0:0:0:0:
481,253,243437,1,0,0:0:0:0:
481,253,243524,2,0,L|480:172,1,59.9999987125397,2|0,0:0|0:0,0:0:0:0:
481,89,243698,5,8,0:0:0:0:
338,134,243873,1,2,0:0:0:0:
338,134,243960,1,0,0:0:0:0:
338,134,244047,2,0,P|303:141|259:130,1,59.9999987125397,2|0,0:0|0:0,0:0:0:0:
195,35,244222,6,0,B|252:13|252:13|310:44,1,119.999997425079,8|2,0:0|0:0,0:0:0:0:
396,64,244483,1,0,0:0:0:0:
396,64,244570,2,0,L|401:5,1,59.9999987125397,2|0,0:0|0:0,0:0:0:0:
412,192,244745,6,0,P|365:230|285:214,1,119.999997425079,8|2,0:0|0:0,0:0:0:0:
228,177,245006,1,0,0:0:0:0:
228,177,245094,2,0,L|231:111,1,59.9999987125397,2|0,0:0|0:0,0:0:0:0:
256,290,245268,6,0,B|209:309|165:279|165:279|121:289,1,131.999996160507,8|0,0:0|0:0,0:0:0:0:
90,296,245617,6,0,L|95:224,1,59.9999964237214,2|0,0:0|0:0,0:0:0:0:
93,219,245966,6,0,B|49:191|49:191|-10:213,1,99.9999940395356,12|0,0:0|0:0,0:0:0:0:
115,68,246140,1,2,0:0:0:0:
169,58,246227,1,0,0:0:0:0:
223,49,246315,1,2,0:0:0:0:
270,77,246402,1,0,0:0:0:0:
308,116,246489,6,0,B|325:167|325:167|293:219,1,99.9999940395356,8|0,0:0|0:0,0:0:0:0:
224,263,246663,1,2,0:0:0:0:
252,310,246751,1,0,0:0:0:0:
285,353,246838,1,2,0:0:0:0:
339,353,246925,1,0,0:0:0:0:
393,344,247012,6,0,B|443:335|443:335|481:368,1,99.9999940395356,8|0,0:0|0:0,0:0:0:0:
451,208,247187,1,2,0:0:0:0:
403,180,247274,1,0,0:0:0:0:
352,200,247361,1,2,0:0:0:0:
304,172,247448,1,0,0:0:0:0:
251,190,247536,6,0,B|214:187|214:187|188:203|188:203|146:199,1,99.9999940395356,8|0,0:0|0:0,0:0:0:0:
61,267,247710,1,2,0:0:0:0:
84,316,247797,1,0,0:0:0:0:
132,341,247884,1,2,0:0:0:0:
187,341,247972,1,0,0:0:0:0:
232,316,248059,6,0,B|300:309|300:309|312:318|312:318|326:293|326:293|338:303|338:303|421:295,1,199.999988079071,8|0,0:0|0:0,0:0:0:0:
445,74,248408,6,0,L|376:79,1,59.9999964237214,2|0,0:0|0:0,0:0:0:0:
377,95,248756,6,0,P|341:112|291:111,1,71.9999935112002,8|0,0:0|0:0,0:0:0:0:
209,68,248931,1,2,0:0:0:0:
173,72,249018,1,0,0:0:0:0:
137,76,249105,1,2,0:0:0:0:
101,82,249192,1,0,0:0:0:0:
65,87,249280,6,0,P|54:131|67:177,1,71.9999935112002,8|0,0:0|0:0,0:0:0:0:
119,264,249454,1,2,0:0:0:0:
153,252,249541,1,0,0:0:0:0:
182,231,249629,1,2,0:0:0:0:
200,200,249716,1,0,0:0:0:0:
201,164,249803,6,0,P|229:197|245:236,1,71.9999935112002,8|0,0:0|0:0,0:0:0:0:
328,274,249977,1,2,0:0:0:0:
339,239,250065,1,0,0:0:0:0:
338,203,250152,1,2,0:0:0:0:
327,168,250239,1,0,0:0:0:0:
305,139,250326,6,0,P|347:144|385:165,1,71.9999935112002,8|0,0:0|0:0,0:0:0:0:
475,165,250501,1,2,0:0:0:0:
475,128,250588,1,0,0:0:0:0:
463,94,250675,1,2,0:0:0:0:
441,64,250762,1,0,0:0:0:0:
412,45,250849,6,0,B|416:22|444:10|444:10|410:22|353:14,1,131.999996160507,8|0,0:0|0:0,0:0:0:0:
317,13,251198,6,0,L|242:24,1,59.9999964237214,2|0,0:0|0:0,0:0:0:0:
232,25,251547,6,0,B|220:68|220:68|246:122,1,83.9999924297336,8|0,0:0|0:0,0:0:0:0:
310,205,251722,1,2,0:0:0:0:
275,235,251809,1,0,0:0:0:0:
229,241,251896,1,2,0:0:0:0:
183,232,251983,1,0,0:0:0:0:
148,201,252070,6,0,P|133:166|144:110,1,83.9999924297336,8|0,0:0|0:0,0:0:0:0:
314,125,252245,1,2,0:0:0:0:
334,166,252332,1,0,0:0:0:0:
310,205,252419,1,2,0:0:0:0:
333,244,252506,1,0,0:0:0:0:
314,286,252594,6,0,B|302:328|302:328|323:370,1,83.9999924297336,8|0,0:0|0:0,0:0:0:0:
456,191,252768,1,2,0:0:0:0:
423,158,252855,1,0,0:0:0:0:
378,151,252942,1,2,0:0:0:0:
334,166,253030,1,0,0:0:0:0:
310,205,253117,6,0,P|265:219|200:204,1,83.9999924297336,8|0,0:0|0:0,0:0:0:0:
100,100,253291,1,2,0:0:0:0:
125,61,253379,1,0,0:0:0:0:
167,44,253466,1,2,0:0:0:0:
212,52,253553,1,0,0:0:0:0:
248,80,253640,6,0,B|321:77|321:77|348:91|348:91|418:88,1,167.999984859467,8|0,0:0|0:0,0:0:0:0:
358,340,253989,6,0,L|285:335,1,59.9999964237214,2|0,0:0|0:0,0:0:0:0:
371,350,254338,6,0,P|376:314|363:276,1,59.9999987125397,8|0,0:0|0:0,0:0:0:0:
315,205,254512,1,2,0:0:0:0:
291,186,254599,1,0,0:0:0:0:
261,179,254687,1,2,0:0:0:0:
231,185,254774,1,0,0:0:0:0:
205,201,254861,6,0,P|162:210|130:204,1,59.9999987125397,8|0,0:0|0:0,0:0:0:0:
220,99,255036,1,2,0:0:0:0:
249,91,255123,1,0,0:0:0:0:
287,89,255210,1,2,0:0:0:0:
326,109,255297,1,0,0:0:0:0:
363,144,255384,5,10,0:0:0:0:
430,165,255472,1,2,0:0:0:0:
489,126,255559,1,2,0:0:0:0:
496,56,255646,1,2,0:0:0:0:
441,12,255733,2,0,B|367:9|367:9|355:20|355:20|285:16,1,159.999990463257,10|2,0:0|0:0,0:0:0:0:
220,99,255995,1,0,0:0:0:0:
220,98,256082,6,0,P|209:137|221:177,1,79.9999952316285,2|0,0:0|0:0,0:0:0:0:
303,284,256256,2,0,P|226:251|145:283,1,159.999990463257,8|0,0:0|0:0,0:0:0:0:
389,374,256605,1,2,0:0:0:0:
315,136,256780,6,0,L|320:48,1,79.9999952316285,2|0,0:0|0:0,0:0:0:0:
413,105,257041,1,0,0:0:0:0:
413,105,257129,6,0,P|420:138|407:186,1,79.9999952316285,12|0,0:0|0:0,0:0:0:0:
219,174,257303,2,0,P|211:140|224:92,1,79.9999952316285,2|0,0:0|0:0,0:0:0:0:
307,263,257477,1,2,0:0:0:0:
303,295,257565,1,0,0:0:0:0:
299,324,257652,6,0,P|263:336|206:330,1,79.9999952316285,8|0,0:0|0:0,0:0:0:0:
409,182,257826,2,0,P|445:170|502:176,1,79.9999952316285,2|0,0:0|0:0,0:0:0:0:
507,359,258001,1,2,0:0:0:0:
479,347,258088,1,0,0:0:0:0:
450,333,258175,6,0,B|437:293|437:293|452:251,1,79.9999952316285,8|0,0:0|0:0,0:0:0:0:
478,87,258349,1,2,0:0:0:0:
444,52,258437,1,0,0:0:0:0:
397,39,258524,1,2,0:0:0:0:
349,47,258611,1,0,0:0:0:0:
311,76,258698,6,0,P|254:90|203:80,1,79.9999952316285,8|0,0:0|0:0,0:0:0:0:
173,249,258873,1,2,0:0:0:0:
173,249,258960,1,0,0:0:0:0:
173,249,259047,2,0,P|176:197|162:157,1,79.9999952316285,2|0,0:0|0:0,0:0:0:0:
59,24,259222,6,0,B|95:44|95:44|117:44|117:44|97:66|97:66|119:66|119:66|174:104,1,159.999990463257,8|0,0:0|0:0,0:0:0:0:
349,239,259570,6,0,B|315:215|315:215|311:195|311:195|290:195|290:195|248:164,1,119.999992847443,2|0,0:0|0:0,0:0:0:0:
333,108,259919,6,0,P|374:128|387:147,1,67.9999972438812,8|0,0:0|0:0,0:0:0:0:
273,288,260094,2,0,P|231:267|218:248,1,67.9999972438812,2|0,0:0|0:0,0:0:0:0:
178,106,260268,1,2,0:0:0:0:
178,106,260355,1,0,0:0:0:0:
178,106,260442,6,0,B|211:94|211:94|243:103,1,67.9999972438812,8|0,0:0|0:0,0:0:0:0:
75,46,260617,1,2,0:0:0:0:
54,81,260704,1,0,0:0:0:0:
52,121,260791,1,2,0:0:0:0:
68,158,260879,1,0,0:0:0:0:
99,183,260966,6,0,P|137:194|184:186,1,67.9999972438812,8|0,0:0|0:0,0:0:0:0:
277,155,261140,1,2,0:0:0:0:
294,118,261227,1,0,0:0:0:0:
292,76,261315,1,2,0:0:0:0:
273,39,261402,1,0,0:0:0:0:
238,16,261489,6,0,P|200:5|153:13,1,67.9999972438812,8|0,0:0|0:0,0:0:0:0:
193,194,261663,1,2,0:0:0:0:
214,228,261751,1,0,0:0:0:0:
196,264,261838,1,2,0:0:0:0:
225,292,261925,1,0,0:0:0:0:
209,329,262012,6,0,B|225:291|225:291|197:264|197:264|215:227|215:227|193:193,1,159.999990463257,8|0,0:0|0:0,0:0:0:0:
396,101,262361,6,0,L|401:202,1,79.9999952316285,2|0,0:0|0:0,0:0:0:0:
307,135,262623,1,0,0:0:0:0:
307,135,262710,6,0,P|297:95|312:53,1,71.9999935112002,8|0,0:0|0:0,0:0:0:0:
480,57,262884,2,0,P|494:95|485:138,1,71.9999935112002,2|0,0:0|0:0,0:0:0:0:
401,250,263059,1,2,0:0:0:0:
399,215,263146,1,0,0:0:0:0:
399,180,263233,6,0,L|396:86,1,71.9999935112002,8|0,0:0|0:0,0:0:0:0:
238,41,263408,1,2,0:0:0:0:
235,76,263495,1,0,0:0:0:0:
232,116,263582,1,2,0:0:0:0:
228,151,263669,1,0,0:0:0:0:
225,186,263756,6,0,L|221:272,1,71.9999935112002,8|0,0:0|0:0,0:0:0:0:
98,335,263931,1,2,0:0:0:0:
96,299,264018,1,0,0:0:0:0:
94,263,264105,1,2,0:0:0:0:
92,227,264192,1,0,0:0:0:0:
90,191,264280,6,0,L|86:105,1,71.9999935112002,8|0,0:0|0:0,0:0:0:0:
315,211,264454,1,2,0:0:0:0:
313,246,264541,1,0,0:0:0:0:
310,282,264629,1,2,0:0:0:0:
307,317,264716,1,0,0:0:0:0:
304,352,264803,6,0,B|308:300|308:300|335:276|335:276|341:189,1,143.9999870224,8|0,0:0|0:0,0:0:0:0:
188,43,265152,6,0,B|178:72|178:72|187:100|187:100|179:129|179:129|191:160,1,119.999992847443
200,167,265501,6,0,B|229:175|229:175|259:164,1,59.9999987125397,8|0,0:0|0:0,0:0:0:0:
387,76,265675,1,2,0:0:0:0:
357,73,265762,1,0,0:0:0:0:
327,70,265849,1,2,0:0:0:0:
296,66,265937,1,0,0:0:0:0:
266,61,266024,6,0,P|257:31|260:-5,1,59.9999987125397,8|0,0:0|0:0,0:0:0:0:
342,161,266198,1,2,0:0:0:0:
372,158,266286,1,0,0:0:0:0:
402,155,266373,1,2,0:0:0:0:
433,151,266460,1,0,0:0:0:0:
463,146,266547,6,0,P|473:116|469:80,1,59.9999987125397,8|0,0:0|0:0,0:0:0:0:
345,253,266722,1,2,0:0:0:0:
317,239,266809,1,0,0:0:0:0:
290,226,266896,1,2,0:0:0:0:
262,212,266983,1,0,0:0:0:0:
236,197,267070,6,0,P|246:165|267:139,1,59.9999987125397,8|0,0:0|0:0,0:0:0:0:
384,346,267245,1,2,0:0:0:0:
411,332,267332,1,0,0:0:0:0:
438,319,267419,1,2,0:0:0:0:
466,305,267506,1,0,0:0:0:0:
492,290,267594,6,0,P|483:262|458:228,1,59.9999987125397,8|0,0:0|0:0,0:0:0:0:
103,198,267942,6,0,L|107:297,1,79.9999952316285,2|0,0:0|0:0,0:0:0:0:
202,201,268204,1,0,0:0:0:0:
202,201,268291,6,0,P|191:156|163:122,1,79.9999952316285,12|0,0:0|0:0,0:0:0:0:
33,136,268466,2,0,P|12:169|6:209,1,79.9999952316285,2|0,0:0|0:0,0:0:0:0:
109,356,268640,1,2,0:0:0:0:
148,362,268727,1,0,0:0:0:0:
187,368,268815,6,0,B|229:376|229:376|265:360,1,79.9999952316285,8|0,0:0|0:0,0:0:0:0:
352,272,268989,1,2,0:0:0:0:
347,232,269076,1,0,0:0:0:0:
324,198,269163,1,2,0:0:0:0:
287,180,269251,1,0,0:0:0:0:
247,176,269338,6,0,B|238:215|238:215|256:258,1,79.9999952316285,8|0,0:0|0:0,0:0:0:0:
92,325,269512,1,2,0:0:0:0:
78,286,269599,1,0,0:0:0:0:
84,246,269687,1,2,0:0:0:0:
110,213,269774,1,0,0:0:0:0:
144,192,269861,6,0,B|166:229|166:229|157:271,1,79.9999952316285,8|0,0:0|0:0,0:0:0:0:
352,272,270036,1,2,0:0:0:0:
347,232,270123,1,0,0:0:0:0:
324,198,270210,1,2,0:0:0:0:
287,180,270297,1,0,0:0:0:0:
247,176,270384,6,0,B|238:215|238:215|264:259|264:259|240:295|248:339,1,159.999990463257,8|0,0:0|0:0,0:0:0:0:
188,119,270733,6,0,B|180:96|192:71|192:71|173:67|173:67|186:37|178:7,1,119.999992847443,2|0,0:0|0:0,0:0:0:0:
178,4,271082,6,0,P|215:0|263:17,1,67.9999972438812,8|0,0:0|0:0,0:0:0:0:
361,45,271256,1,2,0:0:0:0:
373,76,271344,1,0,0:0:0:0:
372,109,271431,1,2,0:0:0:0:
357,139,271518,1,0,0:0:0:0:
332,162,271605,6,0,P|364:182|414:186,1,67.9999972438812,8|0,0:0|0:0,0:0:0:0:
230,201,271780,1,2,0:0:0:0:
218,170,271867,1,0,0:0:0:0:
219,137,271954,1,2,0:0:0:0:
234,107,272041,1,0,0:0:0:0:
259,83,272129,6,0,P|227:62|176:58,1,67.9999972438812,8|0,0:0|0:0,0:0:0:0:
278,264,272303,1,2,0:0:0:0:
287,296,272390,1,0,0:0:0:0:
282,329,272477,1,2,0:0:0:0:
262,357,272565,1,0,0:0:0:0:
231,371,272652,6,0,P|187:373|137:346,1,67.9999972438812,8|0,0:0|0:0,0:0:0:0:
351,209,272826,1,2,0:0:0:0:
383,217,272913,1,0,0:0:0:0:
409,238,273001,1,2,0:0:0:0:
423,269,273088,1,0,0:0:0:0:
420,303,273175,6,0,B|401:349|353:368|353:368|359:307,1,135.999994487762,8|0,0:0|0:0,0:0:0:0:
306,128,273524,6,0,B|316:88|316:88|363:64|363:64,1,79.9999952316285,2|0,0:0|0:0,0:0:0:0:
351,209,273786,1,0,0:0:0:0:
351,209,273873,6,0,P|313:224|271:216,1,71.9999935112002,8|0,0:0|0:0,0:0:0:0:
203,141,274047,2,0,P|155:127|110:132,1,71.9999935112002,2|0,0:0|0:0,0:0:0:0:
107,244,274222,1,2,0:0:0:0:
112,279,274309,1,0,0:0:0:0:
119,314,274396,6,0,B|157:321|157:321|190:303,1,71.9999935112002,8|0,0:0|0:0,0:0:0:0:
351,209,274570,1,2,0:0:0:0:
347,244,274658,1,0,0:0:0:0:
341,279,274745,1,2,0:0:0:0:
335,314,274832,1,0,0:0:0:0:
328,349,274919,6,0,B|291:356|291:356|257:338,1,71.9999935112002,8|0,0:0|0:0,0:0:0:0:
211,204,275094,1,2,0:0:0:0:
205,169,275181,1,0,0:0:0:0:
201,133,275268,1,2,0:0:0:0:
197,98,275355,1,0,0:0:0:0:
194,63,275442,6,0,B|228:45|228:45|265:54,1,71.9999935112002,8|0,0:0|0:0,0:0:0:0:
384,158,275617,1,2,0:0:0:0:
390,123,275704,1,0,0:0:0:0:
394,87,275791,1,2,0:0:0:0:
398,52,275879,1,0,0:0:0:0:
401,17,275966,6,0,B|357:1|357:1|347:104,1,143.9999870224,8|0,0:0|0:0,0:0:0:0:
143,236,276315,6,0,B|139:204|139:204|151:173|151:173|144:144|157:109,1,119.999992847443,2|0,0:0|0:0,0:0:0:0:
159,98,276663,6,0,P|162:138|183:180,1,59.9999987125397,8|0,0:0|0:0,0:0:0:0:
268,230,276838,1,2,0:0:0:0:
297,233,276925,1,0,0:0:0:0:
324,221,277012,1,2,0:0:0:0:
345,200,277099,1,0,0:0:0:0:
351,170,277187,6,0,P|342:130|320:105,1,59.9999987125397,8|0,0:0|0:0,0:0:0:0:
229,36,277361,1,2,0:0:0:0:
257,26,277448,1,0,0:0:0:0:
286,32,277536,1,2,0:0:0:0:
314,21,277623,1,0,0:0:0:0:
428,205,277884,2,0,L|413:296,1,71.9999935112002,2|0,0:0|0:0,0:0:0:0:
320,310,278059,6,0,B|279:317|279:317|243:306|243:306|201:314|201:314|148:301,1,143.9999870224,8|0,0:0|0:0,0:0:0:0:
121,224,278320,1,0,0:0:0:0:
121,224,278408,6,0,P|157:204|213:216,1,79.9999952316285,2|0,0:0|0:0,0:0:0:0:
297,223,278582,2,0,B|315:185|315:185|300:132,1,79.9999952316285,8|0,0:0|0:0,0:0:0:0:
167,70,278756,2,0,B|190:104|190:104|244:118,1,79.9999952316285,10|0,0:3|0:0,0:0:0:0:
369,38,278931,2,0,B|327:41|327:41|288:80,1,79.9999952316285,10|0,0:3|0:0,0:0:0:0:
297,223,279105,5,14,0:0:0:0:
328,102,281896,5,2,0:0:0:0:
188,252,282245,2,0,P|135:259|98:247,1,79.9999952316285,2|0,0:0|0:0,0:0:0:0:
152,157,282594,1,0,0:0:0:0:
278,227,282768,2,0,P|282:266|265:309,1,79.9999952316285,2|0,0:0|0:0,0:0:0:0:
179,364,283117,1,0,0:0:0:0:
354,324,283291,6,0,P|399:325|444:342,1,79.9999952316285,2|0,0:0|0:0,0:0:0:0:
396,223,283640,1,0,0:0:0:0:
272,296,283815,2,0,P|234:297|191:277,1,79.9999952316285,2|0,0:0|0:0,0:0:0:0:
141,192,284163,1,0,0:0:0:0:
271,106,284338,2,0,L|275:206,1,79.9999952316285,2|0,0:0|0:0,0:0:0:0:
280,223,284599,1,0,0:0:0:0:
280,223,284687,6,0,B|322:211|322:211|368:237,1,87.9999974403381,2|2,0:0|0:0,0:0:0:0:
452,91,285036,2,0,P|401:66|351:67,1,87.9999974403381,0|2,0:0|0:0,0:0:0:0:
271,106,285384,1,0,0:0:0:0:
405,206,285559,2,0,P|464:198|495:204,1,87.9999974403381,2|0,0:0|0:0,0:0:0:0:
455,305,285908,1,0,0:0:0:0:
278,256,286082,6,0,P|250:211|244:170,1,87.9999974403381,2|0,0:0|0:0,0:0:0:0:
187,286,286431,1,0,0:0:0:0:
337,168,286605,2,0,P|350:120|344:76,1,87.9999974403381,2|0,0:0|0:0,0:0:0:0:
263,16,286954,1,0,0:0:0:0:
143,99,287129,2,0,L|149:195,1,87.9999974403381,2|0,0:0|0:0,0:0:0:0:
168,215,287390,1,0,0:0:0:0:
168,215,287477,6,0,B|124:197|124:197|74:211,1,95.9999913482669,2|0,0:0|0:0,0:0:0:0:
267,302,287826,2,0,P|291:250|290:211,1,95.9999913482669,2|0,0:0|0:0,0:0:0:0:
226,105,288175,1,0,0:0:0:0:
376,179,288349,2,0,P|427:185|481:166,1,95.9999913482669,2|0,0:0|0:0,0:0:0:0:
394,53,288698,1,0,0:0:0:0:
252,228,288873,6,0,P|198:239|148:227,1,95.9999913482669,2|0,0:0|0:0,0:0:0:0:
67,133,289222,1,0,0:0:0:0:
129,335,289396,2,0,P|185:351|228:345,1,95.9999913482669,2|0,0:0|0:0,0:0:0:0:
386,264,289745,1,0,0:0:0:0:
237,134,289919,1,2,0:0:0:0:
227,135,290006,1,2,0:0:0:0:
217,136,290094,1,2,0:0:0:0:
207,137,290181,1,2,0:0:0:0:
183,124,290268,6,0,P|228:101|344:177,1,203.999991731644,2|0,0:0|0:0,0:0:0:0:
346,197,290617,2,0,L|351:114,1,67.9999972438812,2|0,0:0|0:0,0:0:0:0:
420,265,290791,2,0,P|356:305|284:283,1,135.999994487762,2|0,0:0|0:0,0:0:0:0:
218,238,291053,1,0,0:0:0:0:
218,238,291140,2,0,B|189:227|171:198|171:198|175:340,1,203.999991731644,8|0,0:0|0:0,0:0:0:0:
176,373,291489,2,0,P|218:376|252:364,1,67.9999972438812,2|0,0:0|0:0,0:0:0:0:
309,170,291663,6,0,B|276:122|214:121|214:121|272:113|287:55,1,203.999991731644,2|0,0:0|0:0,0:0:0:0:
404,168,292012,2,0,P|398:215|375:244,1,67.9999972438812,2|0,0:0|0:0,0:0:0:0:
217,258,292187,2,0,P|278:262|333:326,1,135.999994487762,2|0,0:0|0:0,0:0:0:0:
241,354,292448,1,0,0:0:0:0:
241,354,292536,2,0,B|205:372|205:372|147:342|147:342|115:356|115:356|93:338|52:333,1,203.999991731644,8|0,0:0|0:0,0:0:0:0:
33,322,292884,2,0,P|72:306|117:304,1,67.9999972438812,2|0,0:0|0:0,0:0:0:0:
217,258,293059,6,0,B|170:206|92:224|92:224|137:213|167:161,1,203.999991731644,2|0,0:0|0:0,0:0:0:0:
227,121,293408,2,0,P|189:91|152:85,1,67.9999972438812,2|0,0:0|0:0,0:0:0:0:
302,205,293582,2,0,P|369:183|398:124,1,135.999994487762,2|0,0:0|0:0,0:0:0:0:
394,40,293844,1,0,0:0:0:0:
394,40,293931,2,0,B|375:87|375:87|398:130|398:130|366:177|391:234,1,203.999991731644,8|0,0:0|0:0,0:0:0:0:
491,186,294280,2,0,P|500:148|494:117,1,67.9999972438812,2|0,0:0|0:0,0:0:0:0:
318,306,294454,6,0,P|393:338|483:261,1,203.999991731644,2|0,0:0|0:0,0:0:0:0:
389,229,294803,2,0,P|358:222|316:224,1,67.9999972438812,2|0,0:0|0:0,0:0:0:0:
202,254,294977,2,0,B|178:192|178:192|212:122,1,135.999994487762,2|0,0:0|0:0,0:0:0:0:
268,45,295239,1,0,0:0:0:0:
268,45,295326,2,0,B|213:59|166:17|166:17|126:45|126:45|76:35,1,203.999991731644,8|0,0:0|0:0,0:0:0:0:
47,151,295675,2,0,P|82:158|120:148,1,67.9999972438812,2|0,0:0|0:0,0:0:0:0:
278,162,295849,6,0,P|249:230|112:232,1,203.999991731644,2|0,0:0|0:0,0:0:0:0:
43,230,296198,2,0,B|35:266|35:266|50:307,1,67.9999972438812,2|0,0:0|0:0,0:0:0:0:
184,159,296373,2,0,B|178:108|178:108|200:80|200:80|193:19,1,135.999994487762,2|0,0:0|0:0,0:0:0:0:
100,17,296634,1,0,0:0:0:0:
100,17,296722,2,0,P|41:85|105:168,1,203.999991731644,8|0,0:0|0:0,0:0:0:0:
184,159,297070,2,0,P|226:155|260:168,1,67.9999972438812,2|0,0:0|0:0,0:0:0:0:
350,236,297245,6,0,B|301:265|301:265|203:241|203:241|157:264,1,203.999991731644
171,355,297594,2,0,B|204:356|204:356|241:325,1,67.9999972438812,2|0,0:0|0:0,0:0:0:0:
250,162,297768,2,0,P|240:92|171:51,1,135.999994487762,2|0,0:0|0:0,0:0:0:0:
322,71,298030,1,0,0:0:0:0:
322,71,298117,2,0,B|362:64|383:43|383:43|344:111|394:193,1,203.999991731644,8|0,0:0|0:0,0:0:0:0:
314,265,298466,2,0,P|309:224|321:188,1,67.9999972438812,2|0,0:0|0:0,0:0:0:0:
437,327,298640,6,0,B|400:353|400:353|367:337|367:337|328:355|328:355|288:326|228:345,1,203.999991731644,2|0,0:0|0:0,0:0:0:0:
165,357,298989,2,0,P|156:320|167:276,1,67.9999972438812,2|0,0:0|0:0,0:0:0:0:
228,178,299163,2,0,P|175:211|102:198,1,135.999994487762,2|0,0:0|0:0,0:0:0:0:
153,105,299425,1,0,0:0:0:0:
153,105,299512,2,0,B|210:47|282:85|282:85|260:54|264:15,1,203.999991731644,8|0,0:0|0:0,0:0:0:0:
362,25,299861,2,0,P|379:65|378:109,1,67.9999972438812,2|0,0:0|0:0,0:0:0:0:
315,173,300036,6,0,B|357:203|401:180|401:180|425:193|425:193|467:170|508:189,1,203.999991731644,2|0,0:0|0:0,0:0:0:0:
472,278,300384,2,0,P|430:292|400:288,1,67.9999972438812,2|0,0:0|0:0,0:0:0:0:
280,246,300559,2,0,P|218:232|146:275,1,135.999994487762,2|0,0:0|0:0,0:0:0:0:
229,333,300820,1,0,0:0:0:0:
233,337,300908,2,0,P|286:348|325:339,1,67.9999972438812,8|0,0:0|0:0,0:0:0:0:
363,202,301082,6,0,L|365:180,1,19.9999988079071,2|0,0:0|0:0,0:0:0:0:
304,127,301256,2,0,L|306:107,1,19.9999988079071,2|0,0:0|0:0,0:0:0:0:
210,84,301431,6,0,P|165:97|129:249,1,215.999980533601,2|0,0:0|0:0,0:0:0:0:
223,256,301780,2,0,B|226:219|226:219|210:188,1,71.9999935112002,2|0,0:0|0:0,0:0:0:0:
19,223,301954,2,0,B|14:260|14:260|31:291|31:291|30:326|30:326|48:357,1,143.9999870224,2|0,0:0|0:0,0:0:0:0:
145,354,302216,1,0,0:0:0:0:
145,354,302303,2,0,B|161:310|141:259|141:259|121:240|121:240|101:192|123:139,1,215.999980533601,8|0,0:0|0:0,0:0:0:0:
164,73,302652,2,0,P|197:105|208:142,1,71.9999935112002,2|0,0:0|0:0,0:0:0:0:
270,271,302826,6,0,B|263:193|263:193|292:165|292:165|281:68,1,215.999980533601,2|0,0:0|0:0,0:0:0:0:
369,109,303175,2,0,L|442:100,1,71.9999935112002,2|0,0:0|0:0,0:0:0:0:
183,247,303349,2,0,P|122:260|57:194,1,143.9999870224,2|0,0:0|0:0,0:0:0:0:
54,123,303611,1,0,0:0:0:0:
54,123,303698,2,0,B|125:121|125:121|155:147|155:147|180:117|180:117|262:112,1,215.999980533601,8|0,0:0|0:0,0:0:0:0:
304,46,304047,2,0,P|255:25|216:32,1,71.9999935112002,2|0,0:0|0:0,0:0:0:0:
250,206,304222,6,0,B|289:204|314:178|314:178|347:192|347:192|373:169|373:169|416:188|454:175,1,215.999980533601,2|0,0:0|0:0,0:0:0:0:
423,94,304570,2,0,P|412:63|380:37,1,71.9999935112002,2|0,0:0|0:0,0:0:0:0:
315,275,304745,2,0,B|358:288|358:288|393:267|393:267|422:289|470:278,1,143.9999870224,2|0,0:0|0:0,0:0:0:0:
405,361,305006,1,0,0:0:0:0:
405,361,305094,2,0,B|348:375|348:375|246:339|246:339|187:352,1,215.999980533601,8|0,0:0|0:0,0:0:0:0:
128,267,305442,2,0,P|180:261|210:270,1,71.9999935112002,2|0,0:0|0:0,0:0:0:0:
64,348,305617,6,0,P|25:277|106:173,1,215.999980533601,2|0,0:0|0:0,0:0:0:0:
184,170,305966,2,0,P|192:135|184:95,1,71.9999935112002,2|0,0:0|0:0,0:0:0:0:
115,13,306140,2,0,B|152:34|152:34|189:21|189:21|218:39|267:34,1,143.9999870224,2|0,0:0|0:0,0:0:0:0:
328,19,306402,1,0,0:0:0:0:
328,19,306489,6,0,B|324:86,1,43.9999987201691,8|0,0:0|0:0,0:0:0:0:
385,127,306663,2,0,L|383:180,1,43.9999987201691
301,221,306838,6,0,L|297:310,1,71.9999935112002,2|0,0:0|0:0,0:0:0:0:
457,345,307012,6,0,B|459:290|459:290|477:269|477:269|478:214|478:214|461:192|461:192|462:140,1,215.999980533601,2|0,0:0|0:0,0:0:0:0:
465,43,307361,2,0,B|430:29|430:29|385:45,1,71.9999935112002,2|0,0:0|0:0,0:0:0:0:
301,122,307536,2,0,P|221:122|174:76,1,143.9999870224,2|0,0:0|0:0,0:0:0:0:
207,201,307797,1,0,0:0:0:0:
207,201,307884,2,0,B|249:264|224:339|224:339|240:307|288:282,1,215.999980533601,8|0,0:0|0:0,0:0:0:0:
351,243,308233,2,0,P|312:205|280:200,1,71.9999935112002,2|0,0:0|0:0,0:0:0:0:
138,263,308408,6,0,B|124:297|137:334|137:334|53:315|45:208,1,215.999980533601,2|0,0:0|0:0,0:0:0:0:
43,131,308756,2,0,P|88:118|130:127,1,71.9999935112002,2|0,0:0|0:0,0:0:0:0:
207,201,308931,2,0,P|284:178|314:113,1,143.9999870224,2|0,0:0|0:0,0:0:0:0:
259,39,309192,1,0,0:0:0:0:
259,39,309280,2,0,B|210:52|210:52|172:28|172:28|127:49|127:49|92:28|34:39,1,215.999980533601,8|0,0:0|0:0,0:0:0:0:
76,125,309629,2,0,P|113:141|160:134,1,71.9999935112002
267,128,309803,6,0,P|278:154|208:272,1,143.9999870224,2|0,0:0|0:0,0:0:0:0:
161,308,310065,1,0,0:0:0:0:
161,308,310152,2,0,P|186:344|193:380,1,71.9999935112002,2|0,0:0|0:0,0:0:0:0:
68,281,310326,2,0,P|101:230|187:216,1,143.9999870224,2|0,0:0|0:0,0:0:0:0:
257,249,310588,1,0,0:0:0:0:
257,249,310675,2,0,B|327:279|327:279|398:230,1,143.9999870224,8|0,0:0|0:0,0:0:0:0:
441,169,310937,1,0,0:0:0:0:
441,169,311024,2,0,P|404:153|367:151,1,71.9999935112002,2|0,0:0|0:0,0:0:0:0:
202,179,311198,6,0,P|233:161|268:155,1,71.9999935112002,2|0,0:0|0:0,0:0:0:0:
318,94,311373,2,0,L|316:35,1,47.9999956741335
322,250,311547,1,2,0:0:0:0:
202,179,311722,2,0,P|181:136|179:77,1,95.9999913482669,2|0,0:0|0:0,0:0:0:0:
441,169,312070,1,2,0:0:0:0:
250,276,312245,6,0,B|215:286|215:286|177:269,1,71.9999935112002,10|0,0:3|0:0,0:0:0:0:
385,77,312419,2,0,B|420:67|420:67|458:84,1,71.9999935112002,10|0,0:3|0:0,0:0:0:0:
320,174,312594,6,0,P|273:140|176:160,1,135.999994487762,2|0,0:0|0:0,0:0:0:0:
128,183,312855,1,0,0:0:0:0:
128,183,312942,2,0,P|120:150|125:117,1,67.9999972438812,2|0,0:0|0:0,0:0:0:0:
198,235,313117,2,0,P|142:271|37:188,1,203.999991731644,2|0,0:0|0:0,0:0:0:0:
37,124,313466,2,0,B|25:76|57:34|57:34|34:48|9:51,1,135.999994487762,8|0,0:0|0:0,0:0:0:0:
125,101,313727,1,0,0:0:0:0:
125,101,313815,2,0,P|173:107|207:101,1,67.9999972438812,2|0,0:0|0:0,0:0:0:0:
316,35,313989,6,0,B|323:82|323:82|303:115|303:115|312:176,1,135.999994487762,2|0,0:0|0:0,0:0:0:0:
323,250,314251,1,0,0:0:0:0:
323,250,314338,2,0,B|353:260|353:260|387:244,1,67.9999972438812,2|0,0:0|0:0,0:0:0:0:
230,183,314512,2,0,B|178:177|140:222|140:222|100:181|47:191,1,203.999991731644,2|0,0:0|0:0,0:0:0:0:
66,276,314861,2,0,P|132:315|196:296,1,135.999994487762,8|0,0:0|0:0,0:0:0:0:
251,262,315123,1,0,0:0:0:0:
251,262,315210,2,0,P|262:304|256:340,1,67.9999972438812,2|0,0:0|0:0,0:0:0:0:
140,220,315384,6,0,B|125:152|125:152|178:90,1,135.999994487762,2|0,0:0|0:0,0:0:0:0:
180,23,315646,1,0,0:0:0:0:
180,23,315733,2,0,L|100:11,1,67.9999972438812,2|0,0:0|0:0,0:0:0:0:
241,127,315908,2,0,P|327:136|378:31,1,203.999991731644,2|0,0:0|0:0,0:0:0:0:
293,55,316256,2,0,B|295:107|295:107|309:127|309:127|311:187,1,135.999994487762,8|0,0:0|0:0,0:0:0:0:
312,269,316518,1,0,0:0:0:0:
312,269,316605,2,0,B|345:277|345:277|381:262,1,67.9999972438812,2|0,0:0|0:0,0:0:0:0:
211,208,316780,6,0,B|179:195|179:195|149:213|149:213|116:200|116:200|84:218,1,135.999994487762,2|0,0:0|0:0,0:0:0:0:
23,269,317041,1,0,0:0:0:0:
23,269,317129,2,0,P|21:310|38:346,1,67.9999972438812,2|0,0:0|0:0,0:0:0:0:
74,131,317303,2,0,B|88:85|67:53|67:53|119:103|202:73,1,203.999991731644,2|0,0:0|0:0,0:0:0:0:
256,48,317652,2,0,B|290:34|290:34|351:51|351:51|385:33,1,135.999994487762,8|0,0:0|0:0,0:0:0:0:
430,276,318001,2,0,L|356:268,1,67.9999972438812,2|0,0:0|0:0,0:0:0:0:
294,156,318175,6,0,B|352:161|352:161|364:180|364:180|427:187,1,135.999994487762,2|0,0:0|0:0,0:0:0:0:
471,118,318437,1,0,0:0:0:0:
471,118,318524,2,0,P|439:104|401:104,1,67.9999972438812,2|0,0:0|0:0,0:0:0:0:
279,245,318698,2,0,P|216:204|235:83,1,203.999991731644,2|0,0:0|0:0,0:0:0:0:
273,21,319047,2,0,B|254:6|254:6|171:20|171:20|157:43,1,135.999994487762,8|0,0:0|0:0,0:0:0:0:
116,124,319309,1,0,0:0:0:0:
116,124,319396,2,0,B|109:157|109:157|127:187,1,67.9999972438812,2|0,0:0|0:0,0:0:0:0:
196,242,319570,6,0,B|215:257|215:257|298:243|298:243|312:220,1,135.999994487762,2|0,0:0|0:0,0:0:0:0:
347,138,319832,1,0,0:0:0:0:
347,138,319919,2,0,L|422:121,1,67.9999972438812,2|0,0:0|0:0,0:0:0:0:
252,162,320094,2,0,P|252:100|376:42,1,203.999991731644,2|0,0:0|0:0,0:0:0:0:
461,59,320442,2,0,B|491:121|491:121|465:194|465:194,1,135.999994487762,8|0,0:0|0:0,0:0:0:0:
418,270,320704,1,0,0:0:0:0:
418,270,320791,2,0,L|427:349,1,67.9999972438812,2|0,0:0|0:0,0:0:0:0:
337,207,320966,6,0,B|301:266|301:266|226:216,1,135.999994487762,2|0,0:0|0:0,0:0:0:0:
184,158,321227,1,0,0:0:0:0:
184,158,321315,2,0,P|215:139|248:135,1,67.9999972438812,2|0,0:0|0:0,0:0:0:0:
159,250,321489,2,0,P|95:207|109:87,1,203.999991731644,2|0,0:0|0:0,0:0:0:0:
180,33,321838,2,0,B|249:25|249:25|273:108,1,135.999994487762,8|0,0:0|0:0,0:0:0:0:
290,174,322099,1,0,0:0:0:0:
290,174,322187,2,0,L|369:161,1,67.9999972438812,2|0,0:0|0:0,0:0:0:0:
360,269,322361,6,0,P|306:253|234:296,1,135.999994487762,2|0,0:0|0:0,0:0:0:0:
312,349,322623,1,0,0:0:0:0:
312,349,322710,2,0,L|388:353,1,67.9999972438812,2|0,0:0|0:0,0:0:0:0:
163,336,322884,2,0,B|94:329|94:329|77:270|77:270|-2:260,1,203.999991731644,2|0,0:0|0:0,0:0:0:0:
6,177,323233,2,0,P|148:194|148:194,1,135.999994487762,8|0,0:0|0:0,0:0:0:0:
326,101,323582,2,0,L|250:94,1,67.9999972438812
350,208,323756,6,0,P|406:174|426:100,1,135.999994487762,2|0,0:0|0:0,0:0:0:0:
397,30,324018,1,0,0:0:0:0:
397,30,324105,2,0,L|477:35,1,67.9999972438812,2|0,0:0|0:0,0:0:0:0:
327,101,324280,2,0,B|259:95|259:95|213:139|213:139|130:131,1,203.999991731644,2|0,0:0|0:0,0:0:0:0:
53,110,324629,2,0,P|92:55|164:47,1,135.999994487762,8|0,0:0|0:0,0:0:0:0:
239,11,324890,1,0,0:0:0:0:
239,11,324977,2,0,L|313:17,1,67.9999972438812,2|0,0:0|0:0,0:0:0:0:
356,189,325152,6,0,B|291:182|291:182|238:238,1,135.999994487762,2|0,0:0|0:0,0:0:0:0:
186,297,325413,1,0,0:0:0:0:
186,297,325501,2,0,L|108:289,1,67.9999972438812,2|0,0:0|0:0,0:0:0:0:
324,264,325675,2,0,B|393:272|393:272|441:223|441:223|430:158,1,203.999991731644,2|0,0:0|0:0,0:0:0:0:
412,77,326024,2,0,B|360:73|360:73|334:88|334:88|272:83,1,135.999994487762,8|0,0:0|0:0,0:0:0:0:
198,81,326286,1,0,0:0:0:0:
198,81,326373,2,0,P|193:119|203:152,1,67.9999972438812,2|0,0:0|0:0,0:0:0:0:
315,183,326547,6,0,B|286:182|286:182|227:228|227:228|194:226,1,135.999994487762,2|0,0:0|0:0,0:0:0:0:
115,225,326809,1,0,0:0:0:0:
115,225,326896,2,0,B|109:190|109:190|128:152,1,67.9999972438812,2|0,0:0|0:0,0:0:0:0:
186,297,327070,2,0,P|122:332|13:263,1,203.999991731644,2|0,0:0|0:0,0:0:0:0:
7,191,327419,2,0,B|23:150|23:150|13:112|13:112|32:63,1,135.999994487762,8|0,0:0|0:0,0:0:0:0:
107,102,327681,1,0,0:0:0:0:
107,102,327768,2,0,B|136:116|136:116|170:105,1,67.9999972438812,2|0,0:0|0:0,0:0:0:0:
247,68,327942,6,0,B|313:50|313:50|350:106,1,135.999994487762,2|0,0:0|0:0,0:0:0:0:
408,175,328204,1,0,0:0:0:0:
408,175,328291,2,0,L|494:167,1,67.9999972438812,2|0,0:0|0:0,0:0:0:0:
288,144,328466,2,0,B|221:151|221:151|191:213|191:213|231:267,1,203.999991731644,2|0,0:0|0:0,0:0:0:0:
289,342,328815,2,0,P|325:281|306:209,1,135.999994487762,8|0,0:0|0:0,0:0:0:0:
44,245,329163,2,0,L|48:324,1,67.9999972438812,2|0,0:0|0:0,0:0:0:0:
121,188,329338,6,0,P|64:151|-6:164,1,135.999994487762,2|0,0:0|0:0,0:0:0:0:
18,66,329599,1,0,0:0:0:0:
18,66,329687,2,0,B|53:59|53:59|90:74,1,67.9999972438812,2|0,0:0|0:0,0:0:0:0:
168,115,329861,2,0,B|243:111|243:111|268:57|268:57|356:51,1,203.999991731644,2|0,0:0|0:0,0:0:0:0:
419,47,330210,2,0,B|425:118|425:118|366:150,1,135.999994487762,8|0,0:0|0:0,0:0:0:0:
289,188,330472,1,0,0:0:0:0:
289,188,330559,2,0,P|307:219|313:262,1,67.9999972438812,2|0,0:0|0:0,0:0:0:0:
166,346,330733,6,0,B|164:288|164:288|143:255|143:255|162:221|162:221,1,135.999994487762,2|0,0:0|0:0,0:0:0:0:
208,145,330995,1,0,0:0:0:0:
208,145,331082,2,0,P|170:133|137:138,1,67.9999972438812,2|0,0:0|0:0,0:0:0:0:
65,190,331256,2,0,B|71:260|71:260|49:283|49:283|74:305|74:305|79:381,1,203.999991731644,2|0,0:0|0:0,0:0:0:0:
166,346,331605,2,0,B|229:320|229:320|305:338,1,135.999994487762,8|0,0:0|0:0,0:0:0:0:
377,357,331867,1,0,0:0:0:0:
377,357,331954,2,0,P|387:322|381:288,1,67.9999972438812,2|0,0:0|0:0,0:0:0:0:
306,206,332129,6,0,B|248:209|248:209|234:229|234:229|173:232,1,135.999994487762,2|0,0:0|0:0,0:0:0:0:
92,237,332390,1,0,0:0:0:0:
92,237,332477,2,0,L|88:164,1,67.9999972438812,2|0,0:0|0:0,0:0:0:0:
121,320,332652,2,0,B|159:335|159:335|191:310|191:310|231:304|231:304|272:320|272:320|299:294,1,203.999991731644,2|0,0:0|0:0,0:0:0:0:
306,206,333001,2,0,P|295:150|212:95,1,135.999994487762,8|0,0:0|0:0,0:0:0:0:
282,32,333262,1,0,0:0:0:0:
282,32,333349,2,0,P|323:41|362:32,1,67.9999972438812,2|0,0:0|0:0,0:0:0:0:
180,41,333524,5,2,0:0:0:0:
118,122,333698,1,0,0:0:0:0:
118,122,333786,1,0,0:0:0:0:
118,122,333873,1,2,0:0:0:0:
106,214,334047,1,2,0:0:0:0:
384,292,334396,2,0,L|400:237,1,47.9999956741335,2|0,0:0|0:0,0:0:0:0:
327,206,334570,1,0,0:0:0:0:
408,147,334745,1,0,0:0:0:0:
302,61,334919,6,0,B|229:43|229:43|167:94,1,143.9999870224,2|0,0:0|0:0,0:0:0:0:
110,148,335181,1,0,0:0:0:0:
110,148,335268,2,0,L|24:134,1,71.9999935112002,2|0,0:0|0:0,0:0:0:0:
133,230,335442,2,0,B|159:293|159:293|232:314|232:314,1,143.9999870224,2|0,0:0|0:0,0:0:0:0:
463,229,335791,2,0,L|313:200,1,143.9999870224,8|0,0:0|0:0,0:0:0:0:
232,184,336053,1,0,0:0:0:0:
232,184,336140,2,0,P|223:145|228:106,1,71.9999935112002,2|0,0:0|0:0,0:0:0:0:
256,278,336315,6,0,P|197:277|134:197,1,143.9999870224,2|0,0:0|0:0,0:0:0:0:
125,127,336576,1,0,0:0:0:0:
125,127,336663,2,0,L|47:124,1,71.9999935112002,2|0,0:0|0:0,0:0:0:0:
232,184,336838,2,0,B|290:189|290:189|311:168|311:168|374:173,1,143.9999870224,2|0,0:0|0:0,0:0:0:0:
452,332,337187,2,0,P|361:359|306:328,1,143.9999870224,8|0,0:0|0:0,0:0:0:0:
256,278,337448,1,0,0:0:0:0:
256,278,337536,2,0,B|222:262|222:262|181:273,1,71.9999935112002,2|0,0:0|0:0,0:0:0:0:
111,292,337710,6,0,B|104:241|104:241|125:212|125:212|117:156,1,143.9999870224,2|0,0:0|0:0,0:0:0:0:
33,155,337972,1,0,0:0:0:0:
33,155,338059,2,0,P|17:199|28:246,1,71.9999935112002,2|0,0:0|0:0,0:0:0:0:
223,190,338233,2,0,B|219:149|193:123|193:123|210:89|200:48,1,143.9999870224,2|0,0:0|0:0,0:0:0:0:
399,30,338582,2,0,B|403:85|403:85|384:114|384:114|390:185,1,143.9999870224,8|0,0:0|0:0,0:0:0:0:
392,253,338844,1,0,0:0:0:0:
392,253,338931,2,0,L|471:250,1,71.9999935112002,2|0,0:0|0:0,0:0:0:0:
355,350,339105,6,0,P|298:301|292:221,1,143.9999870224,2|0,0:0|0:0,0:0:0:0:
313,149,339367,1,0,0:0:0:0:
313,149,339454,2,0,P|275:138|228:136,1,71.9999935112002,2|0,0:0|0:0,0:0:0:0:
177,247,339629,2,0,B|179:340|179:340|232:318,1,143.9999870224,2|0,0:0|0:0,0:0:0:0:
406,148,339977,2,0,P|359:65|317:53,1,143.9999870224,8|0,0:0|0:0,0:0:0:0:
177,247,340326,2,0,L|260:236,1,71.9999935112002,2|0,0:0|0:0,0:0:0:0:
326,355,340501,6,0,B|265:316|265:316|186:326,1,143.9999870224,2|0,0:0|0:0,0:0:0:0:
99,341,340762,1,0,0:0:0:0:
99,341,340849,2,0,L|92:262,1,71.9999935112002,2|0,0:0|0:0,0:0:0:0:
124,177,341024,2,0,B|170:154|170:154|176:248,1,143.9999870224,2|0,0:0|0:0,0:0:0:0:
58,64,341373,2,0,B|11:41|11:41|5:135,1,143.9999870224,8|0,0:0|0:0,0:0:0:0:
3,223,341634,1,0,0:0:0:0:
3,223,341722,2,0,P|37:236|81:233,1,71.9999935112002,2|0,0:0|0:0,0:0:0:0:
175,246,341896,6,0,B|222:302|222:302|187:373,1,143.9999870224,2|0,0:0|0:0,0:0:0:0:
120,312,342158,1,0,0:0:0:0:
120,312,342245,2,0,L|27:318,1,71.9999935112002,2|0,0:0|0:0,0:0:0:0:
302,295,342419,2,0,B|360:290|360:290|382:305|382:305|444:301,1,143.9999870224,2|0,0:0|0:0,0:0:0:0:
240,145,342768,2,0,P|172:103|84:133,1,143.9999870224,8|0,0:0|0:0,0:0:0:0:
119,17,343030,1,0,0:0:0:0:
119,17,343117,2,0,L|210:31,1,71.9999935112002,2|0,0:0|0:0,0:0:0:0:
310,49,343291,6,0,B|312:104|312:104|340:122|340:122|341:181,1,143.9999870224,2|0,0:0|0:0,0:0:0:0:
345,261,343553,1,0,0:0:0:0:
345,261,343640,2,0,L|423:260,1,71.9999935112002,2|0,0:0|0:0,0:0:0:0:
240,145,343815,2,0,B|183:138|183:138|197:238,1,143.9999870224,2|0,0:0|0:0,0:0:0:0:
430,179,344163,2,0,B|487:186|487:186|473:86,1,143.9999870224,8|0,0:0|0:0,0:0:0:0:
470,18,344425,1,0,0:0:0:0:
470,18,344512,2,0,P|420:25|384:20,1,71.9999935112002,2|0,0:0|0:0,0:0:0:0:
308,9,344687,6,0,B|298:61|298:61|326:90|326:90|316:150,1,143.9999870224,2|0,0:0|0:0,0:0:0:0:
300,223,344948,1,0,0:0:0:0:
300,223,345036,2,0,L|356:275,1,71.9999935112002,2|0,0:0|0:0,0:0:0:0:
216,145,345210,2,0,B|163:97|163:97|94:134,1,143.9999870224,2|0,0:0|0:0,0:0:0:0:
76,305,345559,2,0,B|129:353|129:353|198:316,1,143.9999870224,8|0,0:0|0:0,0:0:0:0:
2,209,345908,2,0,L|90:218,1,71.9999935112002,2|0,0:0|0:0,0:0:0:0:
213,233,346082,6,0,L|380:248,1,143.9999870224,2|0,0:0|0:0,0:0:0:0:
443,254,346344,1,0,0:0:0:0:
443,254,346431,2,0,P|457:227|459:181,1,71.9999935112002,2|0,0:0|0:0,0:0:0:0:
343,65,346605,2,0,B|316:92|317:131|317:131|277:128|243:148,1,143.9999870224,2|0,0:0|0:0,0:0:0:0:
55,70,346954,2,0,B|100:8|100:8|158:63,1,143.9999870224,8|0,0:0|0:0,0:0:0:0:
91,155,347216,1,0,0:0:0:0:
91,155,347303,2,0,L|9:158,1,71.9999935112002,2|0,0:0|0:0,0:0:0:0:
62,241,347477,6,0,B|107:302|107:302|165:247,1,143.9999870224,2|0,0:0|0:0,0:0:0:0:
215,188,347739,1,0,0:0:0:0:
215,188,347826,2,0,P|244:225|248:260,1,71.9999935112002,2|0,0:0|0:0,0:0:0:0:
228,345,348001,2,0,B|263:374|263:374|376:346,1,143.9999870224,2|0,0:0|0:0,0:0:0:0:
432,171,348349,2,0,B|397:142|397:142|284:170,1,143.9999870224,8|0,0:0|0:0,0:0:0:0:
215,188,348611,1,0,0:0:0:0:
215,188,348698,2,0,L|200:109,1,71.9999935112002,2|0,0:0|0:0,0:0:0:0:
291,259,348873,6,0,B|326:288|326:288|439:260,1,143.9999870224,2|0,0:0|0:0,0:0:0:0:
508,247,349134,1,0,0:0:0:0:
508,247,349222,2,0,P|509:286|492:327,1,71.9999935112002,2|0,0:0|0:0,0:0:0:0:
356,174,349396,2,0,B|351:137|365:105|365:105|336:83|329:41,1,143.9999870224,2|0,0:0|0:0,0:0:0:0:
127,84,349745,2,0,B|132:121|117:152|117:152|147:175|154:217,1,143.9999870224,8|0,0:0|0:0,0:0:0:0:
50,235,350006,1,0,0:0:0:0:
50,235,350094,2,0,B|35:202|35:202|39:167,1,71.9999935112002,2|0,0:0|0:0,0:0:0:0:
213,133,350268,6,0,B|255:193|255:193|232:272,1,143.9999870224,2|0,0:0|0:0,0:0:0:0:
158,327,350530,1,0,0:0:0:0:
158,327,350617,2,0,L|143:241,1,71.9999935112002,2|0,0:0|0:0,0:0:0:0:
39,166,350791,2,0,B|19:233|19:233|61:293,1,143.9999870224,2|0,0:0|0:0,0:0:0:0:
235,260,351140,2,0,B|254:192|254:192|212:132,1,143.9999870224,8|0,0:0|0:0,0:0:0:0:
80,37,351489,2,0,P|122:53|157:49,1,71.9999935112002,2|0,0:0|0:0,0:0:0:0:
268,25,351663,6,0,L|419:39,1,143.9999870224,2|0,0:0|0:0,0:0:0:0:
367,113,351925,1,0,0:0:0:0:
367,113,352012,2,0,L|292:106,1,71.9999935112002,2|0,0:0|0:0,0:0:0:0:
250,181,352187,2,0,L|401:195,1,143.9999870224,2|0,0:0|0:0,0:0:0:0:
125,339,352536,2,0,P|89:271|119:194,1,143.9999870224,8|0,0:0|0:0,0:0:0:0:
192,266,352797,1,0,0:0:0:0:
192,266,352884,2,0,L|208:342,1,71.9999935112002,2|0,0:0|0:0,0:0:0:0:
250,181,353059,6,0,P|292:244|271:324,1,143.9999870224,2|0,0:0|0:0,0:0:0:0:
361,331,353320,1,0,0:0:0:0:
361,331,353408,2,0,L|373:243,1,71.9999935112002,2|0,0:0|0:0,0:0:0:0:
503,212,353582,6,0,P|450:259|443:329,1,143.9999870224,2|0,0:0|0:0,0:0:0:0:
237,88,353931,2,0,B|298:49|298:49|371:73,1,143.9999870224,8|0,0:0|0:0,0:0:0:0:
311,143,354192,1,0,0:0:0:0:
311,143,354280,2,0,L|243:185,1,71.9999935112002,2|0,0:0|0:0,0:0:0:0:
149,123,354454,6,0,B|139:85|151:50|151:50|118:68|69:65,1,143.9999870224,2|0,0:0|0:0,0:0:0:0:
1,79,354716,1,0,0:0:0:0:
1,79,354803,2,0,P|5:122|24:157,1,71.9999935112002,2|0,0:0|0:0,0:0:0:0:
77,218,354977,2,0,P|136:204|219:256,1,143.9999870224,2|0,0:0|0:0,0:0:0:0:
381,336,355326,2,0,P|322:350|239:298,1,143.9999870224,8|0,0:0|0:0,0:0:0:0:
329,250,355588,1,0,0:0:0:0:
329,250,355675,2,0,L|407:246,1,71.9999935112002,2|0,0:0|0:0,0:0:0:0:
267,169,355849,5,2,0:0:0:0:
352,119,356024,1,0,0:0:0:0:
352,119,356111,1,0,0:0:0:0:
352,119,356198,1,2,0:0:0:0:
288,42,356373,1,2,0:0:0:0:
267,169,356722,5,8,0:0:0:0:
352,119,356896,1,0,0:0:0:0:
288,42,357070,1,0,0:0:0:0:
201,97,357245,6,0,B|117:122|117:122|42:57,1,179.999996137619,2|0,0:0|0:0,0:0:0:0:
30,47,357594,6,0,L|34:140,1,75.9999934406283,12|0,0:0|0:0,0:0:0:0:
36,211,357768,1,0,0:0:0:0:
49,246,357855,1,0,0:0:0:0:
77,271,357942,1,0,0:0:0:0:
113,281,358030,1,0,0:0:0:0:
150,281,358117,6,0,P|166:242|161:198,1,75.9999934406283,8|0,0:0|0:0,0:0:0:0:
374,204,358291,1,0,0:0:0:0:
361,239,358379,1,0,0:0:0:0:
333,264,358466,1,0,0:0:0:0:
297,274,358553,1,0,0:0:0:0:
260,274,358640,6,0,P|244:235|249:191,1,75.9999934406283,8|0,0:0|0:0,0:0:0:0:
243,95,358815,1,0,0:0:0:0:
252,59,358902,1,0,0:0:0:0:
278,31,358989,1,0,0:0:0:0:
313,18,359076,1,0,0:0:0:0:
350,15,359163,6,0,P|369:52|368:96,1,75.9999934406283,8|0,0:0|0:0,0:0:0:0:
155,95,359338,1,0,0:0:0:0:
139,61,359425,1,0,0:0:0:0:
109,39,359512,1,0,0:0:0:0:
72,32,359599,1,0,0:0:0:0:
36,35,359687,6,0,B|17:113|17:113|72:186,1,151.999986881257,8|0,0:0|0:0,0:0:0:0:
199,289,360036,6,0,B|242:269|242:269|283:283|283:283|323:260|371:275,1,179.999996137619,2|0,0:0|0:0,0:0:0:0:
393,295,360384,6,0,L|387:364,1,67.9999972438812,8|0,0:0|0:0,0:0:0:0:
336,192,360559,1,0,0:0:0:0:
369,190,360646,1,0,0:0:0:0:
402,188,360733,1,0,0:0:0:0:
435,186,360820,1,0,0:0:0:0:
469,184,360908,6,0,L|478:112,1,67.9999972438812,8|0,0:0|0:0,0:0:0:0:
350,83,361082,1,0,0:0:0:0:
317,85,361169,1,0,0:0:0:0:
284,87,361256,1,0,0:0:0:0:
251,89,361344,1,0,0:0:0:0:
216,93,361431,6,0,L|204:168,1,67.9999972438812,8|0,0:0|0:0,0:0:0:0:
208,287,361605,1,0,0:0:0:0:
232,310,361692,1,0,0:0:0:0:
264,321,361780,1,0,0:0:0:0:
297,322,361867,1,0,0:0:0:0:
328,309,361954,6,0,P|355:268|358:234,1,67.9999972438812,8|0,0:0|0:0,0:0:0:0:
336,115,362129,1,0,0:0:0:0:
312,92,362216,1,0,0:0:0:0:
280,81,362303,1,0,0:0:0:0:
247,80,362390,1,0,0:0:0:0:
216,93,362477,2,0,B|213:94|153:118|153:118|88:71,1,135.999994487762,8|0,0:0|0:0,0:0:0:0:
154,338,362826,6,0,B|196:318|226:334|226:334|254:316|254:316|284:334|335:324,1,179.999996137619,2|0,0:0|0:0,0:0:0:0:
349,321,363175,6,0,P|358:286|353:244,1,75.9999934406283,8|0,0:0|0:0,0:0:0:0:
282,145,363349,1,0,0:0:0:0:
318,156,363437,1,0,0:0:0:0:
355,154,363524,1,0,0:0:0:0:
389,138,363611,1,0,0:0:0:0:
407,104,363698,6,0,L|420:198,1,75.9999934406283,8|0,0:0|0:0,0:0:0:0:
328,51,363873,1,0,0:0:0:0:
292,40,363960,1,0,0:0:0:0:
255,42,364047,1,0,0:0:0:0:
221,58,364134,1,0,0:0:0:0:
203,92,364222,6,0,L|190:-2,1,75.9999934406283,8|0,0:0|0:0,0:0:0:0:
72,83,364396,1,0,0:0:0:0:
104,63,364483,1,0,0:0:0:0:
140,56,364570,1,0,0:0:0:0:
177,63,364658,1,0,0:0:0:0:
203,92,364745,6,0,L|213:167,1,75.9999934406283,8|0,0:0|0:0,0:0:0:0:
227,276,364919,1,0,0:0:0:0:
259,296,365006,1,0,0:0:0:0:
295,303,365094,1,0,0:0:0:0:
332,296,365181,1,0,0:0:0:0:
358,267,365268,6,0,B|377:191|377:191|345:116,1,151.999986881257,8|0,0:0|0:0,0:0:0:0:
29,158,365617,6,0,B|18:198|18:198|35:232|35:232|16:287|48:336,1,179.999996137619,2|0,0:0|0:0,0:0:0:0:
57,352,365966,6,0,P|95:354|132:335,1,67.9999972438812,8|0,0:0|0:0,0:0:0:0:
126,233,366140,1,0,0:0:0:0:
117,199,366227,1,0,0:0:0:0:
109,165,366315,1,0,0:0:0:0:
100,132,366402,1,0,0:0:0:0:
92,99,366489,6,0,L|74:25,1,67.9999972438812,8|0,0:0|0:0,0:0:0:0:
212,211,366663,1,0,0:0:0:0:
211,176,366751,1,0,0:0:0:0:
210,141,366838,1,0,0:0:0:0:
208,107,366925,1,0,0:0:0:0:
207,73,367012,6,0,L|203:-3,1,67.9999972438812,8|0,0:0|0:0,0:0:0:0:
300,224,367187,1,0,0:0:0:0:
308,190,367274,1,0,0:0:0:0:
317,157,367361,1,0,0:0:0:0:
323,123,367448,1,0,0:0:0:0:
332,90,367536,6,0,L|350:17,1,67.9999972438812,8|0,0:0|0:0,0:0:0:0:
379,273,367710,1,0,0:0:0:0:
396,243,367797,1,0,0:0:0:0:
416,214,367884,1,0,0:0:0:0:
434,185,367972,1,0,0:0:0:0:
452,157,368059,6,0,B|475:122|475:122|494:236,1,135.999994487762,8|0,0:0|0:0,0:0:0:0:
328,332,368408,6,0,B|289:345|253:323|253:323|230:336|230:336|191:317|140:327,1,179.999996137619,2|0,0:0|0:0,0:0:0:0:
130,336,368756,6,0,P|112:302|111:246,1,75.9999934406283,12|0,0:0|0:0,0:0:0:0:
134,132,368931,1,0,0:0:0:0:
167,113,369018,1,0,0:0:0:0:
204,111,369105,1,0,0:0:0:0:
239,123,369192,1,0,0:0:0:0:
261,153,369280,6,0,B|277:188|277:188|267:226,1,75.9999934406283,8|0,0:0|0:0,0:0:0:0:
235,327,369454,1,0,0:0:0:0:
202,346,369541,1,0,0:0:0:0:
165,348,369629,1,0,0:0:0:0:
130,336,369716,1,0,0:0:0:0:
104,307,369803,6,0,B|87:271|87:271|98:234,1,75.9999934406283,8|0,0:0|0:0,0:0:0:0:
261,153,369977,1,0,0:0:0:0:
294,134,370065,1,0,0:0:0:0:
331,132,370152,1,0,0:0:0:0:
366,144,370239,1,0,0:0:0:0:
392,173,370326,6,0,B|409:208|409:208|398:246,1,75.9999934406283,8|0,0:0|0:0,0:0:0:0:
261,153,370501,1,0,0:0:0:0:
228,134,370588,1,0,0:0:0:0:
191,132,370675,1,0,0:0:0:0:
156,144,370762,1,0,0:0:0:0:
130,173,370849,6,0,B|113:208|113:208|123:245|123:245|105:279|105:279|116:321,1,151.999986881257,8|0,0:0|0:0,0:0:0:0:
414,365,371198,6,0,B|437:326|416:282|416:282|391:236|419:193,1,179.999996137619,2|0,0:0|0:0,0:0:0:0:
433,172,371547,6,0,P|392:158|354:159,1,67.9999972438812,8|0,0:0|0:0,0:0:0:0:
250,211,371722,1,0,0:0:0:0:
216,217,371809,1,0,0:0:0:0:
182,211,371896,1,0,0:0:0:0:
155,189,371983,1,0,0:0:0:0:
143,157,372070,6,0,P|137:123|150:78,1,67.9999972438812,8|0,0:0|0:0,0:0:0:0:
338,188,372245,1,0,0:0:0:0:
343,221,372332,1,0,0:0:0:0:
334,253,372419,1,0,0:0:0:0:
314,280,372506,1,0,0:0:0:0:
284,297,372594,6,0,P|250:303|205:290,1,67.9999972438812,8|0,0:0|0:0,0:0:0:0:
310,103,372768,1,0,0:0:0:0:
343,99,372855,1,0,0:0:0:0:
376,104,372942,1,0,0:0:0:0:
404,121,373030,1,0,0:0:0:0:
421,150,373117,6,0,P|427:184|414:229,1,67.9999972438812,8|0,0:0|0:0,0:0:0:0:
218,133,373291,1,0,0:0:0:0:
212,99,373379,1,0,0:0:0:0:
218,65,373466,1,0,0:0:0:0:
238,37,373553,1,0,0:0:0:0:
268,20,373640,6,0,B|302:9|335:23|335:23|367:9|403:22,1,135.999994487762,8|0,0:0|0:0,0:0:0:0:
452,239,373989,6,0,P|384:296|274:265,1,179.999996137619,2|0,0:0|0:0,0:0:0:0:
274,262,374338,6,0,L|256:344,1,75.9999934406283,8|0,0:0|0:0,0:0:0:0:
356,187,374512,1,0,0:0:0:0:
349,149,374599,1,0,0:0:0:0:
342,111,374687,1,0,0:0:0:0:
336,73,374774,1,0,0:0:0:0:
330,35,374861,6,0,L|311:112,1,75.9999934406283,8|0,0:0|0:0,0:0:0:0:
274,262,375036,1,0,0:0:0:0:
311,274,375123,1,0,0:0:0:0:
347,287,375211,1,0,0:0:0:0:
383,301,375298,1,0,0:0:0:0:
419,315,375385,6,0,L|361:260,1,75.9999934406283,8|0,0:0|0:0,0:0:0:0:
245,158,375559,1,0,0:0:0:0:
216,184,375646,1,0,0:0:0:0:
186,208,375734,1,0,0:0:0:0:
156,232,375821,1,0,0:0:0:0:
126,257,375908,6,0,L|202:234,1,75.9999934406283,8|0,0:0|0:0,0:0:0:0:
356,187,376082,1,0,0:0:0:0:
351,149,376170,1,0,0:0:0:0:
344,111,376257,1,0,0:0:0:0:
337,74,376344,1,0,0:0:0:0:
330,38,376431,6,0,B|326:2|326:2|268:108,1,151.999986881257,8|0,0:0|0:0,0:0:0:0:
428,303,376780,6,0,P|382:250|264:251,1,179.999996137619,2|0,0:0|0:0,0:0:0:0:
260,263,377129,6,0,L|268:342,1,67.9999972438812,8|0,0:0|0:0,0:0:0:0:
187,140,377303,1,0,0:0:0:0:
181,173,377390,1,0,0:0:0:0:
175,206,377477,1,0,0:0:0:0:
170,239,377565,1,0,0:0:0:0:
165,272,377652,6,0,L|173:344,1,67.9999972438812,8|0,0:0|0:0,0:0:0:0:
92,150,377826,1,0,0:0:0:0:
86,183,377913,1,0,0:0:0:0:
80,216,378001,1,0,0:0:0:0:
75,249,378088,1,0,0:0:0:0:
395,249,378349,2,0,P|398:200|385:164,1,67.9999972438812
295,216,378524,6,0,B|287:253|287:253|298:280|298:280|293:316|293:316|309:358,1,135.999994487762,8|0,0:0|0:0,0:0:0:0:
387,346,378786,1,0,0:0:0:0:
387,346,378873,2,0,B|422:353|422:353|467:338,1,67.9999972438812,2|0,0:0|0:0,0:0:0:0:
213,213,379047,2,0,B|178:206|178:206|133:221,1,67.9999972438812,8|0,0:0|0:0,0:0:0:0:
436,62,379570,6,0,B|425:115|366:133|366:133|325:109|314:57|314:57|287:95|246:88,1,279.9999833107,6|0,0:0|0:0,0:0:0:0:
151,66,380966,6,0,B|96:45|96:45|46:85,1,119.999992847443,2|0,0:0|0:0,0:0:0:0:
65,178,381663,2,0,B|120:199|120:199|170:159,1,119.999992847443,2|0,0:0|0:0,0:0:0:0:
238,95,382361,6,0,B|280:145|270:221|208:253|208:253|250:288|254:338|254:338|332:294|350:208,1,439.999973773957,2|0,0:0|0:0,0:0:0:0:
365,124,384454,6,0,B|425:109|425:109|465:154,1,119.999992847443,2|0,0:0|0:0,0:0:0:0:
473,248,385152,6,0,B|444:318|371:289|371:289|326:317|326:317|277:282|222:306|222:306,1,279.9999833107,2|0,0:0|0:0,0:0:0:0:
201,211,386547,6,0,P|163:181|82:194,1,119.999992847443,2|0,0:0|0:0,0:0:0:0:
76,280,387245,2,0,P|114:310|195:297,1,119.999992847443,2|0,0:0|0:0,0:0:0:0:
264,256,387942,6,0,B|259:204|283:154|335:112|398:120|425:186|390:247|345:256|296:236|285:182|297:132|323:94|323:94|284:61|292:15,1,479.999971389771,2|0,0:0|0:0,0:0:0:0:
132,56,390733,6,0,B|127:102|155:130|155:130|118:145|100:176|100:176|143:202|144:258,1,239.999985694885,6|2,0:0|0:0,0:0:0:0:
307,348,392129,6,0,L|314:226,1,119.999992847443,2|0,0:0|0:0,0:0:0:0:
232,178,392826,2,0,L|225:300,1,119.999992847443,2|0,0:0|0:0,0:0:0:0:
143,348,393524,6,0,B|140:289|85:267|85:267|112:236|152:234|152:234|111:184|52:178|52:178|139:179|156:85,1,439.999973773957,2|0,0:0|0:0,0:0:0:0:
243,133,395617,6,0,P|266:176|268:247,1,119.999992847443,2|0,0:0|0:0,0:0:0:0:
229,333,396315,6,0,B|268:355|321:347|346:306|346:306|348:287|342:268|342:268|379:253|383:203,1,239.999985694885,2|2,0:0|0:0,0:0:0:0:
220,109,397710,6,0,L|209:234,1,119.999992847443,2|0,0:0|0:0,0:0:0:0:
301,200,398408,2,0,L|312:75,1,119.999992847443,2|0,0:0|0:0,0:0:0:0:
401,47,399105,6,0,B|435:79|444:120|417:161|388:176|388:176|409:218|453:223|453:223|406:279|337:257|337:257|295:309|227:292,1,479.999971389771,2|0,0:0|0:0,0:0:0:0:
117,54,401896,5,6,0:0:0:0:
82,130,402070,2,0,L|87:188,2,55.9999949531557
98,319,402594,2,0,L|93:252,2,55.9999949531557,2|0|0,0:0|0:0|0:0,0:0:0:0:
182,121,403117,5,0,0:0:0:0:
228,243,403291,1,2,0:0:0:0:
313,150,403466,2,0,L|250:156,2,55.9999949531557
103,204,403989,2,0,L|166:198,2,55.9999949531557,2|0|0,0:0|0:0|0:0,0:0:0:0:
147,290,404512,1,0,0:0:0:0:
282,226,404687,5,2,0:0:0:0:
334,300,404861,2,0,L|332:369,2,55.9999949531557
229,153,405384,2,0,L|231:84,2,55.9999949531557,2|0|0,0:0|0:0|0:0,0:0:0:0:
236,16,405908,1,0,0:0:0:0:
110,77,406082,5,2,0:0:0:0:
140,163,406256,2,0,L|133:232,2,55.9999949531557
259,140,406780,2,0,L|266:71,2,55.9999949531557,2|0|0,0:0|0:0|0:0,0:0:0:0:
276,233,407303,1,0,0:0:0:0:
424,153,407477,5,2,0:0:0:0:
356,86,407652,2,0,L|354:22,2,55.9999949531557
491,220,408175,2,0,L|486:283,2,55.9999949531557,2|0|0,0:0|0:0|0:0,0:0:0:0:
396,262,408698,1,0,0:0:0:0:
304,149,408873,5,2,0:0:0:0:
213,183,409047,2,0,L|147:176,2,55.9999949531557
389,110,409570,2,0,L|455:117,2,55.9999949531557,2|0|0,0:0|0:0|0:0,0:0:0:0:
304,149,410094,1,0,0:0:0:0:
212,33,410268,5,2,0:0:0:0:
133,81,410442,2,0,L|129:143,2,55.9999949531557
198,247,410966,2,0,L|202:185,2,55.9999949531557,2|0|0,0:0|0:0|0:0,0:0:0:0:
117,302,411489,1,0,0:0:0:0:
268,315,411663,5,2,0:0:0:0:
345,258,411838,2,0,L|349:193,2,55.9999949531557
198,247,412361,2,0,L|202:185,2,55.9999949531557,2|0|0,0:0|0:0|0:0,0:0:0:0:
268,315,412884,1,0,0:0:0:0:
279,124,413059,6,0,P|248:101|219:92,1,63.9999961853028,2|0,0:0|0:0,0:0:0:0:
362,63,413408,2,0,P|397:68|436:66,1,63.9999961853028
325,215,413756,1,2,0:0:0:0:
421,195,413931,1,0,0:0:0:0:
333,305,414105,1,0,0:0:0:0:
321,200,414280,1,0,0:0:0:0:
202,291,414454,6,0,P|197:331|204:362,1,63.9999961853028,2|0,0:0|0:0,0:0:0:0:
317,184,414803,2,0,P|322:144|315:113,1,63.9999961853028
206,48,415152,1,2,0:0:0:0:
203,154,415326,1,0,0:0:0:0:
223,40,415501,1,0,0:0:0:0:
124,90,415675,1,0,0:0:0:0:
288,109,415849,6,0,P|338:109|362:100,1,63.9999961853028,2|0,0:0|0:0,0:0:0:0:
124,90,416198,2,0,P|92:83|61:85,1,63.9999961853028
150,235,416547,1,2,0:0:0:0:
203,154,416722,1,0,0:0:0:0:
75,174,416896,1,0,0:0:0:0:
210,138,417070,1,0,0:0:0:0:
233,280,417245,6,0,L|235:350,1,63.9999961853028,2|0,0:0|0:0,0:0:0:0:
68,155,417594,2,0,L|70:85,1,63.9999961853028
222,70,417942,1,2,0:0:0:0:
164,172,418117,1,0,0:0:0:0:
230,79,418291,1,0,0:0:0:0:
270,196,418466,1,0,0:0:0:0:
331,81,418640,6,0,P|328:45|308:10,1,71.9999935112002,2|0,0:0|0:0,0:0:0:0:
164,172,418989,2,0,P|167:208|187:243,1,71.9999935112002
334,299,419338,2,0,P|288:295|256:302,1,71.9999935112002,2|0,0:0|0:0,0:0:0:0:
424,362,419687,1,0,0:0:0:0:
431,249,419861,1,0,0:0:0:0:
293,158,420036,6,0,L|212:159,1,79.9999952316285,2|0,0:0|0:0,0:0:0:0:
431,249,420384,2,0,L|514:247,1,79.9999952316285
283,367,420733,1,2,0:0:0:0:
231,222,420908,1,0,0:0:0:0:
349,267,421082,1,0,0:0:0:0:
283,367,421256,1,0,0:0:0:0:
231,222,421431,6,0,P|218:187|225:131,1,87.9999974403381,2|0,0:0|0:0,0:0:0:0:
362,44,421780,2,0,P|319:68|278:72,1,87.9999974403381
135,16,422129,1,2,0:0:0:0:
107,144,422303,1,0,0:0:0:0:
212,85,422477,1,0,0:0:0:0:
31,72,422652,1,0,0:0:0:0:
178,218,422826,5,2,0:0:0:0:
283,141,423001,1,0,0:0:0:0:
308,277,423175,2,0,L|300:380,1,95.9999913482669
178,218,423524,1,2,0:0:0:0:
283,141,423698,1,0,0:0:0:0:
182,326,423873,1,0,0:0:0:0:
68,155,424047,1,0,0:0:0:0:
308,277,424222,6,0,L|342:284,2,19.9999988079071,10|0|0,0:0|0:0|0:0,0:0:0:0:
349,196,424570,2,0,L|377:195,2,19.9999988079071
332,109,424919,2,0,L|347:93,2,19.9999988079071,2|0|0,0:0|0:0|0:0,0:0:0:0:
252,68,425268,2,0,L|257:44,2,19.9999988079071
167,141,425617,6,0,L|137:140,2,19.9999988079071,2|0|0,0:0|0:0|0:0,0:0:0:0:
176,232,425966,2,0,L|141:239,2,19.9999988079071
229,308,426315,2,0,L|204:330,2,19.9999988079071,2|0|0,0:0|0:0|0:0,0:0:0:0:
315,346,426663,2,0,L|312:370,2,19.9999988079071
367,199,427012,6,0,L|366:172,2,19.9999988079071,10|0|0,0:0|0:0|0:0,0:0:0:0:
280,149,427361,2,0,L|279:122,2,19.9999988079071
192,211,427710,2,0,L|191:184,2,19.9999988079071,2|0|0,0:0|0:0|0:0,0:0:0:0:
105,161,428059,2,0,L|104:134,2,19.9999988079071
109,275,428408,6,0,L|110:302,2,19.9999988079071,2|0|0,0:0|0:0|0:0,0:0:0:0:
196,325,428756,2,0,L|197:352,2,19.9999988079071
284,263,429105,2,0,L|285:290,2,19.9999988079071,2|0|0,0:0|0:0|0:0,0:0:0:0:
371,313,429454,2,0,L|372:340,2,19.9999988079071
367,159,429803,6,0,L|366:128,2,19.9999988079071,10|0|0,0:0|0:0|0:0,0:0:0:0:
262,103,430152,1,0,0:0:0:0:
262,103,430239,1,0,0:0:0:0:
262,103,430326,1,0,0:0:0:0:
276,241,430501,2,0,L|275:210,2,19.9999988079071,2|0|0,0:0|0:0|0:0,0:0:0:0:
171,185,430849,1,0,0:0:0:0:
171,185,430937,1,0,0:0:0:0:
171,185,431024,1,0,0:0:0:0:
367,159,431198,6,0,L|404:159,2,19.9999988079071,2|0|0,0:0|0:0|0:0,0:0:0:0:
264,116,431547,1,0,0:0:0:0:
264,116,431634,1,0,0:0:0:0:
264,116,431722,1,0,0:0:0:0:
367,65,431896,2,0,L|404:65,2,19.9999988079071,2|0|0,0:0|0:0|0:0,0:0:0:0:
264,22,432245,1,0,0:0:0:0:
264,22,432332,1,0,0:0:0:0:
264,22,432419,1,0,0:0:0:0:
147,130,432594,6,0,L|145:156,2,19.9999988079071,10|0|0,0:0|0:0|0:0,0:0:0:0:
240,201,432942,1,0,0:0:0:0:
240,201,433030,1,0,0:0:0:0:
240,201,433117,1,0,0:0:0:0:
139,242,433291,2,0,L|137:268,2,19.9999988079071,2|0|0,0:0|0:0|0:0,0:0:0:0:
231,327,433640,1,0,0:0:0:0:
231,327,433727,1,0,0:0:0:0:
231,327,433815,1,0,0:0:0:0:
349,329,433989,6,0,L|381:328,2,19.9999988079071,2|0|0,0:0|0:0|0:0,0:0:0:0:
377,232,434338,1,0,0:0:0:0:
392,231,434425,1,0,0:0:0:0:
408,231,434512,1,0,0:0:0:0:
328,146,434687,2,0,L|360:145,2,19.9999988079071,2|0|0,0:0|0:0|0:0,0:0:0:0:
357,52,435036,1,0,0:0:0:0:
372,51,435123,1,0,0:0:0:0:
387,50,435210,1,0,0:0:0:0:
248,139,435384,6,0,P|205:144|161:141,1,71.9999935112002,10|0,0:0|0:0,0:0:0:0:
76,18,435733,2,0,P|92:52|105:92,1,71.9999935112002,2|0,0:0|0:0,0:0:0:0:
57,179,436082,1,0,0:0:0:0:
173,252,436256,2,0,P|217:249|258:239,1,71.9999935112002,2|0,0:0|0:0,0:0:0:0:
327,169,436605,1,0,0:0:0:0:
317,330,436780,5,0,0:0:0:0:
220,344,436954,1,0,0:0:0:0:
327,169,437129,2,0,P|379:160|408:162,1,71.9999935112002,2|0,0:0|0:0,0:0:0:0:
472,232,437477,1,0,0:0:0:0:
276,248,437652,2,0,P|224:247|198:241,1,71.9999935112002,2|0,0:0|0:0,0:0:0:0:
125,181,438001,1,0,0:0:0:0:
262,82,438175,5,8,0:0:0:0:
324,158,438349,1,0,0:0:0:0:
165,95,438524,2,0,P|154:58|150:20,1,71.9999935112002,2|0,0:0|0:0,0:0:0:0:
262,82,438873,1,0,0:0:0:0:
289,249,439047,2,0,P|284:288|269:333,1,71.9999935112002,2|0,0:0|0:0,0:0:0:0:
227,172,439396,1,0,0:0:0:0:
180,268,439570,5,0,0:0:0:0:
325,162,439745,1,0,0:0:0:0:
146,112,439919,2,0,P|97:113|60:123,1,71.9999935112002,2|0,0:0|0:0,0:0:0:0:
227,172,440268,1,0,0:0:0:0:
192,26,440442,2,0,P|146:13|110:14,1,71.9999935112002,2|0,0:0|0:0,0:0:0:0:
278,85,440791,1,0,0:0:0:0:
146,112,440966,5,10,0:0:0:0:
227,172,441140,1,0,0:0:0:0:
365,97,441315,2,0,P|375:58|368:13,1,79.9999952316285,2|0,0:0|0:0,0:0:0:0:
327,191,441663,1,0,0:0:0:0:
417,264,441838,2,0,P|465:265|501:254,1,79.9999952316285,2|0,0:0|0:0,0:0:0:0:
327,191,442187,1,0,0:0:0:0:
230,333,442361,5,0,0:0:0:0:
164,254,442536,1,0,0:0:0:0:
327,191,442710,2,0,P|372:179|416:182,1,79.9999952316285,2|0,0:0|0:0,0:0:0:0:
324,298,443059,1,0,0:0:0:0:
221,165,443233,2,0,P|213:111|218:81,1,79.9999952316285,2|0,0:0|0:0,0:0:0:0:
316,50,443582,1,0,0:0:0:0:
256,264,443756,5,2,0:0:0:0:
147,243,443931,1,2,0:0:0:0:
330,176,444105,1,2,0:0:0:0:
375,279,444280,1,2,0:0:0:0:
256,264,444454,1,2,0:0:0:0:
448,194,444629,1,2,0:0:0:0:
220,162,444803,1,2,0:0:0:0:
492,295,444977,1,2,0:0:0:0:
256,192,445152,12,0,446460,0:0:0:0:
178,365,446547,6,0,B|231:313|308:349|308:349|345:338|364:313|364:313|384:334|430:342|430:342|399:295|409:245|409:245|478:216|469:131|469:131|429:174|376:154|376:154,1,619.999963045121,6|0,0:0|0:0,0:0:0:0:
355,147,452129,6,0,B|284:132|272:63|272:63|212:68|186:13|186:13|201:99|127:150|127:150|200:165|226:218|226:218|170:218|138:264,1,619.999963045121,2|0,0:0|0:0,0:0:0:0:
122,285,457710,6,0,B|167:305|193:335|193:335|223:311|269:307|269:307|311:347|368:353|368:353|412:320|424:273|424:273|456:291|502:299|502:299|444:231|481:151,1,619.999963045121,2|0,0:0|0:0,0:0:0:0:
490,128,463291,6,0,B|449:169|394:146|394:146|374:164|348:170|348:170|357:115|332:63|332:63|287:87|248:57|248:57|229:105|238:150|238:150|186:130|146:167|146:167|127:135|92:122,1,619.999963045121,2|0,0:0|0:0,0:0:0:0:
52,220,468873,5,10,0:0:0:0:
256,192,468960,12,2,474454,0:0:0:0:
