osu file format v14

[General]
AudioFilename: audio.mp3
AudioLeadIn: 0
PreviewTime: -1
Countdown: 0
SampleSet: Soft
StackLeniency: 0.7
Mode: 3
LetterboxInBreaks: 0
SpecialStyle: 0
WidescreenStoryboard: 0

[Editor]
Bookmarks: 30,113661,211012
DistanceSpacing: 0.8
BeatDivisor: 8
GridSize: 16
TimelineZoom: 4.55

[Metadata]
Title:Tick Tick Boom Boom (Ft. Splitbreed)
TitleUnicode:Tick Tick Boom Boom (Ft. Splitbreed)
Artist:Razihel
ArtistUnicode:Razihel
Creator:pcshooter24
Version:Test
Source:
Tags:Trap
BeatmapID:1391621
BeatmapSetID:656909

[Difficulty]
HPDrainRate:4
CircleSize:4
OverallDifficulty:4
ApproachRate:4
SliderMultiplier:2.00000000596047
SliderTickRate:1

[Events]
//Background and Video events
0,0,"tick tick boom boom_BG.jpg",0,0
//Break Periods
2,16581,114019
2,115539,209944
//Storyboard Layer 0 (Background)
//Storyboard Layer 1 (Fail)
//Storyboard Layer 2 (Pass)
//Storyboard Layer 3 (Foreground)
//Storyboard Sound Samples

[TimingPoints]
1554,344.827586206897,4,2,0,100,1,0
104773,-100,4,2,0,100,0,0
110396,-100,4,2,0,100,0,0
115264,300,4,2,0,100,1,0

[HitObjects]
192,192,1554,5,0,0:0:0:0:
320,192,1554,1,0,0:0:0:0:
448,192,1554,1,0,0:0:0:0:
64,192,1554,128,0,1812:0:0:0:0:
64,192,2071,1,0,0:0:0:0:
320,192,2071,1,0,0:0:0:0:
448,192,2071,128,0,2329:0:0:0:0:
192,192,2588,1,0,0:0:0:0:
448,192,2588,1,0,0:0:0:0:
64,192,2588,128,0,2847:0:0:0:0:
64,192,3278,128,0,3450:0:0:0:0:
64,192,3622,128,0,3795:0:0:0:0:
64,192,3967,128,0,4140:0:0:0:0:
64,192,4312,128,0,4571:0:0:0:0:
448,192,4916,128,0,5174:0:0:0:0:
64,192,5347,128,0,5605:0:0:0:0:
64,192,6036,128,0,6209:0:0:0:0:
64,192,6381,128,0,6554:0:0:0:0:
64,192,6726,128,0,6898:0:0:0:0:
64,192,7071,128,0,7329:0:0:0:0:
448,192,7588,128,0,7847:0:0:0:0:
64,192,8105,128,0,8364:0:0:0:0:
64,192,8795,128,0,8967:0:0:0:0:
64,192,9140,128,0,9312:0:0:0:0:
64,192,9485,128,0,9657:0:0:0:0:
64,192,9829,128,0,10088:0:0:0:0:
448,192,10347,128,0,10605:0:0:0:0:
64,192,10864,128,0,11122:0:0:0:0:
64,192,11554,128,0,11726:0:0:0:0:
64,192,11898,128,0,12071:0:0:0:0:
64,192,12588,128,0,12847:0:0:0:0:
448,192,12588,1,0,0:0:0:0:
320,192,12588,128,0,12760:0:0:0:0:
448,192,12760,1,0,0:0:0:0:
448,192,12933,1,0,0:0:0:0:
448,192,13105,1,0,0:0:0:0:
192,192,13105,128,0,13364:0:0:0:0:
64,192,13105,128,0,13278:0:0:0:0:
448,192,13278,1,0,0:0:0:0:
448,192,13450,1,0,0:0:0:0:
448,192,13622,1,0,0:0:0:0:
64,192,13622,128,0,13881:0:0:0:0:
192,192,13622,128,0,13795:0:0:0:0:
448,192,13795,1,0,0:0:0:0:
320,192,13881,1,0,0:0:0:0:
448,192,13967,1,0,0:0:0:0:
448,192,14140,1,0,0:0:0:0:
64,192,14312,128,0,14571:0:0:0:0:
448,192,14312,1,0,0:0:0:0:
320,192,14312,128,0,14485:0:0:0:0:
448,192,14485,1,0,0:0:0:0:
448,192,14657,1,0,0:0:0:0:
192,192,14700,128,0,14872:0:0:0:0:
448,192,14829,1,0,0:0:0:0:
320,192,14916,1,0,0:0:0:0:
320,192,14959,1,0,0:0:0:0:
448,192,15002,1,0,0:0:0:0:
448,192,15045,1,0,0:0:0:0:
64,192,15045,128,0,15260:0:0:0:0:
448,192,15174,1,0,0:0:0:0:
320,192,15260,1,0,0:0:0:0:
320,192,15304,1,0,0:0:0:0:
448,192,15347,1,0,0:0:0:0:
320,192,15347,128,0,15519:0:0:0:0:
448,192,15390,1,0,0:0:0:0:
448,192,15519,1,0,0:0:0:0:
448,192,15691,1,0,0:0:0:0:
448,192,15864,1,0,0:0:0:0:
192,192,15907,128,0,16079:0:0:0:0:
448,192,16036,1,0,0:0:0:0:
448,192,16209,1,0,0:0:0:0:
448,192,16381,1,0,0:0:0:0:
320,192,115339,5,0,0:0:0:0:
192,192,115339,5,0,0:0:0:0:
64,192,211264,5,0,0:0:0:0:
448,192,211264,5,0,0:0:0:0:
192,192,211264,1,0,0:0:0:0:
320,192,211264,1,0,0:0:0:0:
