osu file format v14

[General]
AudioFilename: audio.mp3
AudioLeadIn: 0
PreviewTime: -1
Countdown: 1
SampleSet: Normal
StackLeniency: 0.7
Mode: 0
LetterboxInBreaks: 0
WidescreenStoryboard: 0

[Editor]
DistanceSpacing: 6
BeatDivisor: 4
GridSize: 16
TimelineZoom: 1

[Metadata]
Title:Love u
TitleUnicode:Love u
Artist:Razihel
ArtistUnicode:Razihel
Creator:DygnitarZ
Version:a
Source:
Tags:
BeatmapID:981521
BeatmapSetID:457998

[Difficulty]
HPDrainRate:9
CircleSize:4.7
OverallDifficulty:8.9
ApproachRate:9.4
SliderMultiplier:1.8
SliderTickRate:1

[Events]
//Background and Video events
//Break Periods
//Storyboard Layer 0 (Background)
//Storyboard Layer 1 (Fail)
//Storyboard Layer 2 (Pass)
//Storyboard Layer 3 (Foreground)
//Storyboard Sound Samples

[TimingPoints]
1378,428.571428571429,4,1,0,100,1,0
20592,-133.333333333333,4,1,0,100,0,0
21842,-142.857142857143,4,1,0,100,0,0
69949,214.285714285714,4,1,0,100,1,0
74234,107.142857142857,4,1,0,100,1,0
74662,53.5714285714286,4,1,0,100,1,0
75091,428.571428571429,4,1,0,100,1,0

[HitObjects]
48,192,8235,5,0,0:0:0:0:
400,48,8663,1,0,0:0:0:0:
448,96,8878,1,0,0:0:0:0:
224,336,9306,2,0,L|128:368,1,90
64,112,9949,2,0,L|32:32,4,45
176,96,10592,2,0,L|224:0,1,90
256,160,11235,1,0,0:0:0:0:
464,192,11663,1,0,0:0:0:0:
96,352,12092,1,0,0:0:0:0:
32,320,12307,1,0,0:0:0:0:
32,64,12735,1,0,0:0:0:0:
96,32,12950,1,0,0:0:0:0:
192,208,13378,2,0,L|192:288,1,45
256,224,13592,2,0,L|256:144,1,45
320,240,13806,2,0,L|320:272,3,22.5
384,256,14020,2,0,L|384:224,3,22.5
448,288,14235,2,0,L|448:192,1,90
256,336,14663,1,0,0:0:0:0:
256,64,15092,1,0,0:0:0:0:
432,112,15520,2,0,L|432:64,1,45
480,144,15735,2,0,L|480:240,1,90
256,224,16163,2,0,L|256:272,1,45
304,346,16378,2,0,B|336:224|336:189|336:189|320:160,1,180
64,144,17235,2,0,B|32:266|39:298|39:298|64:320,1,180
128,336,17878,1,0,0:0:0:0:
208,352,18092,1,0,0:0:0:0:
288,352,18306,1,0,0:0:0:0:
368,336,18520,2,0,P|416:304|464:192,1,180
304,160,19163,2,0,P|331:75|399:19,1,180
464,80,19806,1,0,0:0:0:0:
128,96,20235,1,0,0:0:0:0:
80,192,20449,1,0,0:0:0:0:
128,288,20663,2,0,L|128:304,7,16.8750006437302
256,256,21092,2,0,L|256:176,1,67.5000025749208
368,144,21520,1,0,0:0:0:0:
400,240,21735,1,0,0:0:0:0:
176,176,21949,2,0,P|112:128|80:64,1,125.999996154785
224,32,22592,1,0,0:0:0:0:
384,80,22806,1,0,0:0:0:0:
416,240,23020,2,0,L|464:288,3,62.9999980773926
320,336,23878,1,0,0:0:0:0:
144,304,24092,1,0,0:0:0:0:
120,282,24199,1,0,0:0:0:0:
100,258,24306,1,0,0:0:0:0:
83,231,24413,1,0,0:0:0:0:
71,203,24520,2,0,L|64:160,1,31.4999990386963
128,112,24735,2,0,L|144:80,1,31.4999990386963
64,48,24949,2,0,L|48:16,2,31.4999990386963
256,240,25378,2,0,P|304:256|336:256,1,62.9999980773926
384,160,25806,1,0,0:0:0:0:
384,128,26020,1,0,0:0:0:0:
464,272,26235,1,0,0:0:0:0:
464,304,26449,1,0,0:0:0:0:
480,112,26663,2,0,B|432:32|416:16,1,94.499997116089
336,0,27092,2,0,L|304:0,1,31.4999990386963
320,64,27306,2,0,L|288:80,1,31.4999990386963
336,128,27521,2,0,L|336:144,7,15.7499995193482
272,160,27949,2,0,L|208:208,1,62.9999980773926
