osu file format v14

[General]
AudioFilename: audio.mp3
AudioLeadIn: 0
PreviewTime: 75171
Countdown: 1
SampleSet: None
StackLeniency: 0.6
Mode: 0
LetterboxInBreaks: 0
WidescreenStoryboard: 0

[Editor]
DistanceSpacing: 0.8
BeatDivisor: 4
GridSize: 8
TimelineZoom: 2.1

[Metadata]
Title:Love U
TitleUnicode:Love U
Artist:Razihel
ArtistUnicode:Razihel
Creator:Lirufication
Version:PookSlove
Source:NoCopyRightSounds
Tags:ncs nocopyrightsounds pooks
BeatmapID:1493357
BeatmapSetID:706159

[Difficulty]
HPDrainRate:5
CircleSize:4
OverallDifficulty:8
ApproachRate:9
SliderMultiplier:1.8
SliderTickRate:1

[Events]
//Background and Video events
0,0,"love u bg.jpg",0,0
//Break Periods
2,35728,48857
2,126157,249428
//Storyboard Layer 0 (Background)
//Storyboard Layer 1 (Fail)
//Storyboard Layer 2 (Pass)
//Storyboard Layer 3 (Foreground)
//Storyboard Sound Samples

[TimingPoints]
1457,428.571428571429,4,1,0,100,1,0
1457,-200,4,2,0,30,0,0
3171,-200,4,2,0,40,0,0
4885,-200,4,2,0,50,0,0
6599,-166.666666666667,4,2,0,60,0,0
8314,-100,4,1,0,70,0,0
21599,-83.3333333333333,4,1,0,70,0,0
22028,-90.9090909090909,4,1,0,70,0,0
35742,-125,4,2,0,50,0,0
49457,-111.111111111111,4,1,0,60,0,0
49671,-111.111111111111,4,1,0,5,0,0
49885,-111.111111111111,4,1,0,60,0,0
50528,-111.111111111111,4,1,0,5,0,0
50742,-111.111111111111,4,1,0,60,0,0
51385,-111.111111111111,4,1,0,5,0,0
51599,-111.111111111111,4,1,0,60,0,0
52242,-111.111111111111,4,1,0,5,0,0
52457,-111.111111111111,4,1,0,60,0,0
53099,-111.111111111111,4,1,0,5,0,0
53314,-111.111111111111,4,1,0,60,0,0
53957,-111.111111111111,4,1,0,5,0,0
54171,-111.111111111111,4,1,0,60,0,0
54814,-111.111111111111,4,1,0,5,0,0
55028,-111.111111111111,4,1,0,60,0,0
55671,-111.111111111111,4,1,0,5,0,0
55885,-111.111111111111,4,1,0,60,0,0
56528,-111.111111111111,4,1,0,5,0,0
56742,-111.111111111111,4,1,0,60,0,0
57385,-111.111111111111,4,1,0,5,0,0
57599,-111.111111111111,4,1,0,60,0,0
58242,-111.111111111111,4,1,0,5,0,0
58457,-111.111111111111,4,1,0,60,0,0
59099,-111.111111111111,4,1,0,5,0,0
59314,-111.111111111111,4,1,0,60,0,0
59957,-111.111111111111,4,1,0,5,0,0
60171,-111.111111111111,4,1,0,60,0,0
60814,-111.111111111111,4,1,0,5,0,0
61028,-111.111111111111,4,1,0,60,0,0
61671,-111.111111111111,4,1,0,5,0,0
61885,-111.111111111111,4,1,0,60,0,0
62528,-111.111111111111,4,1,0,5,0,0
62742,-111.111111111111,4,1,0,60,0,0
63171,-100,4,1,0,70,0,0
76885,-83.3333333333333,4,3,0,80,0,1
83528,-66.6666666666667,4,3,0,80,0,1
83742,-83.3333333333333,4,3,0,80,0,1
88885,-83.3333333333333,4,1,0,80,0,0
90171,-66.6666666666667,4,1,0,80,0,0
90599,-71.4285714285714,4,3,0,80,0,1
97028,-200,4,3,0,80,0,1
97457,-71.4285714285714,4,3,0,80,0,1
104314,-66.6666666666667,4,1,0,70,0,1
106242,-90.9090909090909,4,1,0,70,0,1
107742,-66.6666666666667,4,1,0,70,0,1
109671,-90.9090909090909,4,1,0,70,0,1
111171,-66.6666666666667,4,1,0,70,0,1
113099,-90.9090909090909,4,1,0,70,0,1
114599,-66.6666666666667,4,1,0,70,0,1
116528,-90.9090909090909,4,1,0,70,0,1
118028,-166.666666666667,4,2,0,40,0,0
120278,-166.666666666667,4,2,0,5,0,0
120385,-166.666666666667,4,2,0,40,0,0
140314,-125,4,2,0,50,0,0
154028,-111.111111111111,4,1,0,60,0,0
167742,-100,4,1,0,70,0,0
181457,-90.9090909090909,4,1,0,70,0,0
195171,-83.3333333333333,4,3,0,80,0,1
207171,-83.3333333333333,4,1,0,80,0,0
208885,-80,4,3,0,80,0,1
222599,-90.9090909090909,4,1,0,70,0,1
236314,-100,4,2,0,60,0,0
239742,-111.111111111111,4,2,0,50,0,0
243171,-125,4,2,0,40,0,0
246599,-142.857142857143,4,2,0,30,0,0
250028,-166.666666666667,4,2,0,20,0,0
253457,-200,4,2,0,10,0,0

[HitObjects]
168,184,1457,6,0,L|176:120,1,45
224,72,1885,2,0,L|216:128,1,45
248,192,2314,1,0,0:0:0:0:
280,168,2528,1,0,0:0:0:0:
296,136,2742,1,0,0:0:0:0:
304,96,2957,1,0,0:0:0:0:
432,96,3171,6,0,L|376:80,1,45
328,24,3599,2,0,L|392:40,1,45
432,96,4028,1,0,0:0:0:0:
448,128,4242,1,0,0:0:0:0:
448,168,4457,1,0,0:0:0:0:
432,200,4671,1,0,0:0:0:0:
344,232,4885,6,0,L|384:256,1,45
424,328,5314,2,0,L|384:304,1,45
296,312,5742,1,0,0:0:0:0:
296,312,5957,1,0,0:0:0:0:
240,232,6171,1,0,0:0:0:0:
240,232,6385,1,0,0:0:0:0:
191,255,6599,6,0,L|256:224,1,53.9999983520508
112,312,7028,2,0,L|176:344,1,53.9999983520508
104,216,7457,1,0,0:0:0:0:
104,216,7671,1,0,0:0:0:0:
16,272,7885,1,0,0:0:0:0:
16,272,8099,1,0,0:0:0:0:
104,216,8314,6,0,P|120:184|104:120,1,90,4|0,0:0|0:0,0:0:0:0:
40,80,8742,1,0,0:0:0:0:
120,40,8957,2,0,B|184:24|208:104|304:56,1,180
368,8,9599,2,0,P|392:56|368:112,1,90
292,61,10028,5,0,0:0:0:0:
320,152,10242,1,0,0:0:0:0:
320,152,10457,2,0,P|368:184|424:160,1,90
488,96,10885,1,8,0:0:0:0:
448,312,11314,1,0,0:0:0:0:
440,320,11528,1,0,0:0:0:0:
432,328,11742,6,0,P|392:320|352:272,1,90
312,208,12171,1,0,0:0:0:0:
256,136,12385,2,0,P|216:216|272:296,1,180
320,208,13028,2,0,P|352:160|344:112,1,90
296,48,13457,5,0,0:0:0:0:
256,136,13671,1,0,0:0:0:0:
320,208,13885,2,0,L|344:232,6,22.5
256,136,14314,1,8,0:0:0:0:
192,200,14528,1,0,0:0:0:0:
168,112,14742,1,0,0:0:0:0:
160,96,14849,1,0,0:0:0:0:
152,80,14957,1,0,0:0:0:0:
72,32,15171,6,0,P|56:80|72:128,1,90
168,112,15599,1,0,0:0:0:0:
120,200,15814,2,0,P|192:200|160:120,1,180
65,117,16457,2,0,P|24:144|24:208,1,90
56,264,16885,5,0,0:0:0:0:
16,344,17099,1,0,0:0:0:0:
16,344,17314,2,0,P|48:360|120:320,1,90
192,272,17742,1,8,0:0:0:0:
376,328,18171,1,0,0:0:0:0:
384,312,18385,1,0,0:0:0:0:
392,296,18599,6,0,P|400:232|376:192,1,90
312,152,19028,1,0,0:0:0:0:
304,248,19242,1,0,0:0:0:0:
390,210,19457,2,0,P|414:162|406:122,1,90,8|0,0:0|0:0,0:0:0:0:
376,24,19885,2,0,P|352:72|360:112,1,90
390,210,20314,5,0,0:0:0:0:
296,176,20528,1,0,0:0:0:0:
224,240,20742,2,0,L|200:264,3,22.5
288,160,20957,2,0,P|304:120|280:48,2,90
192,104,21599,2,0,P|160:96|136:72,1,53.9999983520508,2|0,0:0|0:0,0:0:0:0:
32,168,21814,2,0,P|64:160|88:136,1,53.9999983520508,2|0,0:0|0:0,0:0:0:0:
144,83,22028,6,0,P|176:131|168:192,1,99.0000030212403,4|0,0:0|0:0,0:0:0:0:
104,248,22457,1,0,0:0:0:0:
104,248,22671,1,0,0:0:0:0:
200,280,22885,2,0,P|256:256|272:192,1,99.0000030212403
376,208,23314,2,0,P|352:152|288:136,1,99.0000030212403
200,56,23742,5,0,0:0:0:0:
272,224,23957,1,0,0:0:0:0:
128,136,24171,1,0,0:0:0:0:
320,135,24385,1,0,0:0:0:0:
256,232,24599,2,0,P|256:296|280:336,1,99.0000030212403,8|0,0:0|0:0,0:0:0:0:
368,256,25028,1,0,0:0:0:0:
368,240,25242,1,0,0:0:0:0:
368,224,25457,6,0,P|368:168|336:128,1,99.0000030212403
208,112,25885,1,0,0:0:0:0:
336,56,26099,1,0,0:0:0:0:
160,40,26314,2,0,P|120:80|120:128,1,99.0000030212403,8|0,0:0|0:0,0:0:0:0:
40,184,26742,2,0,P|80:224|128:224,1,99.0000030212403
224,208,27171,5,0,0:0:0:0:
160,128,27385,1,0,0:0:0:0:
120,226,27599,2,0,L|112:256,3,24.7500007553101
128,272,27814,2,0,P|112:320|48:360,2,99.0000030212403
240,288,28457,1,0,0:0:0:0:
248,304,28564,1,0,0:0:0:0:
256,320,28671,1,0,0:0:0:0:
348,317,28885,6,0,P|300:333|252:317,1,99.0000030212403
296,232,29314,1,0,0:0:0:0:
232,160,29528,2,0,B|208:176|200:208|200:208|160:144|216:64,1,198.000006042481
312,88,30171,2,0,P|344:144|336:184,1,99.0000030212403
288,272,30599,5,0,0:0:0:0:
400,256,30814,1,0,0:0:0:0:
448,152,31028,1,0,0:0:0:0:
339,175,31242,1,0,0:0:0:0:
368,64,31457,2,0,P|320:56|264:88,1,99.0000030212403,8|0,0:0|0:0,0:0:0:0:
192,160,31885,1,0,0:0:0:0:
192,160,32099,1,0,0:0:0:0:
192,160,32314,6,0,P|160:112|160:64,1,99.0000030212403
72,16,32742,1,0,0:0:0:0:
56,120,32957,2,0,B|32:240|112:200|24:328,1,198.000006042481
160,272,33599,2,0,P|232:248|256:200,1,99.0000030212403
168,152,34028,5,0,0:0:0:0:
272,96,34242,1,0,0:0:0:0:
368,160,34457,2,0,L|408:152,3,24.7500007553101
352,184,34671,2,0,L|376:304,2,99.0000030212403,0|8|0,0:0|0:0|0:0,0:0:0:0:
400,80,35314,1,0,0:0:0:0:
408,64,35421,1,0,0:0:0:0:
416,48,35528,1,0,0:0:0:0:
248,96,49457,6,0,P|288:64|336:64,1,80.9999975280763
328,72,49885,1,8,0:0:0:0:
456,184,50314,6,0,P|416:152|368:152,1,80.9999975280763
376,160,50742,1,8,0:0:0:0:
240,256,51171,6,0,P|280:224|328:224,1,80.9999975280763
320,232,51599,1,8,0:0:0:0:
464,320,52028,6,0,P|424:288|376:288,1,80.9999975280763
384,296,52456,1,8,0:0:0:0:
320,232,52885,6,0,P|288:192|288:144,1,80.9999975280763
328,96,53314,1,8,0:0:0:0:
184,48,53742,6,0,P|152:88|152:136,1,80.9999975280763
192,184,54171,1,8,0:0:0:0:
284,300,54599,6,0,P|252:260|252:212,1,80.9999975280763
292,164,55028,1,8,0:0:0:0:
148,116,55456,6,0,P|116:156|116:204,1,80.9999975280763
156,252,55885,1,8,0:0:0:0:
248,232,56314,6,0,L|308:178,1,80.9999975280763
392,192,56742,1,8,0:0:0:0:
168,192,57171,6,0,L|228:138,1,80.9999975280763
312,152,57599,1,8,0:0:0:0:
88,144,58028,6,0,L|148:90,1,80.9999975280763
232,104,58456,1,8,0:0:0:0:
8,96,58885,6,0,L|68:42,1,80.9999975280763
152,56,59313,1,8,0:0:0:0:
264,64,59742,6,0,P|312:80|336:112,1,80.9999975280763
376,176,60171,1,8,0:0:0:0:
488,64,60599,6,0,P|472:112|440:136,1,80.9999975280763
376,176,61028,1,8,0:0:0:0:
488,288,61457,6,0,P|440:272|416:240,1,80.9999975280763
376,176,61886,1,8,0:0:0:0:
264,288,62314,6,0,P|280:240|312:216,1,80.9999975280763
376,176,62743,1,8,0:0:0:0:
384,168,63171,6,0,P|368:128|296:88,1,90
232,120,63599,2,0,P|248:160|320:200,1,90
384,168,64028,2,0,P|416:208|384:232,1,90
320,272,64349,1,0,0:0:0:0:
320,296,64457,2,0,L|368:328,1,45
200,264,64671,2,0,L|264:264,1,45
272,176,64885,6,0,P|192:176|144:176,1,90
72,144,65314,2,0,L|184:144,1,90
272,176,65742,2,0,P|256:224|208:240,1,90
136,248,66064,1,0,0:0:0:0:
120,264,66171,2,0,L|144:304,1,45
64,192,66385,2,0,L|40:240,1,45
162,144,66599,6,0,P|120:96|72:96,1,90
32,24,67028,2,0,P|80:0|144:24,1,90
162,144,67457,2,0,L|200:40,1,90
280,24,67778,1,0,0:0:0:0:
288,56,67885,2,0,L|336:80,1,45
264,144,68099,2,0,L|288:184,1,45
376,160,68314,6,0,P|416:120|416:56,1,90
352,240,68742,2,0,P|312:280|312:344,1,90
376,160,69171,2,0,P|416:176|432:240,1,90
408,304,69492,1,0,0:0:0:0:
400,328,69599,2,0,L|432:368,1,45
260,311,69814,2,0,L|308:311,1,45
352,240,70028,5,0,0:0:0:0:
440,72,70242,1,0,0:0:0:0:
344,224,70457,1,0,0:0:0:0:
401,43,70671,1,0,0:0:0:0:
328,216,70885,5,0,0:0:0:0:
352,27,71099,1,0,0:0:0:0:
312,208,71314,1,0,0:0:0:0:
302,17,71528,1,0,0:0:0:0:
184,232,71742,5,0,0:0:0:0:
48,80,71957,1,0,0:0:0:0:
48,224,72171,1,0,0:0:0:0:
208,64,72385,1,0,0:0:0:0:
312,208,72599,5,0,0:0:0:0:
152,304,72814,1,0,0:0:0:0:
408,240,73028,1,0,0:0:0:0:
176,144,73242,1,0,0:0:0:0:
312,64,73457,6,0,L|384:72,1,45
56,216,73671,2,0,L|-16:208,1,45
312,216,73885,2,0,L|384:208,1,45
56,64,74099,2,0,L|-16:72,1,45
176,144,74314,5,0,0:0:0:0:
160,176,74421,1,0,0:0:0:0:
208,224,74528,1,0,0:0:0:0:
224,256,74635,1,0,0:0:0:0:
184,312,74742,2,0,L|152:296,6,22.5
208,336,75171,5,0,0:0:0:0:
224,344,75599,1,0,0:0:0:0:
240,352,76028,1,0,0:0:0:0:
288,352,76349,1,0,0:0:0:0:
344,296,76671,1,0,0:0:0:0:
272,256,76885,6,0,P|312:216|376:224,1,107.999996704102
288,152,77314,2,0,P|360:160|384:208,1,107.999996704102
360,80,77742,2,0,P|408:128|408:184,1,107.999996704102
432,240,78064,2,0,P|400:296|328:296,1,107.999996704102
232,336,78385,2,0,L|288:336,1,53.9999983520508
296,256,78599,6,0,L|272:136,1,107.999996704102
264,88,79028,2,0,L|240:208,1,107.999996704102
232,264,79457,2,0,L|208:144,1,107.999996704102
152,96,79778,2,0,L|264:64,1,107.999996704102
344,48,80099,2,0,L|304:0,1,53.9999983520508
216,0,80314,6,0,P|160:48|120:48,1,107.999996704102
32,48,80742,2,0,P|88:96|128:96,1,107.999996704102
216,96,81171,2,0,P|160:144|120:144,1,107.999996704102
79,271,81492,2,0,P|49:228|53:176,1,107.999996704102
208,232,81814,2,0,L|136:232,1,53.9999983520508
160,312,82028,6,0,P|208:336|264:336,1,107.999996704102
288,296,82457,2,0,L|281:269,6,26.9999991760254
368,280,82885,2,0,P|416:304|472:304,1,107.999996704102
408,208,83207,2,0,P|360:184|304:184,1,107.999996704102
216,128,83528,2,0,L|224:216,1,67.5000025749208
192,280,83742,6,0,P|136:240|136:176,1,107.999996704102
72,216,84171,2,0,P|96:151|157:134,1,107.999996704102
120,72,84599,2,0,P|184:96|201:157,1,107.999996704102
224,208,84921,2,0,P|272:184|288:120,1,107.999996704102
264,48,85242,2,0,L|317:54,1,53.9999983520508
408,40,85457,6,0,L|376:168,1,107.999996704102
416,120,85885,2,0,L|448:248,1,107.999996704102
392,216,86314,2,0,L|360:344,1,107.999996704102
280,352,86635,2,0,P|224:312|232:240,1,107.999996704102
288,192,86957,2,0,L|296:248,1,53.9999983520508
208,168,87171,6,0,P|240:120|312:120,1,107.999996704102
376,128,87599,2,0,P|344:80|272:80,1,107.999996704102
200,80,88028,2,0,P|232:32|304:32,1,107.999996704102
288,112,88349,2,0,L|184:232,1,107.999996704102
144,152,88671,2,0,L|112:96,1,53.9999983520508
48,48,88885,6,0,L|8:32,6,26.9999991760254
32,128,89314,2,0,L|0:152,6,26.9999991760254
72,216,89742,2,0,L|120:256,1,53.9999983520508
96,344,89957,2,0,L|160:320,1,53.9999983520508
208,248,90171,2,0,P|248:224|240:152,1,67.5000025749208
192,128,90385,1,0,0:0:0:0:
176,104,90492,1,0,0:0:0:0:
136,96,90599,6,0,P|176:48|256:80,1,125.999996154785
312,112,90921,1,0,0:0:0:0:
328,80,91028,2,0,L|320:16,1,62.9999980773926
408,56,91242,2,0,L|448:8,1,62.9999980773926
400,136,91457,2,0,L|440:280,1,125.999996154785
392,336,91778,1,0,0:0:0:0:
360,328,91885,2,0,L|312:280,1,62.9999980773926
280,160,92099,2,0,L|344:216,1,62.9999980773926
432,256,92314,5,0,0:0:0:0:
456,240,92421,1,0,0:0:0:0:
496,240,92528,2,0,L|456:168,1,62.9999980773926
424,112,92742,2,0,L|392:48,1,62.9999980773926
200,80,92957,2,0,P|264:40|344:80,1,125.999996154785
328,136,93278,1,0,0:0:0:0:
344,160,93385,2,0,L|344:208,2,31.4999990386963
247,195,93599,2,0,L|264:168,2,31.4999990386963
184,152,93814,2,0,L|144:168,2,31.4999990386963
168,192,94028,6,0,P|112:136|120:64,1,125.999996154785
48,32,94349,1,0,0:0:0:0:
40,64,94457,2,0,L|64:136,1,62.9999980773926
32,200,94671,2,0,L|104:240,1,62.9999980773926
176,280,94885,2,0,L|56:344,1,125.999996154785
64,240,95207,1,0,0:0:0:0:
87,230,95314,2,0,P|111:198|151:182,1,62.9999980773926
272,152,95528,2,0,P|248:184|208:200,1,62.9999980773926
218,89,95742,6,0,P|194:137|231:196,1,125.999996154785
304,240,96064,1,0,0:0:0:0:
280,272,96171,1,0,0:0:0:0:
240,280,96278,1,0,0:0:0:0:
208,304,96385,2,0,L|264:352,1,62.9999980773926
352,336,96599,2,0,L|408:296,1,62.9999980773926
392,216,96814,2,0,L|360:184,2,31.4999990386963
432,200,97028,2,0,B|440:168|440:168|432:160|432:160|440:128,1,67.5
464,56,97457,6,0,L|480:16,6,31.4999990386963
376,72,97885,2,0,L|360:112,6,31.4999990386963
304,24,98314,2,0,B|240:32|240:32|264:104,1,125.999996154785
248,168,98635,1,0,0:0:0:0:
232,192,98742,2,0,L|293:203,1,62.9999980773926
400,296,98957,2,0,L|333:281,1,62.9999980773926
240,296,99171,5,0,0:0:0:0:
216,264,99278,1,0,0:0:0:0:
208,224,99385,1,0,0:0:0:0:
216,184,99492,1,0,0:0:0:0:
240,152,99599,2,0,L|200:96,1,62.9999980773926
128,40,99814,2,0,L|120:112,1,62.9999980773926
104,176,100028,1,0,0:0:0:0:
88,176,100135,1,0,0:0:0:0:
72,176,100242,2,0,L|40:160,2,31.4999990386963
96,264,100457,2,0,L|72:304,2,31.4999990386963
168,200,100671,2,0,L|216:192,2,31.4999990386963
72,176,100885,6,0,P|72:248|128:288,1,125.999996154785
200,280,101207,1,0,0:0:0:0:
192,312,101314,2,0,L|152:368,1,62.9999980773926
312,192,101528,2,0,L|275:243,1,62.9999980773926
280,336,101742,2,0,P|352:320|344:264,1,125.999996154785
312,192,102064,1,0,0:0:0:0:
336,184,102171,2,0,P|368:184|408:208,1,62.9999980773926
448,272,102385,2,0,P|480:232|480:200,1,62.9999980773926
464,136,102599,6,0,B|432:88|384:96|384:96|360:72,1,125.999996154785
280,104,102921,1,0,0:0:0:0:
272,80,103028,1,0,0:0:0:0:
272,56,103135,1,0,0:0:0:0:
288,32,103242,2,0,P|240:16|216:32,1,62.9999980773926
192,40,103457,2,0,L|160:16,2,31.4999990386963
192,120,103671,1,0,0:0:0:0:
208,168,103778,1,0,0:0:0:0:
224,216,103885,1,0,0:0:0:0:
72,168,104099,1,0,0:0:0:0:
185,271,104314,6,0,L|227:211,1,67.5000025749208
302,249,104528,2,0,L|248:320,1,67.5000025749208
344,328,104742,2,0,L|392:264,1,67.5000025749208
464,304,104956,2,0,L|424:360,1,67.5000025749208
302,249,105171,2,0,B|336:216|344:168|344:168|360:168|360:168|368:112|408:80,1,202.500007724762
416,104,105599,1,0,0:0:0:0:
464,304,106028,1,0,0:0:0:0:
464,176,106242,6,0,L|464:232,1,49.5000015106202
344,112,106457,2,0,L|400:112,1,49.5000015106202
272,216,106671,2,0,L|272:160,1,49.5000015106202
392,280,106886,2,0,L|336:280,1,49.5000015106202
293,280,107099,2,0,L|357:280,1,49.5000015106202
272,117,107314,2,0,L|272:181,1,49.5000015106202
443,112,107528,2,0,L|379:112,1,49.5000015106202
464,293,107743,6,0,L|464:218,1,67.5000025749208
384,176,107957,2,0,L|384:256,1,67.5000025749208
304,184,108171,2,0,L|304:96,1,67.5000025749208
224,64,108385,2,0,L|224:131,1,67.5000025749208
384,176,108599,2,0,B|408:128|408:128|376:96|384:48|328:32|328:32|336:0,1,202.500007724762
352,24,109028,1,0,0:0:0:0:
224,131,109457,1,0,0:0:0:0:
296,168,109671,6,0,L|360:168,1,49.5000015106202
240,208,109885,2,0,L|320:208,1,49.5000015106202
176,240,110099,2,0,L|256:240,1,49.5000015106202
112,208,110314,2,0,L|168:208,1,49.5000015106202
208,128,110528,2,0,L|208:88,2,24.7500007553101
232,80,110742,2,0,P|184:24|160:88,1,148.50000453186
88,128,111171,6,0,L|144:192,1,67.5000025749208
252,178,111385,2,0,L|196:114,1,67.5000025749208
72,256,111599,2,0,L|128:320,1,67.5000025749208
236,306,111813,2,0,L|180:242,1,67.5000025749208
132,178,112028,2,0,B|200:144|256:184|256:184|244:138|280:112,1,202.500007724762
288,104,112457,1,0,0:0:0:0:
236,306,112885,1,0,0:0:0:0:
112,304,113099,6,0,L|176:304,1,49.5000015106202
40,184,113314,2,0,L|40:248,1,49.5000015106202
168,120,113528,2,0,L|104:120,1,49.5000015106202
240,232,113743,2,0,L|240:168,1,49.5000015106202
240,133,113957,2,0,L|240:205,1,49.5000015106202
69,120,114171,2,0,L|141:120,1,49.5000015106202
40,283,114385,2,0,L|40:211,1,49.5000015106202
211,304,114599,6,0,L|120:304,1,67.5000025749208
192,224,114814,2,0,L|272:224,1,67.5000025749208
304,144,115028,2,0,L|213:144,1,67.5000025749208
285,64,115243,2,0,L|365:64,1,67.5000025749208
259,224,115457,2,0,B|368:240|384:160|384:160|432:208,1,202.500007724762
424,216,115885,1,0,0:0:0:0:
352,64,116314,1,0,0:0:0:0:
232,64,116528,6,0,L|296:64,1,49.5000015106202
184,96,116742,2,0,L|256:96,1,49.5000015106202
128,128,116957,2,0,L|184:128,1,49.5000015106202
56,104,117171,2,0,L|120:104,1,49.5000015106202
72,192,117385,2,0,L|48:224,2,24.7500007553101
88,208,117599,2,0,L|88:248,2,24.7500007553101
104,224,117814,2,0,L|128:248,2,24.7500007553101
184,192,118028,5,0,0:0:0:0:
213,121,118242,1,0,0:0:0:0:
266,67,118457,1,0,0:0:0:0:
210,207,118671,5,0,0:0:0:0:
256,145,118885,1,0,0:0:0:0:
321,107,119100,1,0,0:0:0:0:
228,230,119314,2,0,B|181:256|188:293|188:293|281:263|363:316,1,242.999992584229
426,331,120385,2,0,L|448:367,2,26.9999991760254
408,251,120814,5,0,0:0:0:0:
408,143,121028,1,0,0:0:0:0:
501,197,121242,1,0,0:0:0:0:
409,143,121457,6,0,P|374:129|341:136,1,53.9999983520508
340,221,121885,1,0,0:0:0:0:
340,221,122099,2,0,P|297:216|271:198,1,53.9999983520508
265,114,122528,1,0,0:0:0:0:
265,114,122742,2,0,P|224:110|190:119,1,53.9999983520508
195,213,123171,1,0,0:0:0:0:
195,213,123385,2,0,P|154:217|120:208,1,53.9999983520508
61,255,123814,2,0,P|50:225|64:188,1,53.9999983520508
97,140,124242,2,0,L|50:91,2,53.9999983520508
141,215,124885,5,0,0:0:0:0:
150,74,125099,1,0,0:0:0:0:
265,155,125314,1,0,0:0:0:0:
105,142,125528,5,0,0:0:0:0:
231,78,125742,1,0,0:0:0:0:
218,219,125957,1,0,0:0:0:0:
256,192,250028,12,0,253242,0:0:0:0:
256,192,253457,12,0,256671,0:0:0:0:
256,192,256885,12,0,260099,0:0:0:0:
