osu file format v14

[General]
AudioFilename: Razihel & Virtual Riot - One for All, All for One.mp3
AudioLeadIn: 0
PreviewTime: 39196
Countdown: 0
SampleSet: Soft
StackLeniency: 0.7
Mode: 3
LetterboxInBreaks: 0
SpecialStyle: 0
WidescreenStoryboard: 1

[Editor]
DistanceSpacing: 2
BeatDivisor: 4
GridSize: 4
TimelineZoom: 2.999999

[Metadata]
Title:One for All, All for One
TitleUnicode:One for All, All for One
Artist:Razihel & Virtual Riot
ArtistUnicode:Razihel & Virtual Riot
Creator:Crono
Version:One 4 All
Source:
Tags:
BeatmapID:1074630
BeatmapSetID:483597

[Difficulty]
HPDrainRate:8.2
CircleSize:4
OverallDifficulty:8.2
ApproachRate:5
SliderMultiplier:0.9
SliderTickRate:1

[Events]
//Background and Video events
0,0,"one for all_bg.jpg",0,0
//Break Periods
//Storyboard Layer 0 (Background)
//Storyboard Layer 1 (Fail)
//Storyboard Layer 2 (Pass)
//Storyboard Layer 3 (Foreground)
//Storyboard Sound Samples

[TimingPoints]
1128,413.793103448276,4,2,0,5,1,0

[HitObjects]
402,192,1128,5,0,0:0:0:0:
36,192,1128,1,0,0:0:0:0:
182,192,1334,1,0,0:0:0:0:
329,192,1541,1,0,0:0:0:0:
475,192,1748,1,0,0:0:0:0:
109,192,1955,1,0,0:0:0:0:
256,192,1955,1,0,0:0:0:0:
402,192,1955,1,0,0:0:0:0:
182,192,2162,1,0,0:0:0:0:
109,192,2369,1,0,0:0:0:0:
182,192,2472,1,0,0:0:0:0:
448,192,2576,1,0,0:0:0:0:
329,192,2679,1,0,0:0:0:0:
64,192,2783,1,0,0:0:0:0:
192,192,2783,1,0,0:0:0:0:
329,192,2990,1,0,0:0:0:0:
448,192,3196,1,0,0:0:0:0:
320,192,3403,1,0,0:0:0:0:
36,192,3610,1,0,0:0:0:0:
402,192,3610,1,0,0:0:0:0:
192,192,3610,1,0,0:0:0:0:
320,192,3817,1,0,0:0:0:0:
64,192,3817,1,0,0:0:0:0:
402,192,3921,1,0,0:0:0:0:
192,192,4024,1,0,0:0:0:0:
320,192,4024,1,0,0:0:0:0:
182,192,4231,1,0,0:0:0:0:
448,192,4231,1,0,0:0:0:0:
256,192,4438,1,0,0:0:0:0:
36,192,4438,1,0,0:0:0:0:
192,192,4645,1,0,0:0:0:0:
109,192,4852,1,0,0:0:0:0:
256,192,5059,1,0,0:0:0:0:
402,192,5265,1,0,0:0:0:0:
109,192,5265,1,0,0:0:0:0:
320,192,5265,1,0,0:0:0:0:
182,192,5472,1,0,0:0:0:0:
448,192,5679,1,0,0:0:0:0:
320,192,5783,1,0,0:0:0:0:
192,192,5886,1,0,0:0:0:0:
64,192,5990,1,0,0:0:0:0:
182,192,6093,1,0,0:0:0:0:
448,192,6093,1,0,0:0:0:0:
320,192,6300,1,0,0:0:0:0:
192,192,6507,1,0,0:0:0:0:
448,192,6714,1,0,0:0:0:0:
36,192,6921,1,0,0:0:0:0:
192,192,6921,1,0,0:0:0:0:
320,192,6921,1,0,0:0:0:0:
192,192,7128,1,0,0:0:0:0:
448,192,7128,1,0,0:0:0:0:
320,192,7231,1,0,0:0:0:0:
475,192,7334,1,0,0:0:0:0:
64,192,7334,1,0,0:0:0:0:
475,192,7541,1,0,0:0:0:0:
192,192,7541,1,0,0:0:0:0:
329,192,7748,1,0,0:0:0:0:
64,192,7748,1,0,0:0:0:0:
192,192,7955,1,0,0:0:0:0:
320,192,8162,1,0,0:0:0:0:
448,192,8369,1,0,0:0:0:0:
109,192,8576,1,0,0:0:0:0:
182,192,8576,1,0,0:0:0:0:
320,192,8576,1,0,0:0:0:0:
448,192,8783,1,0,0:0:0:0:
36,192,8990,1,0,0:0:0:0:
182,192,9093,1,0,0:0:0:0:
448,192,9196,1,0,0:0:0:0:
256,192,9300,1,0,0:0:0:0:
36,192,9403,1,0,0:0:0:0:
448,192,9403,1,0,0:0:0:0:
320,192,9610,1,0,0:0:0:0:
192,192,9817,1,0,0:0:0:0:
64,192,10024,1,0,0:0:0:0:
402,192,10231,1,0,0:0:0:0:
64,192,10231,1,0,0:0:0:0:
320,192,10231,1,0,0:0:0:0:
475,192,10438,1,0,0:0:0:0:
192,192,10438,1,0,0:0:0:0:
64,192,10541,1,0,0:0:0:0:
475,192,10645,1,0,0:0:0:0:
320,192,10645,1,0,0:0:0:0:
402,192,10852,1,0,0:0:0:0:
192,192,10852,1,0,0:0:0:0:
320,192,11059,1,0,0:0:0:0:
64,192,11059,1,0,0:0:0:0:
192,192,11265,1,0,0:0:0:0:
64,192,11472,1,0,0:0:0:0:
192,192,11679,1,0,0:0:0:0:
475,192,11886,1,0,0:0:0:0:
36,192,11886,1,0,0:0:0:0:
192,192,11886,1,0,0:0:0:0:
320,192,12093,1,0,0:0:0:0:
448,192,12300,1,0,0:0:0:0:
256,192,12403,1,0,0:0:0:0:
192,192,12507,1,0,0:0:0:0:
64,192,12610,1,0,0:0:0:0:
448,192,12714,1,0,0:0:0:0:
192,192,12714,1,0,0:0:0:0:
320,192,12921,1,0,0:0:0:0:
192,192,13128,1,0,0:0:0:0:
448,192,13334,1,0,0:0:0:0:
36,192,13541,128,0,13645:0:0:0:0:
192,192,13541,128,0,13645:0:0:0:0:
182,192,13748,128,0,13852:0:0:0:0:
320,192,13748,128,0,13852:0:0:0:0:
64,192,13955,128,0,14059:0:0:0:0:
448,192,13955,128,0,14059:0:0:0:0:
64,192,14162,128,0,14265:0:0:0:0:
448,192,14162,128,0,14265:0:0:0:0:
64,192,14369,128,0,14576:0:0:0:0:
320,192,14369,1,0,0:0:0:0:
192,192,14576,128,0,14783:0:0:0:0:
448,192,14783,128,0,14990:0:0:0:0:
64,192,14990,128,0,15196:0:0:0:0:
448,192,15196,128,0,15817:0:0:0:0:
320,192,15196,1,0,0:0:0:0:
182,192,15196,1,0,0:0:0:0:
256,192,15403,1,0,0:0:0:0:
192,192,15610,1,0,0:0:0:0:
109,192,15714,1,0,0:0:0:0:
182,192,15817,1,0,0:0:0:0:
256,192,15921,1,0,0:0:0:0:
475,192,16024,1,0,0:0:0:0:
36,192,16024,1,0,0:0:0:0:
320,192,16231,128,0,16334:0:0:0:0:
192,192,16334,128,0,16438:0:0:0:0:
448,192,16438,128,0,16541:0:0:0:0:
448,192,16645,128,0,16852:0:0:0:0:
36,192,16852,1,0,0:0:0:0:
320,192,16852,128,0,17059:0:0:0:0:
192,192,16852,1,0,0:0:0:0:
402,192,17059,1,0,0:0:0:0:
192,192,17059,128,0,17265:0:0:0:0:
320,192,17162,1,0,0:0:0:0:
64,192,17265,128,0,17472:0:0:0:0:
448,192,17265,1,0,0:0:0:0:
320,192,17472,128,0,17679:0:0:0:0:
182,192,17472,1,0,0:0:0:0:
448,192,17679,128,0,18300:0:0:0:0:
36,192,17679,1,0,0:0:0:0:
182,192,17679,1,0,0:0:0:0:
320,192,17886,1,0,0:0:0:0:
192,192,18093,1,0,0:0:0:0:
320,192,18300,1,0,0:0:0:0:
64,192,18507,128,0,19128:0:0:0:0:
448,192,18507,1,0,0:0:0:0:
192,192,18507,1,0,0:0:0:0:
320,192,18714,1,0,0:0:0:0:
192,192,18921,1,0,0:0:0:0:
448,192,19024,1,0,0:0:0:0:
256,192,19128,1,0,0:0:0:0:
182,192,19231,1,0,0:0:0:0:
329,192,19334,128,0,19541:0:0:0:0:
36,192,19334,1,0,0:0:0:0:
182,192,19541,1,0,0:0:0:0:
475,192,19541,1,0,0:0:0:0:
64,192,19645,1,0,0:0:0:0:
329,192,19748,128,0,19955:0:0:0:0:
192,192,19955,128,0,20162:0:0:0:0:
36,192,19955,1,0,0:0:0:0:
475,192,19955,1,0,0:0:0:0:
64,192,20162,1,0,0:0:0:0:
448,192,20162,1,0,0:0:0:0:
320,192,20162,1,0,0:0:0:0:
182,192,20265,1,0,0:0:0:0:
36,192,20369,1,0,0:0:0:0:
448,192,20369,1,0,0:0:0:0:
329,192,20472,1,0,0:0:0:0:
402,192,20576,1,0,0:0:0:0:
192,192,20576,128,0,20783:0:0:0:0:
36,192,20576,1,0,0:0:0:0:
475,192,20783,128,0,20990:0:0:0:0:
320,192,20783,1,0,0:0:0:0:
182,192,20990,128,0,21196:0:0:0:0:
36,192,20990,1,0,0:0:0:0:
329,192,21196,128,0,21403:0:0:0:0:
402,192,21196,1,0,0:0:0:0:
192,192,21403,128,0,21610:0:0:0:0:
64,192,21610,128,0,21817:0:0:0:0:
475,192,21817,128,0,22231:0:0:0:0:
329,192,21817,1,0,0:0:0:0:
182,192,21817,1,0,0:0:0:0:
64,192,22024,1,0,0:0:0:0:
192,192,22231,1,0,0:0:0:0:
109,192,22334,1,0,0:0:0:0:
256,192,22438,1,0,0:0:0:0:
182,192,22541,1,0,0:0:0:0:
329,192,22645,1,0,0:0:0:0:
475,192,22645,1,0,0:0:0:0:
192,192,22852,128,0,22955:0:0:0:0:
320,192,22955,128,0,23059:0:0:0:0:
475,192,23059,1,0,0:0:0:0:
182,192,23059,128,0,23162:0:0:0:0:
192,192,23265,128,0,23472:0:0:0:0:
320,192,23472,128,0,23679:0:0:0:0:
36,192,23472,1,0,0:0:0:0:
448,192,23472,1,0,0:0:0:0:
448,192,23679,128,0,23886:0:0:0:0:
64,192,23679,1,0,0:0:0:0:
192,192,23783,1,0,0:0:0:0:
109,192,23886,128,0,24093:0:0:0:0:
329,192,23886,1,0,0:0:0:0:
320,192,24093,128,0,24300:0:0:0:0:
402,192,24093,1,0,0:0:0:0:
448,192,24300,1,0,0:0:0:0:
192,192,24300,128,0,25128:0:0:0:0:
64,192,24507,1,0,0:0:0:0:
329,192,24714,1,0,0:0:0:0:
448,192,24921,1,0,0:0:0:0:
320,192,25128,128,0,25955:0:0:0:0:
36,192,25128,1,0,0:0:0:0:
475,192,25128,1,0,0:0:0:0:
192,192,25334,1,0,0:0:0:0:
448,192,25541,1,0,0:0:0:0:
192,192,25645,1,0,0:0:0:0:
64,192,25748,1,0,0:0:0:0:
192,192,25852,1,0,0:0:0:0:
64,192,25955,128,0,26783:0:0:0:0:
448,192,25955,1,0,0:0:0:0:
320,192,26162,1,0,0:0:0:0:
182,192,26369,1,0,0:0:0:0:
256,192,26576,1,0,0:0:0:0:
448,192,26576,1,0,0:0:0:0:
402,192,26783,1,0,0:0:0:0:
192,192,26783,1,0,0:0:0:0:
320,192,26783,1,0,0:0:0:0:
109,192,26886,1,0,0:0:0:0:
182,192,26990,1,0,0:0:0:0:
475,192,26990,1,0,0:0:0:0:
256,192,27093,1,0,0:0:0:0:
475,192,27196,1,0,0:0:0:0:
192,192,27196,1,0,0:0:0:0:
64,192,27196,1,0,0:0:0:0:
256,192,27300,1,0,0:0:0:0:
64,192,27403,1,0,0:0:0:0:
448,192,27403,1,0,0:0:0:0:
192,192,27507,1,0,0:0:0:0:
448,192,27610,128,0,28852:0:0:0:0:
329,192,27610,1,0,0:0:0:0:
64,192,27610,1,0,0:0:0:0:
109,192,27817,1,0,0:0:0:0:
182,192,27921,1,0,0:0:0:0:
320,192,28024,1,0,0:0:0:0:
64,192,28024,1,0,0:0:0:0:
192,192,28231,1,0,0:0:0:0:
36,192,28438,1,0,0:0:0:0:
320,192,28438,1,0,0:0:0:0:
192,192,28645,1,0,0:0:0:0:
320,192,28748,1,0,0:0:0:0:
109,192,28852,1,0,0:0:0:0:
192,192,28852,1,0,0:0:0:0:
448,192,29059,1,0,0:0:0:0:
320,192,29265,128,0,30300:0:0:0:0:
475,192,29265,1,0,0:0:0:0:
182,192,29265,1,0,0:0:0:0:
192,192,29472,1,0,0:0:0:0:
109,192,29576,1,0,0:0:0:0:
402,192,29679,1,0,0:0:0:0:
192,192,29679,1,0,0:0:0:0:
64,192,29886,1,0,0:0:0:0:
475,192,30093,1,0,0:0:0:0:
192,192,30093,1,0,0:0:0:0:
448,192,30300,1,0,0:0:0:0:
192,192,30403,1,0,0:0:0:0:
475,192,30507,1,0,0:0:0:0:
36,192,30507,1,0,0:0:0:0:
320,192,30714,1,0,0:0:0:0:
64,192,30714,1,0,0:0:0:0:
192,192,30921,128,0,32162:0:0:0:0:
256,192,30921,1,0,0:0:0:0:
402,192,30921,1,0,0:0:0:0:
448,192,31128,1,0,0:0:0:0:
256,192,31231,1,0,0:0:0:0:
448,192,31334,1,0,0:0:0:0:
36,192,31334,1,0,0:0:0:0:
320,192,31541,1,0,0:0:0:0:
36,192,31748,1,0,0:0:0:0:
402,192,31748,1,0,0:0:0:0:
329,192,31955,1,0,0:0:0:0:
448,192,32059,1,0,0:0:0:0:
36,192,32162,1,0,0:0:0:0:
320,192,32162,1,0,0:0:0:0:
192,192,32265,1,0,0:0:0:0:
320,192,32369,1,0,0:0:0:0:
448,192,32472,1,0,0:0:0:0:
64,192,32576,128,0,33817:0:0:0:0:
182,192,32576,1,0,0:0:0:0:
320,192,32576,1,0,0:0:0:0:
402,192,32783,1,0,0:0:0:0:
320,192,32886,1,0,0:0:0:0:
192,192,32990,1,0,0:0:0:0:
448,192,32990,1,0,0:0:0:0:
475,192,33196,1,0,0:0:0:0:
320,192,33403,128,0,33507:0:0:0:0:
448,192,33403,1,0,0:0:0:0:
192,192,33610,128,0,33714:0:0:0:0:
448,192,33817,128,0,33921:0:0:0:0:
320,192,33817,1,0,0:0:0:0:
448,192,34024,128,0,34128:0:0:0:0:
320,192,34231,1,0,0:0:0:0:
192,192,34231,128,0,35472:0:0:0:0:
448,192,34438,1,0,0:0:0:0:
329,192,34541,1,0,0:0:0:0:
402,192,34645,1,0,0:0:0:0:
36,192,34645,1,0,0:0:0:0:
109,192,34852,1,0,0:0:0:0:
475,192,35059,1,0,0:0:0:0:
329,192,35059,1,0,0:0:0:0:
36,192,35265,1,0,0:0:0:0:
320,192,35369,1,0,0:0:0:0:
109,192,35472,1,0,0:0:0:0:
402,192,35472,1,0,0:0:0:0:
182,192,35576,1,0,0:0:0:0:
256,192,35679,1,0,0:0:0:0:
448,192,35783,1,0,0:0:0:0:
320,192,35886,1,0,0:0:0:0:
64,192,35886,128,0,37128:0:0:0:0:
320,192,36093,1,0,0:0:0:0:
182,192,36196,1,0,0:0:0:0:
320,192,36300,1,0,0:0:0:0:
448,192,36300,1,0,0:0:0:0:
192,192,36507,1,0,0:0:0:0:
329,192,36714,1,0,0:0:0:0:
448,192,36714,1,0,0:0:0:0:
448,192,36921,1,0,0:0:0:0:
320,192,37024,1,0,0:0:0:0:
475,192,37128,1,0,0:0:0:0:
192,192,37128,1,0,0:0:0:0:
475,192,37334,1,0,0:0:0:0:
64,192,37334,1,0,0:0:0:0:
320,192,37541,128,0,38783:0:0:0:0:
475,192,37541,1,0,0:0:0:0:
64,192,37748,1,0,0:0:0:0:
182,192,37955,1,0,0:0:0:0:
109,192,38162,1,0,0:0:0:0:
402,192,38369,1,0,0:0:0:0:
182,192,38576,1,0,0:0:0:0:
36,192,38783,1,0,0:0:0:0:
192,192,38783,1,0,0:0:0:0:
192,192,38886,1,0,0:0:0:0:
320,192,38886,1,0,0:0:0:0:
448,192,38990,1,0,0:0:0:0:
329,192,38990,1,0,0:0:0:0:
192,192,39093,1,0,0:0:0:0:
64,192,39093,1,0,0:0:0:0:
329,192,39196,1,0,0:0:0:0:
448,192,39196,128,0,40438:0:0:0:0:
182,192,39403,1,0,0:0:0:0:
182,192,39817,1,0,0:0:0:0:
329,192,40024,128,0,40128:0:0:0:0:
192,192,40231,128,0,40334:0:0:0:0:
109,192,40438,128,0,40541:0:0:0:0:
109,192,40645,128,0,40748:0:0:0:0:
192,192,40852,128,0,41265:0:0:0:0:
448,192,40852,128,0,41265:0:0:0:0:
64,192,41265,128,0,41472:0:0:0:0:
448,192,41472,128,0,41679:0:0:0:0:
182,192,41679,128,0,41886:0:0:0:0:
320,192,41679,1,0,0:0:0:0:
64,192,41679,1,0,0:0:0:0:
329,192,41886,128,0,42093:0:0:0:0:
475,192,42093,128,0,42403:0:0:0:0:
109,192,42507,128,0,42714:0:0:0:0:
182,192,42507,1,0,0:0:0:0:
329,192,42714,128,0,42921:0:0:0:0:
402,192,42921,128,0,43128:0:0:0:0:
109,192,42921,128,0,43128:0:0:0:0:
182,192,43128,128,0,43231:0:0:0:0:
329,192,43128,128,0,43231:0:0:0:0:
192,192,43334,128,0,43541:0:0:0:0:
448,192,43334,1,0,0:0:0:0:
36,192,43334,1,0,0:0:0:0:
320,192,43334,128,0,43541:0:0:0:0:
64,192,43541,1,0,0:0:0:0:
182,192,43645,1,0,0:0:0:0:
256,192,43748,1,0,0:0:0:0:
448,192,43852,1,0,0:0:0:0:
192,192,43852,1,0,0:0:0:0:
64,192,43955,1,0,0:0:0:0:
192,192,44059,1,0,0:0:0:0:
448,192,44162,128,0,44576:0:0:0:0:
64,192,44162,128,0,44576:0:0:0:0:
320,192,44162,1,0,0:0:0:0:
329,192,44576,128,0,44783:0:0:0:0:
448,192,44783,128,0,44990:0:0:0:0:
192,192,44990,1,0,0:0:0:0:
320,192,44990,1,0,0:0:0:0:
64,192,44990,128,0,45093:0:0:0:0:
64,192,45196,128,0,45300:0:0:0:0:
64,192,45403,128,0,45507:0:0:0:0:
320,192,45507,128,0,45610:0:0:0:0:
192,192,45610,1,0,0:0:0:0:
64,192,45610,128,0,45714:0:0:0:0:
320,192,45714,128,0,45817:0:0:0:0:
36,192,45817,128,0,46231:0:0:0:0:
192,192,45817,128,0,46024:0:0:0:0:
448,192,45817,1,0,0:0:0:0:
448,192,46024,128,0,46231:0:0:0:0:
192,192,46231,128,0,46438:0:0:0:0:
256,192,46231,1,0,0:0:0:0:
320,192,46438,128,0,46645:0:0:0:0:
109,192,46645,1,0,0:0:0:0:
448,192,46645,1,0,0:0:0:0:
192,192,46645,1,0,0:0:0:0:
320,192,46748,1,0,0:0:0:0:
192,192,46852,1,0,0:0:0:0:
64,192,46955,1,0,0:0:0:0:
182,192,47059,128,0,47265:0:0:0:0:
448,192,47059,1,0,0:0:0:0:
320,192,47265,128,0,47472:0:0:0:0:
109,192,47472,128,0,47886:0:0:0:0:
475,192,47472,128,0,47886:0:0:0:0:
182,192,47886,128,0,48093:0:0:0:0:
402,192,48093,128,0,48300:0:0:0:0:
320,192,48300,1,0,0:0:0:0:
192,192,48300,1,0,0:0:0:0:
64,192,48300,128,0,48403:0:0:0:0:
109,192,48507,128,0,48610:0:0:0:0:
448,192,48714,1,0,0:0:0:0:
320,192,48783,1,0,0:0:0:0:
192,192,48852,1,0,0:0:0:0:
448,192,48921,1,0,0:0:0:0:
320,192,48990,1,0,0:0:0:0:
192,192,49059,1,0,0:0:0:0:
64,192,49128,128,0,49541:0:0:0:0:
448,192,49128,128,0,49334:0:0:0:0:
192,192,49334,128,0,49541:0:0:0:0:
475,192,49541,128,0,49645:0:0:0:0:
475,192,49748,128,0,49852:0:0:0:0:
182,192,49955,1,0,0:0:0:0:
320,192,49955,128,0,50369:0:0:0:0:
475,192,50162,1,0,0:0:0:0:
192,192,50265,1,0,0:0:0:0:
36,192,50369,1,0,0:0:0:0:
192,192,50472,1,0,0:0:0:0:
320,192,50576,1,0,0:0:0:0:
192,192,50679,1,0,0:0:0:0:
64,192,50783,128,0,51196:0:0:0:0:
448,192,50783,128,0,51196:0:0:0:0:
320,192,51196,128,0,51610:0:0:0:0:
192,192,51403,128,0,51610:0:0:0:0:
64,192,51610,128,0,51714:0:0:0:0:
448,192,51610,128,0,51714:0:0:0:0:
448,192,51817,128,0,51921:0:0:0:0:
64,192,51817,128,0,51921:0:0:0:0:
448,192,52024,128,0,52128:0:0:0:0:
36,192,52024,128,0,52128:0:0:0:0:
448,192,52231,128,0,52334:0:0:0:0:
64,192,52231,128,0,52334:0:0:0:0:
320,192,52231,1,0,0:0:0:0:
192,192,52438,128,0,52645:0:0:0:0:
448,192,52438,128,0,52852:0:0:0:0:
320,192,52438,1,0,0:0:0:0:
109,192,52645,128,0,52852:0:0:0:0:
182,192,52852,128,0,53059:0:0:0:0:
320,192,52852,1,0,0:0:0:0:
64,192,53059,128,0,53265:0:0:0:0:
448,192,53265,1,0,0:0:0:0:
192,192,53265,1,0,0:0:0:0:
320,192,53265,1,0,0:0:0:0:
109,192,53369,1,0,0:0:0:0:
182,192,53472,1,0,0:0:0:0:
256,192,53576,1,0,0:0:0:0:
448,192,53679,128,0,53886:0:0:0:0:
182,192,53886,128,0,54093:0:0:0:0:
109,192,54093,128,0,54507:0:0:0:0:
448,192,54093,128,0,54507:0:0:0:0:
320,192,54093,1,0,0:0:0:0:
182,192,54507,128,0,54714:0:0:0:0:
320,192,54714,128,0,54921:0:0:0:0:
64,192,54921,1,0,0:0:0:0:
192,192,54921,1,0,0:0:0:0:
448,192,54921,128,0,55128:0:0:0:0:
329,192,55128,128,0,55334:0:0:0:0:
109,192,55334,128,0,55748:0:0:0:0:
192,192,55334,1,0,0:0:0:0:
320,192,55386,1,0,0:0:0:0:
448,192,55438,1,0,0:0:0:0:
448,192,55748,1,0,0:0:0:0:
192,192,55748,128,0,55955:0:0:0:0:
448,192,55955,128,0,56162:0:0:0:0:
256,192,56162,128,0,56265:0:0:0:0:
36,192,56369,128,0,56472:0:0:0:0:
64,192,56576,128,0,56679:0:0:0:0:
475,192,56576,1,0,0:0:0:0:
320,192,56576,1,0,0:0:0:0:
182,192,56783,1,0,0:0:0:0:
256,192,56886,1,0,0:0:0:0:
109,192,56990,1,0,0:0:0:0:
475,192,56990,1,0,0:0:0:0:
192,192,57093,1,0,0:0:0:0:
329,192,57196,1,0,0:0:0:0:
182,192,57300,1,0,0:0:0:0:
64,192,57403,128,0,57817:0:0:0:0:
448,192,57403,128,0,57817:0:0:0:0:
320,192,57403,1,0,0:0:0:0:
192,192,57817,128,0,58231:0:0:0:0:
320,192,58024,128,0,58231:0:0:0:0:
64,192,58231,128,0,58334:0:0:0:0:
448,192,58231,128,0,58334:0:0:0:0:
64,192,58438,128,0,58541:0:0:0:0:
448,192,58438,128,0,58541:0:0:0:0:
64,192,58645,128,0,58748:0:0:0:0:
320,192,58748,128,0,58852:0:0:0:0:
64,192,58852,128,0,58955:0:0:0:0:
192,192,58852,1,0,0:0:0:0:
320,192,58955,128,0,59059:0:0:0:0:
109,192,59059,128,0,59265:0:0:0:0:
192,192,59059,1,0,0:0:0:0:
402,192,59265,128,0,59472:0:0:0:0:
192,192,59472,128,0,59679:0:0:0:0:
64,192,59472,1,0,0:0:0:0:
320,192,59679,128,0,59886:0:0:0:0:
448,192,59886,1,0,0:0:0:0:
192,192,59886,1,0,0:0:0:0:
64,192,59886,1,0,0:0:0:0:
320,192,59990,1,0,0:0:0:0:
64,192,60093,1,0,0:0:0:0:
192,192,60196,1,0,0:0:0:0:
320,192,60300,128,0,60507:0:0:0:0:
64,192,60300,1,0,0:0:0:0:
475,192,60507,128,0,60714:0:0:0:0:
109,192,60714,128,0,61128:0:0:0:0:
329,192,60714,1,0,0:0:0:0:
182,192,60714,1,0,0:0:0:0:
320,192,61128,128,0,61541:0:0:0:0:
64,192,61334,128,0,61541:0:0:0:0:
402,192,61541,128,0,61645:0:0:0:0:
192,192,61541,128,0,61645:0:0:0:0:
402,192,61748,128,0,61852:0:0:0:0:
192,192,61748,128,0,61852:0:0:0:0:
36,192,61955,1,0,0:0:0:0:
182,192,62024,1,0,0:0:0:0:
329,192,62093,1,0,0:0:0:0:
109,192,62162,1,0,0:0:0:0:
192,192,62231,1,0,0:0:0:0:
320,192,62300,1,0,0:0:0:0:
448,192,62369,128,0,62783:0:0:0:0:
64,192,62369,128,0,62576:0:0:0:0:
192,192,62576,128,0,62783:0:0:0:0:
320,192,62783,128,0,62886:0:0:0:0:
320,192,62990,128,0,63093:0:0:0:0:
475,192,63196,1,0,0:0:0:0:
192,192,63196,128,0,63403:0:0:0:0:
64,192,63196,1,0,0:0:0:0:
402,192,63403,1,0,0:0:0:0:
329,192,63507,1,0,0:0:0:0:
402,192,63610,1,0,0:0:0:0:
109,192,63610,1,0,0:0:0:0:
192,192,63714,1,0,0:0:0:0:
329,192,63817,1,0,0:0:0:0:
402,192,63921,1,0,0:0:0:0:
36,192,64024,128,0,64438:0:0:0:0:
182,192,64024,1,0,0:0:0:0:
320,192,64024,128,0,64438:0:0:0:0:
192,192,64438,128,0,64852:0:0:0:0:
256,192,64645,128,0,64852:0:0:0:0:
36,192,64852,128,0,64955:0:0:0:0:
448,192,64852,1,0,0:0:0:0:
402,192,65059,128,0,65162:0:0:0:0:
320,192,65265,128,0,65369:0:0:0:0:
192,192,65472,128,0,65576:0:0:0:0:
64,192,65472,1,0,0:0:0:0:
329,192,65679,128,0,65886:0:0:0:0:
182,192,65679,1,0,0:0:0:0:
64,192,65679,128,0,66507:0:0:0:0:
475,192,65679,1,0,0:0:0:0:
448,192,65886,128,0,66093:0:0:0:0:
192,192,66093,1,0,0:0:0:0:
320,192,66300,1,0,0:0:0:0:
256,192,66507,1,0,0:0:0:0:
402,192,66507,1,0,0:0:0:0:
192,192,66507,1,0,0:0:0:0:
64,192,66610,1,0,0:0:0:0:
320,192,66714,1,0,0:0:0:0:
448,192,66817,1,0,0:0:0:0:
192,192,66921,1,0,0:0:0:0:
64,192,67024,1,0,0:0:0:0:
192,192,67128,1,0,0:0:0:0:
320,192,67231,1,0,0:0:0:0:
448,192,67334,128,0,68576:0:0:0:0:
109,192,67334,1,0,0:0:0:0:
182,192,67541,1,0,0:0:0:0:
256,192,67748,1,0,0:0:0:0:
182,192,67955,1,0,0:0:0:0:
329,192,68162,1,0,0:0:0:0:
36,192,68162,1,0,0:0:0:0:
192,192,68162,1,0,0:0:0:0:
256,192,68369,1,0,0:0:0:0:
109,192,68576,1,0,0:0:0:0:
320,192,68679,1,0,0:0:0:0:
192,192,68783,1,0,0:0:0:0:
448,192,68886,1,0,0:0:0:0:
320,192,68990,128,0,70231:0:0:0:0:
64,192,68990,1,0,0:0:0:0:
475,192,69196,1,0,0:0:0:0:
182,192,69403,1,0,0:0:0:0:
109,192,69610,1,0,0:0:0:0:
182,192,69817,1,0,0:0:0:0:
402,192,69817,1,0,0:0:0:0:
36,192,69817,1,0,0:0:0:0:
475,192,70024,1,0,0:0:0:0:
192,192,70128,1,0,0:0:0:0:
36,192,70231,1,0,0:0:0:0:
448,192,70231,1,0,0:0:0:0:
192,192,70334,1,0,0:0:0:0:
329,192,70438,1,0,0:0:0:0:
448,192,70541,1,0,0:0:0:0:
192,192,70645,128,0,71886:0:0:0:0:
329,192,70645,1,0,0:0:0:0:
36,192,70852,1,0,0:0:0:0:
256,192,71059,1,0,0:0:0:0:
402,192,71265,1,0,0:0:0:0:
475,192,71472,1,0,0:0:0:0:
329,192,71472,1,0,0:0:0:0:
109,192,71472,1,0,0:0:0:0:
256,192,71679,1,0,0:0:0:0:
329,192,71886,1,0,0:0:0:0:
448,192,71990,1,0,0:0:0:0:
320,192,72093,1,0,0:0:0:0:
192,192,72093,1,0,0:0:0:0:
109,192,72196,1,0,0:0:0:0:
448,192,72300,128,0,73541:0:0:0:0:
256,192,72300,1,0,0:0:0:0:
192,192,72300,1,0,0:0:0:0:
109,192,72507,1,0,0:0:0:0:
64,192,72714,1,0,0:0:0:0:
320,192,72714,1,0,0:0:0:0:
192,192,72921,1,0,0:0:0:0:
109,192,73128,1,0,0:0:0:0:
256,192,73128,1,0,0:0:0:0:
192,192,73128,128,0,73231:0:0:0:0:
329,192,73334,128,0,73438:0:0:0:0:
109,192,73541,128,0,73645:0:0:0:0:
192,192,73541,1,0,0:0:0:0:
109,192,73748,128,0,73852:0:0:0:0:
448,192,73955,1,0,0:0:0:0:
182,192,73955,1,0,0:0:0:0:
256,192,74059,1,0,0:0:0:0:
64,192,74162,1,0,0:0:0:0:
192,192,74265,1,0,0:0:0:0:
448,192,74369,1,0,0:0:0:0:
64,192,74369,1,0,0:0:0:0:
256,192,74472,1,0,0:0:0:0:
64,192,74576,1,0,0:0:0:0:
192,192,74679,1,0,0:0:0:0:
329,192,74783,1,0,0:0:0:0:
475,192,74783,1,0,0:0:0:0:
64,192,74783,1,0,0:0:0:0:
192,192,74886,1,0,0:0:0:0:
448,192,74990,1,0,0:0:0:0:
320,192,75093,1,0,0:0:0:0:
192,192,75196,1,0,0:0:0:0:
475,192,75196,1,0,0:0:0:0:
256,192,75300,1,0,0:0:0:0:
192,192,75403,1,0,0:0:0:0:
64,192,75507,1,0,0:0:0:0:
402,192,75610,1,0,0:0:0:0:
192,192,75610,1,0,0:0:0:0:
329,192,75714,1,0,0:0:0:0:
64,192,75817,1,0,0:0:0:0:
192,192,75921,1,0,0:0:0:0:
402,192,76024,1,0,0:0:0:0:
36,192,76024,1,0,0:0:0:0:
329,192,76128,1,0,0:0:0:0:
64,192,76231,1,0,0:0:0:0:
192,192,76334,1,0,0:0:0:0:
402,192,76438,1,0,0:0:0:0:
36,192,76438,1,0,0:0:0:0:
320,192,76438,1,0,0:0:0:0:
192,192,76541,1,0,0:0:0:0:
448,192,76645,1,0,0:0:0:0:
320,192,76748,1,0,0:0:0:0:
182,192,76852,1,0,0:0:0:0:
475,192,76852,1,0,0:0:0:0:
256,192,76955,1,0,0:0:0:0:
192,192,77059,1,0,0:0:0:0:
36,192,77162,1,0,0:0:0:0:
182,192,77265,1,0,0:0:0:0:
448,192,77265,1,0,0:0:0:0:
256,192,77369,1,0,0:0:0:0:
475,192,77472,1,0,0:0:0:0:
192,192,77472,1,0,0:0:0:0:
320,192,77576,1,0,0:0:0:0:
182,192,77679,1,0,0:0:0:0:
36,192,77679,1,0,0:0:0:0:
256,192,77783,1,0,0:0:0:0:
475,192,77886,1,0,0:0:0:0:
64,192,77886,1,0,0:0:0:0:
192,192,77990,1,0,0:0:0:0:
36,192,78093,1,0,0:0:0:0:
475,192,78093,1,0,0:0:0:0:
256,192,78093,1,0,0:0:0:0:
182,192,78196,1,0,0:0:0:0:
320,192,78300,1,0,0:0:0:0:
448,192,78403,1,0,0:0:0:0:
64,192,78507,1,0,0:0:0:0:
192,192,78507,1,0,0:0:0:0:
448,192,78610,1,0,0:0:0:0:
320,192,78610,1,0,0:0:0:0:
182,192,78714,1,0,0:0:0:0:
64,192,78714,1,0,0:0:0:0:
256,192,78817,1,0,0:0:0:0:
448,192,78817,1,0,0:0:0:0:
192,192,78921,1,0,0:0:0:0:
64,192,78921,128,0,79541:0:0:0:0:
402,192,79128,1,0,0:0:0:0:
402,192,79541,1,0,0:0:0:0:
36,192,79748,1,0,0:0:0:0:
192,192,79748,128,0,79852:0:0:0:0:
256,192,79955,128,0,80059:0:0:0:0:
36,192,79955,1,0,0:0:0:0:
36,192,80162,1,0,0:0:0:0:
448,192,80162,128,0,80265:0:0:0:0:
36,192,80369,1,0,0:0:0:0:
448,192,80369,128,0,80472:0:0:0:0:
109,192,80576,128,0,80990:0:0:0:0:
402,192,80576,128,0,80990:0:0:0:0:
256,192,80576,1,0,0:0:0:0:
329,192,80990,128,0,81093:0:0:0:0:
329,192,81196,128,0,81300:0:0:0:0:
192,192,81300,128,0,81403:0:0:0:0:
109,192,81403,1,0,0:0:0:0:
320,192,81403,128,0,81507:0:0:0:0:
475,192,81403,1,0,0:0:0:0:
182,192,81507,128,0,81610:0:0:0:0:
329,192,81610,128,0,81714:0:0:0:0:
256,192,81817,128,0,82024:0:0:0:0:
192,192,82024,128,0,82231:0:0:0:0:
448,192,82231,128,0,82645:0:0:0:0:
64,192,82231,128,0,82438:0:0:0:0:
256,192,82231,1,0,0:0:0:0:
192,192,82438,128,0,82645:0:0:0:0:
109,192,82645,128,0,82748:0:0:0:0:
320,192,82645,128,0,82748:0:0:0:0:
182,192,82852,128,0,82955:0:0:0:0:
448,192,82852,128,0,82955:0:0:0:0:
448,192,83059,128,0,83162:0:0:0:0:
64,192,83059,128,0,83162:0:0:0:0:
256,192,83059,1,0,0:0:0:0:
320,192,83265,128,0,83369:0:0:0:0:
192,192,83265,128,0,83369:0:0:0:0:
109,192,83472,1,0,0:0:0:0:
448,192,83472,1,0,0:0:0:0:
36,192,83576,1,0,0:0:0:0:
192,192,83679,1,0,0:0:0:0:
182,192,83783,1,0,0:0:0:0:
36,192,83886,1,0,0:0:0:0:
320,192,83886,128,0,84300:0:0:0:0:
448,192,83886,128,0,84300:0:0:0:0:
109,192,84300,128,0,84403:0:0:0:0:
109,192,84507,128,0,84610:0:0:0:0:
182,192,84610,128,0,84714:0:0:0:0:
448,192,84714,1,0,0:0:0:0:
64,192,84714,1,0,0:0:0:0:
329,192,84817,128,0,84921:0:0:0:0:
192,192,84921,128,0,85024:0:0:0:0:
256,192,85128,128,0,85334:0:0:0:0:
109,192,85334,128,0,85541:0:0:0:0:
182,192,85334,1,0,0:0:0:0:
402,192,85334,1,0,0:0:0:0:
192,192,85541,128,0,85955:0:0:0:0:
320,192,85541,128,0,85748:0:0:0:0:
475,192,85541,1,0,0:0:0:0:
448,192,85748,128,0,85955:0:0:0:0:
64,192,85955,128,0,86265:0:0:0:0:
320,192,85955,1,0,0:0:0:0:
448,192,86162,1,0,0:0:0:0:
192,192,86369,1,0,0:0:0:0:
64,192,86369,128,0,86679:0:0:0:0:
320,192,86369,1,0,0:0:0:0:
402,192,86576,1,0,0:0:0:0:
475,192,86783,1,0,0:0:0:0:
192,192,86783,128,0,86886:0:0:0:0:
256,192,86990,128,0,87093:0:0:0:0:
192,192,87196,128,0,87610:0:0:0:0:
448,192,87196,128,0,87610:0:0:0:0:
36,192,87196,1,0,0:0:0:0:
36,192,87610,128,0,87714:0:0:0:0:
64,192,87817,128,0,87921:0:0:0:0:
320,192,87921,128,0,88024:0:0:0:0:
192,192,88024,1,0,0:0:0:0:
64,192,88024,1,0,0:0:0:0:
448,192,88024,1,0,0:0:0:0:
320,192,88128,128,0,88231:0:0:0:0:
448,192,88231,128,0,88334:0:0:0:0:
192,192,88438,128,0,88541:0:0:0:0:
448,192,88541,128,0,88645:0:0:0:0:
192,192,88645,128,0,88748:0:0:0:0:
448,192,88748,128,0,88852:0:0:0:0:
36,192,88852,128,0,89265:0:0:0:0:
320,192,88852,128,0,89059:0:0:0:0:
182,192,89059,128,0,89265:0:0:0:0:
320,192,89265,128,0,89369:0:0:0:0:
448,192,89265,128,0,89369:0:0:0:0:
402,192,89472,128,0,89576:0:0:0:0:
320,192,89472,128,0,89576:0:0:0:0:
64,192,89576,128,0,89679:0:0:0:0:
192,192,89576,128,0,89679:0:0:0:0:
320,192,89679,128,0,89783:0:0:0:0:
448,192,89679,128,0,89783:0:0:0:0:
448,192,89886,128,0,89990:0:0:0:0:
64,192,89886,128,0,89990:0:0:0:0:
192,192,90093,128,0,90196:0:0:0:0:
320,192,90093,128,0,90196:0:0:0:0:
36,192,90300,128,0,90403:0:0:0:0:
475,192,90300,128,0,90403:0:0:0:0:
402,192,90507,128,0,90921:0:0:0:0:
182,192,90507,128,0,90714:0:0:0:0:
64,192,90507,1,0,0:0:0:0:
329,192,90714,128,0,90921:0:0:0:0:
182,192,90921,128,0,91024:0:0:0:0:
182,192,91128,128,0,91231:0:0:0:0:
256,192,91231,128,0,91334:0:0:0:0:
109,192,91334,1,0,0:0:0:0:
402,192,91334,1,0,0:0:0:0:
192,192,91334,1,0,0:0:0:0:
329,192,91438,128,0,91541:0:0:0:0:
192,192,91541,128,0,91645:0:0:0:0:
109,192,91748,128,0,91852:0:0:0:0:
109,192,91955,128,0,92059:0:0:0:0:
320,192,91955,1,0,0:0:0:0:
448,192,92162,128,0,92576:0:0:0:0:
192,192,92162,128,0,92369:0:0:0:0:
64,192,92162,1,0,0:0:0:0:
64,192,92369,1,0,0:0:0:0:
192,192,92472,1,0,0:0:0:0:
64,192,92576,128,0,92886:0:0:0:0:
320,192,92576,128,0,92783:0:0:0:0:
448,192,92783,128,0,92990:0:0:0:0:
329,192,92990,1,0,0:0:0:0:
64,192,92990,128,0,93403:0:0:0:0:
192,192,92990,1,0,0:0:0:0:
448,192,93093,1,0,0:0:0:0:
182,192,93196,1,0,0:0:0:0:
256,192,93300,1,0,0:0:0:0:
192,192,93403,128,0,93507:0:0:0:0:
448,192,93403,1,0,0:0:0:0:
64,192,93610,128,0,93714:0:0:0:0:
320,192,93610,1,0,0:0:0:0:
475,192,93817,128,0,94231:0:0:0:0:
192,192,93817,1,0,0:0:0:0:
192,192,94231,128,0,94645:0:0:0:0:
256,192,94438,128,0,94645:0:0:0:0:
36,192,94645,128,0,94852:0:0:0:0:
448,192,94645,1,0,0:0:0:0:
192,192,94852,128,0,95059:0:0:0:0:
329,192,95059,128,0,95369:0:0:0:0:
448,192,95059,1,0,0:0:0:0:
192,192,95110,1,0,0:0:0:0:
64,192,95162,1,0,0:0:0:0:
192,192,95472,1,0,0:0:0:0:
64,192,95472,128,0,95679:0:0:0:0:
256,192,95679,128,0,95886:0:0:0:0:
64,192,95886,128,0,95990:0:0:0:0:
402,192,96093,128,0,96196:0:0:0:0:
448,192,96300,128,0,96403:0:0:0:0:
192,192,96300,1,0,0:0:0:0:
64,192,96300,1,0,0:0:0:0:
36,192,96507,1,0,0:0:0:0:
192,192,96610,1,0,0:0:0:0:
256,192,96714,1,0,0:0:0:0:
64,192,96714,1,0,0:0:0:0:
448,192,96817,1,0,0:0:0:0:
320,192,96921,1,0,0:0:0:0:
192,192,97024,1,0,0:0:0:0:
36,192,97128,128,0,97541:0:0:0:0:
475,192,97128,128,0,97541:0:0:0:0:
192,192,97541,128,0,97955:0:0:0:0:
448,192,97748,128,0,97955:0:0:0:0:
320,192,97955,128,0,98059:0:0:0:0:
64,192,97955,1,0,0:0:0:0:
320,192,98162,128,0,98265:0:0:0:0:
320,192,98369,128,0,98472:0:0:0:0:
192,192,98472,128,0,98576:0:0:0:0:
109,192,98576,1,0,0:0:0:0:
402,192,98576,1,0,0:0:0:0:
320,192,98576,128,0,98679:0:0:0:0:
192,192,98679,128,0,98783:0:0:0:0:
256,192,98783,1,0,0:0:0:0:
109,192,98783,128,0,98990:0:0:0:0:
192,192,98990,128,0,99196:0:0:0:0:
320,192,99196,128,0,99403:0:0:0:0:
64,192,99196,1,0,0:0:0:0:
182,192,99403,128,0,99610:0:0:0:0:
475,192,99610,1,0,0:0:0:0:
36,192,99610,1,0,0:0:0:0:
329,192,99610,1,0,0:0:0:0:
192,192,99714,1,0,0:0:0:0:
256,192,99817,1,0,0:0:0:0:
182,192,99921,1,0,0:0:0:0:
329,192,100024,128,0,100231:0:0:0:0:
36,192,100024,1,0,0:0:0:0:
402,192,100231,128,0,100438:0:0:0:0:
192,192,100438,128,0,100852:0:0:0:0:
64,192,100438,1,0,0:0:0:0:
448,192,100852,128,0,101265:0:0:0:0:
320,192,101059,128,0,101265:0:0:0:0:
64,192,101265,128,0,101472:0:0:0:0:
192,192,101265,128,0,101472:0:0:0:0:
329,192,101472,128,0,101679:0:0:0:0:
475,192,101472,128,0,101679:0:0:0:0:
36,192,101679,1,0,0:0:0:0:
182,192,101748,1,0,0:0:0:0:
320,192,101817,1,0,0:0:0:0:
109,192,101886,1,0,0:0:0:0:
192,192,101955,1,0,0:0:0:0:
320,192,102024,1,0,0:0:0:0:
64,192,102093,128,0,102507:0:0:0:0:
448,192,102093,128,0,102300:0:0:0:0:
192,192,102300,128,0,102507:0:0:0:0:
448,192,102507,128,0,102610:0:0:0:0:
320,192,102610,128,0,102714:0:0:0:0:
448,192,102714,128,0,102817:0:0:0:0:
320,192,102817,128,0,102921:0:0:0:0:
36,192,102921,128,0,103128:0:0:0:0:
182,192,102921,1,0,0:0:0:0:
402,192,102921,1,0,0:0:0:0:
256,192,103128,1,0,0:0:0:0:
182,192,103231,1,0,0:0:0:0:
256,192,103334,1,0,0:0:0:0:
36,192,103334,1,0,0:0:0:0:
192,192,103438,1,0,0:0:0:0:
320,192,103541,1,0,0:0:0:0:
475,192,103645,1,0,0:0:0:0:
320,192,103748,128,0,104162:0:0:0:0:
109,192,103748,1,0,0:0:0:0:
64,192,104162,128,0,104576:0:0:0:0:
448,192,104576,128,0,104679:0:0:0:0:
192,192,104576,1,0,0:0:0:0:
320,192,104576,1,0,0:0:0:0:
320,192,104783,128,0,104886:0:0:0:0:
192,192,104990,128,0,105093:0:0:0:0:
36,192,105196,128,0,105300:0:0:0:0:
448,192,105196,1,0,0:0:0:0:
329,192,105403,1,0,0:0:0:0:
64,192,105403,128,0,105817:0:0:0:0:
402,192,105610,1,0,0:0:0:0:
256,192,105714,1,0,0:0:0:0:
192,192,105817,1,0,0:0:0:0:
448,192,105817,1,0,0:0:0:0:
320,192,105921,1,0,0:0:0:0:
64,192,106024,128,0,106438:0:0:0:0:
448,192,106024,1,0,0:0:0:0:
475,192,106231,1,0,0:0:0:0:
320,192,106334,1,0,0:0:0:0:
192,192,106438,1,0,0:0:0:0:
192,192,106645,128,0,106748:0:0:0:0:
320,192,106645,128,0,106748:0:0:0:0:
36,192,106645,1,0,0:0:0:0:
475,192,106645,1,0,0:0:0:0:
109,192,106852,128,0,106955:0:0:0:0:
448,192,106852,128,0,106955:0:0:0:0:
182,192,106852,1,0,0:0:0:0:
256,192,106852,1,0,0:0:0:0:
448,192,107059,128,0,120300:0:0:0:0:
36,192,107059,1,0,0:0:0:0:
182,192,107059,1,0,0:0:0:0:
64,192,107472,1,0,0:0:0:0:
64,192,107886,1,0,0:0:0:0:
64,192,108300,1,0,0:0:0:0:
64,192,108714,1,0,0:0:0:0:
64,192,109128,1,0,0:0:0:0:
192,192,109541,1,0,0:0:0:0:
256,192,109955,1,0,0:0:0:0:
256,192,110162,1,0,0:0:0:0:
64,192,110369,1,0,0:0:0:0:
64,192,110783,1,0,0:0:0:0:
64,192,111196,1,0,0:0:0:0:
64,192,111610,1,0,0:0:0:0:
64,192,112024,1,0,0:0:0:0:
64,192,112438,1,0,0:0:0:0:
64,192,112852,1,0,0:0:0:0:
256,192,113059,1,0,0:0:0:0:
192,192,113265,1,0,0:0:0:0:
192,192,113472,1,0,0:0:0:0:
36,192,113679,1,0,0:0:0:0:
36,192,114093,1,0,0:0:0:0:
36,192,114507,1,0,0:0:0:0:
36,192,114921,1,0,0:0:0:0:
36,192,115334,1,0,0:0:0:0:
36,192,115748,1,0,0:0:0:0:
192,192,116162,128,0,120300:0:0:0:0:
36,192,116162,1,0,0:0:0:0:
329,192,116576,1,0,0:0:0:0:
36,192,116990,1,0,0:0:0:0:
329,192,117196,1,0,0:0:0:0:
36,192,117403,1,0,0:0:0:0:
36,192,117817,1,0,0:0:0:0:
36,192,118231,1,0,0:0:0:0:
36,192,118645,1,0,0:0:0:0:
36,192,119059,1,0,0:0:0:0:
329,192,119472,1,0,0:0:0:0:
64,192,119886,1,0,0:0:0:0:
320,192,120300,1,0,0:0:0:0:
64,192,120300,128,0,123610:0:0:0:0:
475,192,120507,1,0,0:0:0:0:
182,192,120714,1,0,0:0:0:0:
256,192,120921,1,0,0:0:0:0:
192,192,121128,1,0,0:0:0:0:
448,192,121128,1,0,0:0:0:0:
320,192,121334,1,0,0:0:0:0:
182,192,121541,1,0,0:0:0:0:
256,192,121645,1,0,0:0:0:0:
448,192,121748,1,0,0:0:0:0:
320,192,121852,1,0,0:0:0:0:
192,192,121955,1,0,0:0:0:0:
320,192,122162,1,0,0:0:0:0:
192,192,122369,1,0,0:0:0:0:
402,192,122576,1,0,0:0:0:0:
329,192,122783,1,0,0:0:0:0:
192,192,122783,1,0,0:0:0:0:
448,192,122990,1,0,0:0:0:0:
320,192,123196,1,0,0:0:0:0:
192,192,123403,1,0,0:0:0:0:
320,192,123610,128,0,126093:0:0:0:0:
448,192,123610,1,0,0:0:0:0:
192,192,123817,1,0,0:0:0:0:
64,192,124024,1,0,0:0:0:0:
192,192,124231,1,0,0:0:0:0:
64,192,124438,1,0,0:0:0:0:
448,192,124438,1,0,0:0:0:0:
192,192,124645,1,0,0:0:0:0:
36,192,124852,1,0,0:0:0:0:
192,192,124955,1,0,0:0:0:0:
475,192,125059,1,0,0:0:0:0:
192,192,125162,1,0,0:0:0:0:
36,192,125265,1,0,0:0:0:0:
192,192,125472,1,0,0:0:0:0:
475,192,125679,1,0,0:0:0:0:
64,192,125886,1,0,0:0:0:0:
109,192,126093,1,0,0:0:0:0:
448,192,126093,1,0,0:0:0:0:
64,192,126300,1,0,0:0:0:0:
192,192,126403,1,0,0:0:0:0:
36,192,126507,1,0,0:0:0:0:
320,192,126507,1,0,0:0:0:0:
192,192,126714,1,0,0:0:0:0:
448,192,126714,1,0,0:0:0:0:
64,192,126921,128,0,130024:0:0:0:0:
182,192,127128,1,0,0:0:0:0:
256,192,127334,1,0,0:0:0:0:
402,192,127334,1,0,0:0:0:0:
182,192,127541,1,0,0:0:0:0:
402,192,127748,1,0,0:0:0:0:
256,192,127748,1,0,0:0:0:0:
475,192,127955,1,0,0:0:0:0:
192,192,127955,1,0,0:0:0:0:
402,192,128162,1,0,0:0:0:0:
320,192,128265,1,0,0:0:0:0:
192,192,128369,1,0,0:0:0:0:
320,192,128472,1,0,0:0:0:0:
475,192,128576,1,0,0:0:0:0:
182,192,128783,1,0,0:0:0:0:
320,192,128990,1,0,0:0:0:0:
448,192,129196,1,0,0:0:0:0:
320,192,129403,1,0,0:0:0:0:
192,192,129403,1,0,0:0:0:0:
192,192,129610,1,0,0:0:0:0:
320,192,129817,1,0,0:0:0:0:
192,192,130024,128,0,130231:0:0:0:0:
448,192,130024,1,0,0:0:0:0:
320,192,130231,128,0,130438:0:0:0:0:
64,192,130231,1,0,0:0:0:0:
448,192,130438,128,0,132714:0:0:0:0:
182,192,130645,1,0,0:0:0:0:
36,192,130852,1,0,0:0:0:0:
192,192,131059,1,0,0:0:0:0:
320,192,131059,1,0,0:0:0:0:
36,192,131265,1,0,0:0:0:0:
320,192,131472,1,0,0:0:0:0:
192,192,131576,1,0,0:0:0:0:
64,192,131679,1,0,0:0:0:0:
192,192,131783,1,0,0:0:0:0:
36,192,131886,1,0,0:0:0:0:
192,192,132093,1,0,0:0:0:0:
329,192,132300,1,0,0:0:0:0:
64,192,132507,1,0,0:0:0:0:
256,192,132714,128,0,132817:0:0:0:0:
329,192,132921,128,0,133024:0:0:0:0:
182,192,133128,128,0,133231:0:0:0:0:
64,192,133128,128,0,133231:0:0:0:0:
182,192,133334,128,0,133438:0:0:0:0:
64,192,133334,128,0,133438:0:0:0:0:
320,192,133541,1,0,0:0:0:0:
448,192,133541,1,0,0:0:0:0:
192,192,133748,1,0,0:0:0:0:
329,192,133852,1,0,0:0:0:0:
475,192,133955,1,0,0:0:0:0:
182,192,133955,1,0,0:0:0:0:
36,192,133955,1,0,0:0:0:0:
320,192,134162,1,0,0:0:0:0:
64,192,134162,1,0,0:0:0:0:
192,192,134369,1,0,0:0:0:0:
320,192,134576,1,0,0:0:0:0:
64,192,134783,128,0,135196:0:0:0:0:
475,192,134783,1,0,0:0:0:0:
182,192,134783,1,0,0:0:0:0:
329,192,134990,1,0,0:0:0:0:
402,192,135196,1,0,0:0:0:0:
182,192,135196,1,0,0:0:0:0:
320,192,135403,1,0,0:0:0:0:
192,192,135507,1,0,0:0:0:0:
36,192,135610,1,0,0:0:0:0:
329,192,135610,1,0,0:0:0:0:
475,192,135610,1,0,0:0:0:0:
182,192,135817,1,0,0:0:0:0:
320,192,136024,128,0,136128:0:0:0:0:
192,192,136231,128,0,136334:0:0:0:0:
448,192,136438,128,0,136541:0:0:0:0:
36,192,136438,1,0,0:0:0:0:
320,192,136438,1,0,0:0:0:0:
402,192,136645,128,0,136748:0:0:0:0:
256,192,136852,1,0,0:0:0:0:
192,192,136852,1,0,0:0:0:0:
36,192,137059,1,0,0:0:0:0:
192,192,137162,1,0,0:0:0:0:
256,192,137265,1,0,0:0:0:0:
475,192,137265,1,0,0:0:0:0:
36,192,137265,1,0,0:0:0:0:
192,192,137472,1,0,0:0:0:0:
475,192,137679,1,0,0:0:0:0:
256,192,137886,1,0,0:0:0:0:
64,192,138093,128,0,138507:0:0:0:0:
448,192,138093,1,0,0:0:0:0:
192,192,138093,1,0,0:0:0:0:
320,192,138300,1,0,0:0:0:0:
192,192,138507,1,0,0:0:0:0:
320,192,138507,1,0,0:0:0:0:
475,192,138714,1,0,0:0:0:0:
320,192,138817,1,0,0:0:0:0:
475,192,138921,1,0,0:0:0:0:
36,192,138921,1,0,0:0:0:0:
192,192,138921,1,0,0:0:0:0:
109,192,139128,1,0,0:0:0:0:
402,192,139128,1,0,0:0:0:0:
182,192,139334,128,0,139541:0:0:0:0:
448,192,139541,1,0,0:0:0:0:
64,192,139541,1,0,0:0:0:0:
192,192,139645,1,0,0:0:0:0:
320,192,139748,128,0,139955:0:0:0:0:
448,192,139748,1,0,0:0:0:0:
64,192,139748,1,0,0:0:0:0:
448,192,139955,128,0,140162:0:0:0:0:
182,192,139955,1,0,0:0:0:0:
36,192,139955,1,0,0:0:0:0:
36,192,140162,1,0,0:0:0:0:
320,192,140162,1,0,0:0:0:0:
182,192,140369,1,0,0:0:0:0:
256,192,140472,1,0,0:0:0:0:
402,192,140576,1,0,0:0:0:0:
36,192,140576,1,0,0:0:0:0:
192,192,140576,1,0,0:0:0:0:
256,192,140783,1,0,0:0:0:0:
182,192,140783,1,0,0:0:0:0:
402,192,140990,1,0,0:0:0:0:
329,192,141196,1,0,0:0:0:0:
36,192,141403,128,0,141817:0:0:0:0:
182,192,141403,1,0,0:0:0:0:
475,192,141403,1,0,0:0:0:0:
402,192,141610,1,0,0:0:0:0:
256,192,141817,1,0,0:0:0:0:
475,192,141817,1,0,0:0:0:0:
182,192,142024,1,0,0:0:0:0:
256,192,142128,1,0,0:0:0:0:
192,192,142231,1,0,0:0:0:0:
475,192,142231,1,0,0:0:0:0:
256,192,142438,1,0,0:0:0:0:
36,192,142438,1,0,0:0:0:0:
109,192,142645,128,0,142748:0:0:0:0:
192,192,142645,1,0,0:0:0:0:
109,192,142852,128,0,142955:0:0:0:0:
256,192,142852,1,0,0:0:0:0:
64,192,143059,128,0,143265:0:0:0:0:
402,192,143059,1,0,0:0:0:0:
320,192,143059,1,0,0:0:0:0:
192,192,143265,128,0,143472:0:0:0:0:
448,192,143265,1,0,0:0:0:0:
320,192,143472,1,0,0:0:0:0:
448,192,143472,1,0,0:0:0:0:
64,192,143679,1,0,0:0:0:0:
192,192,143783,1,0,0:0:0:0:
475,192,143886,1,0,0:0:0:0:
64,192,143886,1,0,0:0:0:0:
320,192,143886,1,0,0:0:0:0:
402,192,144093,1,0,0:0:0:0:
192,192,144093,1,0,0:0:0:0:
329,192,144300,1,0,0:0:0:0:
182,192,144507,1,0,0:0:0:0:
64,192,144714,128,0,145128:0:0:0:0:
475,192,144714,1,0,0:0:0:0:
329,192,144714,1,0,0:0:0:0:
182,192,144921,1,0,0:0:0:0:
402,192,145128,1,0,0:0:0:0:
320,192,145128,1,0,0:0:0:0:
192,192,145334,1,0,0:0:0:0:
329,192,145438,1,0,0:0:0:0:
182,192,145541,1,0,0:0:0:0:
475,192,145541,1,0,0:0:0:0:
36,192,145541,1,0,0:0:0:0:
329,192,145748,1,0,0:0:0:0:
402,192,145748,1,0,0:0:0:0:
64,192,145955,1,0,0:0:0:0:
192,192,146059,1,0,0:0:0:0:
448,192,146162,1,0,0:0:0:0:
320,192,146265,1,0,0:0:0:0:
36,192,146369,1,0,0:0:0:0:
192,192,146369,1,0,0:0:0:0:
475,192,146369,1,0,0:0:0:0:
320,192,146472,1,0,0:0:0:0:
36,192,146576,1,0,0:0:0:0:
182,192,146576,1,0,0:0:0:0:
475,192,146576,1,0,0:0:0:0:
320,192,146679,1,0,0:0:0:0:
109,192,146783,1,0,0:0:0:0:
402,192,146783,1,0,0:0:0:0:
182,192,146990,1,0,0:0:0:0:
256,192,147196,1,0,0:0:0:0:
402,192,147403,1,0,0:0:0:0:
256,192,147817,1,0,0:0:0:0:
475,192,148024,1,0,0:0:0:0:
182,192,148024,1,0,0:0:0:0:
320,192,148024,1,0,0:0:0:0:
109,192,148128,1,0,0:0:0:0:
182,192,148231,1,0,0:0:0:0:
256,192,148334,1,0,0:0:0:0:
448,192,148438,1,0,0:0:0:0:
109,192,148438,1,0,0:0:0:0:
329,192,148645,1,0,0:0:0:0:
192,192,148748,1,0,0:0:0:0:
448,192,148852,1,0,0:0:0:0:
109,192,148852,1,0,0:0:0:0:
256,192,148852,1,0,0:0:0:0:
182,192,149059,1,0,0:0:0:0:
402,192,149059,1,0,0:0:0:0:
320,192,149265,128,0,149369:0:0:0:0:
448,192,149369,1,0,0:0:0:0:
109,192,149369,1,0,0:0:0:0:
192,192,149472,128,0,149576:0:0:0:0:
320,192,149472,1,0,0:0:0:0:
192,192,149679,1,0,0:0:0:0:
448,192,149679,128,0,149783:0:0:0:0:
64,192,149679,1,0,0:0:0:0:
402,192,149886,128,0,149990:0:0:0:0:
36,192,149886,1,0,0:0:0:0:
192,192,149886,1,0,0:0:0:0:
320,192,149990,1,0,0:0:0:0:
192,192,150093,1,0,0:0:0:0:
448,192,150093,1,0,0:0:0:0:
109,192,150300,1,0,0:0:0:0:
182,192,150403,1,0,0:0:0:0:
36,192,150507,1,0,0:0:0:0:
256,192,150507,1,0,0:0:0:0:
475,192,150507,1,0,0:0:0:0:
109,192,150714,1,0,0:0:0:0:
329,192,150714,1,0,0:0:0:0:
475,192,150921,1,0,0:0:0:0:
192,192,151024,1,0,0:0:0:0:
329,192,151128,1,0,0:0:0:0:
192,192,151231,1,0,0:0:0:0:
36,192,151334,1,0,0:0:0:0:
329,192,151334,1,0,0:0:0:0:
448,192,151334,1,0,0:0:0:0:
192,192,151438,1,0,0:0:0:0:
320,192,151541,1,0,0:0:0:0:
448,192,151645,1,0,0:0:0:0:
36,192,151748,1,0,0:0:0:0:
329,192,151748,1,0,0:0:0:0:
448,192,151955,1,0,0:0:0:0:
329,192,152059,1,0,0:0:0:0:
109,192,152162,1,0,0:0:0:0:
182,192,152162,1,0,0:0:0:0:
402,192,152162,1,0,0:0:0:0:
36,192,152369,1,0,0:0:0:0:
329,192,152369,1,0,0:0:0:0:
320,192,152576,128,0,152679:0:0:0:0:
402,192,152679,1,0,0:0:0:0:
64,192,152679,1,0,0:0:0:0:
192,192,152783,128,0,152886:0:0:0:0:
329,192,152783,1,0,0:0:0:0:
475,192,152886,1,0,0:0:0:0:
36,192,152990,128,0,153093:0:0:0:0:
329,192,152990,1,0,0:0:0:0:
192,192,152990,1,0,0:0:0:0:
36,192,153196,128,0,153300:0:0:0:0:
182,192,153196,1,0,0:0:0:0:
320,192,153196,1,0,0:0:0:0:
192,192,153403,1,0,0:0:0:0:
448,192,153403,1,0,0:0:0:0:
182,192,153610,1,0,0:0:0:0:
256,192,153714,1,0,0:0:0:0:
36,192,153817,1,0,0:0:0:0:
402,192,153817,1,0,0:0:0:0:
192,192,153817,1,0,0:0:0:0:
109,192,154024,1,0,0:0:0:0:
329,192,154024,1,0,0:0:0:0:
182,192,154231,1,0,0:0:0:0:
109,192,154334,1,0,0:0:0:0:
448,192,154438,1,0,0:0:0:0:
320,192,154541,1,0,0:0:0:0:
36,192,154645,1,0,0:0:0:0:
192,192,154645,1,0,0:0:0:0:
448,192,154645,1,0,0:0:0:0:
329,192,154748,1,0,0:0:0:0:
402,192,154852,1,0,0:0:0:0:
64,192,154955,1,0,0:0:0:0:
402,192,155059,1,0,0:0:0:0:
192,192,155059,1,0,0:0:0:0:
182,192,155265,1,0,0:0:0:0:
256,192,155369,1,0,0:0:0:0:
109,192,155472,1,0,0:0:0:0:
475,192,155472,1,0,0:0:0:0:
192,192,155472,1,0,0:0:0:0:
256,192,155679,1,0,0:0:0:0:
36,192,155679,1,0,0:0:0:0:
448,192,155886,128,0,155990:0:0:0:0:
192,192,155886,1,0,0:0:0:0:
320,192,155990,1,0,0:0:0:0:
64,192,155990,1,0,0:0:0:0:
475,192,156093,128,0,156196:0:0:0:0:
192,192,156196,1,0,0:0:0:0:
475,192,156300,128,0,156714:0:0:0:0:
109,192,156300,1,0,0:0:0:0:
320,192,156403,1,0,0:0:0:0:
192,192,156507,1,0,0:0:0:0:
64,192,156610,1,0,0:0:0:0:
256,192,156714,1,0,0:0:0:0:
192,192,156714,1,0,0:0:0:0:
320,192,156921,1,0,0:0:0:0:
192,192,157024,1,0,0:0:0:0:
36,192,157128,1,0,0:0:0:0:
320,192,157128,1,0,0:0:0:0:
448,192,157128,1,0,0:0:0:0:
402,192,157334,1,0,0:0:0:0:
320,192,157334,1,0,0:0:0:0:
182,192,157541,1,0,0:0:0:0:
109,192,157645,1,0,0:0:0:0:
448,192,157748,1,0,0:0:0:0:
320,192,157852,1,0,0:0:0:0:
402,192,157955,1,0,0:0:0:0:
64,192,157955,1,0,0:0:0:0:
192,192,157955,1,0,0:0:0:0:
329,192,158059,1,0,0:0:0:0:
182,192,158162,1,0,0:0:0:0:
64,192,158265,1,0,0:0:0:0:
192,192,158369,1,0,0:0:0:0:
448,192,158369,1,0,0:0:0:0:
64,192,158576,1,0,0:0:0:0:
320,192,158576,1,0,0:0:0:0:
192,192,158679,1,0,0:0:0:0:
329,192,158783,1,0,0:0:0:0:
475,192,158783,1,0,0:0:0:0:
36,192,158783,1,0,0:0:0:0:
36,192,158990,1,0,0:0:0:0:
402,192,158990,1,0,0:0:0:0:
320,192,159093,1,0,0:0:0:0:
182,192,159196,1,0,0:0:0:0:
475,192,159196,1,0,0:0:0:0:
64,192,159196,1,0,0:0:0:0:
109,192,159403,1,0,0:0:0:0:
256,192,159403,1,0,0:0:0:0:
36,192,159610,1,0,0:0:0:0:
475,192,159610,1,0,0:0:0:0:
320,192,159610,1,0,0:0:0:0:
475,192,159714,1,0,0:0:0:0:
36,192,159714,1,0,0:0:0:0:
320,192,159714,1,0,0:0:0:0:
109,192,159817,1,0,0:0:0:0:
402,192,159817,1,0,0:0:0:0:
320,192,159817,1,0,0:0:0:0:
475,192,159921,1,0,0:0:0:0:
36,192,159921,1,0,0:0:0:0:
320,192,159921,1,0,0:0:0:0:
182,192,160024,1,0,0:0:0:0:
320,192,160231,1,0,0:0:0:0:
64,192,160438,1,0,0:0:0:0:
448,192,160438,1,0,0:0:0:0:
192,192,160645,1,0,0:0:0:0:
109,192,160852,1,0,0:0:0:0:
320,192,160852,1,0,0:0:0:0:
36,192,161059,1,0,0:0:0:0:
448,192,161059,1,0,0:0:0:0:
320,192,161265,1,0,0:0:0:0:
192,192,161472,1,0,0:0:0:0:
64,192,161679,1,0,0:0:0:0:
192,192,161886,1,0,0:0:0:0:
64,192,162093,1,0,0:0:0:0:
320,192,162093,1,0,0:0:0:0:
192,192,162300,1,0,0:0:0:0:
320,192,162507,1,0,0:0:0:0:
64,192,162507,1,0,0:0:0:0:
402,192,162714,1,0,0:0:0:0:
64,192,162714,1,0,0:0:0:0:
329,192,162921,1,0,0:0:0:0:
192,192,163128,1,0,0:0:0:0:
256,192,163334,1,0,0:0:0:0:
192,192,163541,1,0,0:0:0:0:
402,192,163748,1,0,0:0:0:0:
64,192,163748,1,0,0:0:0:0:
320,192,163955,1,0,0:0:0:0:
192,192,164162,1,0,0:0:0:0:
448,192,164162,1,0,0:0:0:0:
64,192,164369,1,0,0:0:0:0:
448,192,164369,1,0,0:0:0:0:
320,192,164576,1,0,0:0:0:0:
192,192,164783,1,0,0:0:0:0:
64,192,164990,1,0,0:0:0:0:
192,192,165196,1,0,0:0:0:0:
320,192,165403,1,0,0:0:0:0:
448,192,165403,1,0,0:0:0:0:
64,192,165610,1,0,0:0:0:0:
448,192,165817,1,0,0:0:0:0:
192,192,165817,1,0,0:0:0:0:
402,192,166024,1,0,0:0:0:0:
320,192,166024,1,0,0:0:0:0:
256,192,166231,128,0,166438:0:0:0:0:
192,192,166438,128,0,166645:0:0:0:0:
64,192,166645,1,0,0:0:0:0:
448,192,166645,1,0,0:0:0:0:
192,192,166955,1,0,0:0:0:0:
64,192,167059,1,0,0:0:0:0:
448,192,167059,1,0,0:0:0:0:
256,192,167265,1,0,0:0:0:0:
64,192,167472,1,0,0:0:0:0:
448,192,167472,1,0,0:0:0:0:
192,192,167783,1,0,0:0:0:0:
64,192,167886,1,0,0:0:0:0:
448,192,167886,1,0,0:0:0:0:
256,192,168093,1,0,0:0:0:0:
64,192,168300,1,0,0:0:0:0:
448,192,168300,1,0,0:0:0:0:
192,192,168610,1,0,0:0:0:0:
448,192,168714,1,0,0:0:0:0:
64,192,168714,1,0,0:0:0:0:
256,192,168921,1,0,0:0:0:0:
64,192,169128,1,0,0:0:0:0:
448,192,169128,1,0,0:0:0:0:
192,192,169334,1,0,0:0:0:0:
448,192,169541,1,0,0:0:0:0:
64,192,169541,1,0,0:0:0:0:
256,192,169748,1,0,0:0:0:0:
402,192,169955,1,0,0:0:0:0:
109,192,169955,1,0,0:0:0:0:
402,192,170162,1,0,0:0:0:0:
109,192,170162,1,0,0:0:0:0:
402,192,170369,1,0,0:0:0:0:
109,192,170369,1,0,0:0:0:0:
402,192,170576,1,0,0:0:0:0:
109,192,170576,1,0,0:0:0:0:
402,192,170783,1,0,0:0:0:0:
109,192,170783,1,0,0:0:0:0:
402,192,170990,1,0,0:0:0:0:
109,192,170990,1,0,0:0:0:0:
402,192,171196,1,0,0:0:0:0:
109,192,171196,1,0,0:0:0:0:
192,192,171300,1,0,0:0:0:0:
320,192,171300,1,0,0:0:0:0:
402,192,171403,1,0,0:0:0:0:
109,192,171403,1,0,0:0:0:0:
256,192,171507,1,0,0:0:0:0:
192,192,171507,1,0,0:0:0:0:
36,192,171610,1,0,0:0:0:0:
192,192,171679,1,0,0:0:0:0:
320,192,171748,1,0,0:0:0:0:
448,192,171817,1,0,0:0:0:0:
320,192,171886,1,0,0:0:0:0:
192,192,171955,1,0,0:0:0:0:
36,192,172024,1,0,0:0:0:0:
192,192,172093,1,0,0:0:0:0:
320,192,172162,1,0,0:0:0:0:
448,192,172231,1,0,0:0:0:0:
320,192,172300,1,0,0:0:0:0:
192,192,172369,1,0,0:0:0:0:
36,192,172438,1,0,0:0:0:0:
192,192,172507,1,0,0:0:0:0:
320,192,172576,1,0,0:0:0:0:
448,192,172645,1,0,0:0:0:0:
320,192,172714,1,0,0:0:0:0:
192,192,172783,1,0,0:0:0:0:
192,192,173265,128,0,173679:0:0:0:0:
448,192,173265,1,0,0:0:0:0:
256,192,173679,1,0,0:0:0:0:
402,192,173679,1,0,0:0:0:0:
36,192,173679,1,0,0:0:0:0:
448,192,173817,1,0,0:0:0:0:
192,192,173817,1,0,0:0:0:0:
448,192,173955,1,0,0:0:0:0:
320,192,173955,1,0,0:0:0:0:
109,192,174093,1,0,0:0:0:0:
192,192,174093,1,0,0:0:0:0:
448,192,174231,1,0,0:0:0:0:
256,192,174369,1,0,0:0:0:0:
475,192,174507,1,0,0:0:0:0:
36,192,174507,1,0,0:0:0:0:
192,192,174507,1,0,0:0:0:0:
256,192,174645,1,0,0:0:0:0:
192,192,174783,1,0,0:0:0:0:
64,192,174921,128,0,175334:0:0:0:0:
320,192,174921,1,0,0:0:0:0:
448,192,174921,1,0,0:0:0:0:
329,192,175334,1,0,0:0:0:0:
402,192,175472,1,0,0:0:0:0:
182,192,175472,1,0,0:0:0:0:
402,192,175610,1,0,0:0:0:0:
109,192,175610,1,0,0:0:0:0:
256,192,175748,1,0,0:0:0:0:
182,192,175748,1,0,0:0:0:0:
448,192,175748,128,0,175886:0:0:0:0:
256,192,176024,1,0,0:0:0:0:
64,192,176024,128,0,176162:0:0:0:0:
448,192,176024,1,0,0:0:0:0:
329,192,176162,1,0,0:0:0:0:
192,192,176162,1,0,0:0:0:0:
448,192,176300,128,0,176438:0:0:0:0:
402,192,176576,1,0,0:0:0:0:
64,192,176576,128,0,176852:0:0:0:0:
448,192,176990,1,0,0:0:0:0:
64,192,176990,1,0,0:0:0:0:
192,192,176990,128,0,177403:0:0:0:0:
320,192,177196,128,0,177403:0:0:0:0:
402,192,177403,1,0,0:0:0:0:
64,192,177403,1,0,0:0:0:0:
182,192,177541,128,0,177610:0:0:0:0:
182,192,177679,128,0,177748:0:0:0:0:
109,192,177817,1,0,0:0:0:0:
256,192,177817,1,0,0:0:0:0:
475,192,177817,128,0,177886:0:0:0:0:
475,192,177955,128,0,178024:0:0:0:0:
475,192,178093,128,0,178162:0:0:0:0:
109,192,178231,128,0,178645:0:0:0:0:
320,192,178231,1,0,0:0:0:0:
182,192,178645,1,0,0:0:0:0:
475,192,178645,1,0,0:0:0:0:
320,192,178645,128,0,178783:0:0:0:0:
192,192,178783,128,0,178921:0:0:0:0:
402,192,178921,128,0,179059:0:0:0:0:
182,192,179059,1,0,0:0:0:0:
64,192,179059,1,0,0:0:0:0:
320,192,179059,128,0,179334:0:0:0:0:
402,192,179334,1,0,0:0:0:0:
36,192,179334,1,0,0:0:0:0:
182,192,179472,1,0,0:0:0:0:
256,192,179472,1,0,0:0:0:0:
182,192,179610,1,0,0:0:0:0:
256,192,179610,1,0,0:0:0:0:
182,192,179748,1,0,0:0:0:0:
329,192,179748,1,0,0:0:0:0:
36,192,179886,128,0,180300:0:0:0:0:
448,192,179886,128,0,180300:0:0:0:0:
182,192,180300,1,0,0:0:0:0:
329,192,180300,1,0,0:0:0:0:
109,192,180438,1,0,0:0:0:0:
109,192,180576,1,0,0:0:0:0:
256,192,180714,1,0,0:0:0:0:
192,192,180714,1,0,0:0:0:0:
448,192,180714,1,0,0:0:0:0:
109,192,180852,1,0,0:0:0:0:
182,192,180990,1,0,0:0:0:0:
329,192,181128,1,0,0:0:0:0:
36,192,181128,1,0,0:0:0:0:
475,192,181128,1,0,0:0:0:0:
402,192,181265,1,0,0:0:0:0:
320,192,181403,1,0,0:0:0:0:
109,192,181541,128,0,181955:0:0:0:0:
402,192,181541,1,0,0:0:0:0:
192,192,181541,1,0,0:0:0:0:
182,192,181955,1,0,0:0:0:0:
256,192,181955,1,0,0:0:0:0:
475,192,181955,1,0,0:0:0:0:
402,192,182093,1,0,0:0:0:0:
402,192,182231,1,0,0:0:0:0:
182,192,182369,128,0,182645:0:0:0:0:
329,192,182369,128,0,182645:0:0:0:0:
475,192,182645,1,0,0:0:0:0:
36,192,182645,1,0,0:0:0:0:
182,192,182783,1,0,0:0:0:0:
256,192,182783,1,0,0:0:0:0:
64,192,182921,128,0,183196:0:0:0:0:
448,192,182921,128,0,183196:0:0:0:0:
329,192,183196,1,0,0:0:0:0:
182,192,183196,1,0,0:0:0:0:
36,192,183610,1,0,0:0:0:0:
320,192,183610,128,0,184024:0:0:0:0:
448,192,183610,1,0,0:0:0:0:
192,192,183817,128,0,184024:0:0:0:0:
402,192,184024,1,0,0:0:0:0:
64,192,184024,128,0,184093:0:0:0:0:
192,192,184162,128,0,184231:0:0:0:0:
64,192,184300,128,0,184369:0:0:0:0:
256,192,184438,1,0,0:0:0:0:
182,192,184438,1,0,0:0:0:0:
448,192,184438,128,0,184507:0:0:0:0:
448,192,184576,128,0,184645:0:0:0:0:
448,192,184714,128,0,184783:0:0:0:0:
329,192,184852,128,0,185265:0:0:0:0:
109,192,184852,1,0,0:0:0:0:
64,192,185265,128,0,185403:0:0:0:0:
182,192,185265,1,0,0:0:0:0:
402,192,185265,1,0,0:0:0:0:
182,192,185403,128,0,185541:0:0:0:0:
320,192,185541,128,0,185679:0:0:0:0:
109,192,185679,1,0,0:0:0:0:
402,192,185679,1,0,0:0:0:0:
192,192,185679,128,0,185955:0:0:0:0:
329,192,185955,1,0,0:0:0:0:
402,192,185955,1,0,0:0:0:0:
192,192,186093,1,0,0:0:0:0:
109,192,186093,1,0,0:0:0:0:
320,192,186093,1,0,0:0:0:0:
182,192,186231,1,0,0:0:0:0:
36,192,186231,1,0,0:0:0:0:
320,192,186231,1,0,0:0:0:0:
109,192,186369,1,0,0:0:0:0:
182,192,186369,1,0,0:0:0:0:
320,192,186369,1,0,0:0:0:0:
475,192,186507,128,0,186783:0:0:0:0:
320,192,186507,1,0,0:0:0:0:
192,192,186645,1,0,0:0:0:0:
320,192,186783,1,0,0:0:0:0:
182,192,186921,1,0,0:0:0:0:
64,192,186921,128,0,186990:0:0:0:0:
448,192,186921,1,0,0:0:0:0:
64,192,187059,128,0,187128:0:0:0:0:
64,192,187196,128,0,187265:0:0:0:0:
192,192,187334,128,0,187610:0:0:0:0:
448,192,187334,1,0,0:0:0:0:
64,192,187472,1,0,0:0:0:0:
320,192,187610,1,0,0:0:0:0:
36,192,187748,1,0,0:0:0:0:
448,192,187748,128,0,187817:0:0:0:0:
192,192,187748,1,0,0:0:0:0:
448,192,187886,128,0,187955:0:0:0:0:
448,192,188024,128,0,188093:0:0:0:0:
64,192,188162,128,0,188576:0:0:0:0:
182,192,188162,1,0,0:0:0:0:
320,192,188300,1,0,0:0:0:0:
448,192,188438,1,0,0:0:0:0:
182,192,188576,1,0,0:0:0:0:
475,192,188576,1,0,0:0:0:0:
320,192,188576,128,0,188645:0:0:0:0:
192,192,188714,128,0,188783:0:0:0:0:
64,192,188852,128,0,188921:0:0:0:0:
192,192,188990,1,0,0:0:0:0:
448,192,188990,128,0,189059:0:0:0:0:
448,192,189128,128,0,189196:0:0:0:0:
448,192,189265,128,0,189334:0:0:0:0:
192,192,189265,1,0,0:0:0:0:
256,192,189403,128,0,189541:0:0:0:0:
36,192,189403,1,0,0:0:0:0:
402,192,189403,1,0,0:0:0:0:
192,192,189541,128,0,189679:0:0:0:0:
64,192,189679,128,0,189817:0:0:0:0:
402,192,189817,128,0,190093:0:0:0:0:
320,192,189817,1,0,0:0:0:0:
192,192,189955,1,0,0:0:0:0:
64,192,190093,1,0,0:0:0:0:
320,192,190231,128,0,190369:0:0:0:0:
192,192,190231,1,0,0:0:0:0:
448,192,190231,1,0,0:0:0:0:
64,192,190369,128,0,190507:0:0:0:0:
182,192,190507,128,0,190645:0:0:0:0:
256,192,190645,1,0,0:0:0:0:
475,192,190645,1,0,0:0:0:0:
64,192,190783,1,0,0:0:0:0:
320,192,190921,128,0,191059:0:0:0:0:
475,192,191059,1,0,0:0:0:0:
182,192,191059,1,0,0:0:0:0:
64,192,191059,1,0,0:0:0:0:
329,192,191196,128,0,191334:0:0:0:0:
448,192,191334,1,0,0:0:0:0:
182,192,191472,128,0,191817:0:0:0:0:
64,192,191472,1,0,0:0:0:0:
448,192,191610,1,0,0:0:0:0:
320,192,191748,1,0,0:0:0:0:
182,192,191886,128,0,192300:0:0:0:0:
109,192,191886,1,0,0:0:0:0:
448,192,191886,1,0,0:0:0:0:
320,192,192024,1,0,0:0:0:0:
448,192,192162,1,0,0:0:0:0:
36,192,192300,1,0,0:0:0:0:
320,192,192300,1,0,0:0:0:0:
182,192,192438,1,0,0:0:0:0:
402,192,192576,1,0,0:0:0:0:
64,192,192576,1,0,0:0:0:0:
448,192,192714,1,0,0:0:0:0:
182,192,192714,1,0,0:0:0:0:
320,192,192714,1,0,0:0:0:0:
329,192,192852,1,0,0:0:0:0:
182,192,192852,1,0,0:0:0:0:
448,192,192852,1,0,0:0:0:0:
182,192,192990,1,0,0:0:0:0:
256,192,192990,1,0,0:0:0:0:
448,192,192990,1,0,0:0:0:0:
402,192,193128,128,0,193403:0:0:0:0:
64,192,193128,1,0,0:0:0:0:
192,192,193265,1,0,0:0:0:0:
320,192,193403,1,0,0:0:0:0:
182,192,193541,128,0,193610:0:0:0:0:
448,192,193541,1,0,0:0:0:0:
64,192,193541,1,0,0:0:0:0:
182,192,193679,128,0,193748:0:0:0:0:
182,192,193817,128,0,193886:0:0:0:0:
64,192,193955,128,0,194231:0:0:0:0:
402,192,193955,1,0,0:0:0:0:
320,192,194093,1,0,0:0:0:0:
192,192,194231,1,0,0:0:0:0:
402,192,194369,128,0,194438:0:0:0:0:
320,192,194369,1,0,0:0:0:0:
64,192,194369,1,0,0:0:0:0:
402,192,194507,128,0,194576:0:0:0:0:
402,192,194645,128,0,194714:0:0:0:0:
448,192,194783,128,0,195059:0:0:0:0:
109,192,194783,1,0,0:0:0:0:
192,192,194921,1,0,0:0:0:0:
320,192,195059,1,0,0:0:0:0:
64,192,195196,128,0,195265:0:0:0:0:
192,192,195196,1,0,0:0:0:0:
448,192,195196,1,0,0:0:0:0:
182,192,195334,128,0,195403:0:0:0:0:
109,192,195472,128,0,195541:0:0:0:0:
320,192,195610,128,0,195679:0:0:0:0:
402,192,195610,1,0,0:0:0:0:
256,192,195748,128,0,195817:0:0:0:0:
320,192,195886,128,0,195955:0:0:0:0:
448,192,195886,1,0,0:0:0:0:
448,192,196024,128,0,196162:0:0:0:0:
182,192,196024,1,0,0:0:0:0:
36,192,196024,1,0,0:0:0:0:
320,192,196162,128,0,196300:0:0:0:0:
192,192,196300,128,0,196438:0:0:0:0:
448,192,196438,128,0,196714:0:0:0:0:
109,192,196438,1,0,0:0:0:0:
320,192,196576,1,0,0:0:0:0:
192,192,196714,1,0,0:0:0:0:
320,192,196852,128,0,196990:0:0:0:0:
109,192,196852,1,0,0:0:0:0:
402,192,196852,1,0,0:0:0:0:
192,192,196990,128,0,197128:0:0:0:0:
448,192,197128,128,0,197265:0:0:0:0:
320,192,197265,128,0,197403:0:0:0:0:
64,192,197265,128,0,197403:0:0:0:0:
320,192,197541,128,0,197679:0:0:0:0:
109,192,197541,128,0,197679:0:0:0:0:
475,192,197679,1,0,0:0:0:0:
182,192,197679,1,0,0:0:0:0:
402,192,197817,128,0,197955:0:0:0:0:
182,192,197817,128,0,197955:0:0:0:0:
36,192,198093,1,0,0:0:0:0:
448,192,198093,1,0,0:0:0:0:
192,192,198231,1,0,0:0:0:0:
448,192,198369,1,0,0:0:0:0:
64,192,198369,1,0,0:0:0:0:
36,192,198507,1,0,0:0:0:0:
329,192,198507,1,0,0:0:0:0:
192,192,198507,1,0,0:0:0:0:
448,192,198645,1,0,0:0:0:0:
182,192,198783,1,0,0:0:0:0:
320,192,198783,1,0,0:0:0:0:
475,192,198921,1,0,0:0:0:0:
256,192,198921,1,0,0:0:0:0:
36,192,198921,1,0,0:0:0:0:
64,192,199059,1,0,0:0:0:0:
192,192,199059,1,0,0:0:0:0:
475,192,199196,1,0,0:0:0:0:
320,192,199196,1,0,0:0:0:0:
329,192,199334,1,0,0:0:0:0:
182,192,199334,1,0,0:0:0:0:
64,192,199334,1,0,0:0:0:0:
475,192,199472,1,0,0:0:0:0:
36,192,199472,1,0,0:0:0:0:
256,192,199610,1,0,0:0:0:0:
192,192,199610,1,0,0:0:0:0:
36,192,199748,1,0,0:0:0:0:
448,192,199748,128,0,200990:0:0:0:0:
192,192,199748,1,0,0:0:0:0:
256,192,201403,128,0,202645:0:0:0:0:
192,192,203059,128,0,204300:0:0:0:0:
36,192,204714,128,0,205955:0:0:0:0:
320,192,205541,128,0,205645:0:0:0:0:
402,192,205748,128,0,205852:0:0:0:0:
182,192,205955,128,0,206059:0:0:0:0:
182,192,206162,128,0,206265:0:0:0:0:
256,192,206369,1,0,0:0:0:0:
36,192,206369,1,0,0:0:0:0:
182,192,206472,1,0,0:0:0:0:
448,192,206576,1,0,0:0:0:0:
320,192,206679,1,0,0:0:0:0:
448,192,206783,1,0,0:0:0:0:
109,192,206783,1,0,0:0:0:0:
192,192,206886,1,0,0:0:0:0:
320,192,206990,1,0,0:0:0:0:
192,192,207093,1,0,0:0:0:0:
329,192,207196,1,0,0:0:0:0:
475,192,207196,1,0,0:0:0:0:
36,192,207196,1,0,0:0:0:0:
192,192,207300,1,0,0:0:0:0:
448,192,207403,1,0,0:0:0:0:
320,192,207507,1,0,0:0:0:0:
64,192,207610,1,0,0:0:0:0:
475,192,207610,1,0,0:0:0:0:
192,192,207714,1,0,0:0:0:0:
320,192,207817,1,0,0:0:0:0:
448,192,207921,1,0,0:0:0:0:
109,192,208024,1,0,0:0:0:0:
320,192,208024,1,0,0:0:0:0:
402,192,208128,1,0,0:0:0:0:
109,192,208231,1,0,0:0:0:0:
192,192,208334,1,0,0:0:0:0:
320,192,208438,1,0,0:0:0:0:
64,192,208438,1,0,0:0:0:0:
402,192,208541,1,0,0:0:0:0:
109,192,208645,1,0,0:0:0:0:
192,192,208748,1,0,0:0:0:0:
402,192,208852,1,0,0:0:0:0:
64,192,208852,1,0,0:0:0:0:
320,192,208852,1,0,0:0:0:0:
192,192,208955,1,0,0:0:0:0:
64,192,209059,1,0,0:0:0:0:
448,192,209162,1,0,0:0:0:0:
36,192,209265,1,0,0:0:0:0:
320,192,209265,1,0,0:0:0:0:
192,192,209369,1,0,0:0:0:0:
256,192,209472,1,0,0:0:0:0:
182,192,209576,1,0,0:0:0:0:
64,192,209679,1,0,0:0:0:0:
256,192,209679,1,0,0:0:0:0:
192,192,209783,1,0,0:0:0:0:
329,192,209886,1,0,0:0:0:0:
475,192,209886,1,0,0:0:0:0:
64,192,209990,1,0,0:0:0:0:
475,192,210093,1,0,0:0:0:0:
192,192,210093,1,0,0:0:0:0:
320,192,210196,1,0,0:0:0:0:
192,192,210300,1,0,0:0:0:0:
64,192,210300,1,0,0:0:0:0:
320,192,210403,1,0,0:0:0:0:
36,192,210507,1,0,0:0:0:0:
475,192,210507,1,0,0:0:0:0:
192,192,210507,1,0,0:0:0:0:
320,192,210610,1,0,0:0:0:0:
182,192,210714,1,0,0:0:0:0:
36,192,210817,1,0,0:0:0:0:
256,192,210921,1,0,0:0:0:0:
402,192,210921,1,0,0:0:0:0:
64,192,211024,1,0,0:0:0:0:
182,192,211024,1,0,0:0:0:0:
402,192,211128,1,0,0:0:0:0:
320,192,211128,1,0,0:0:0:0:
64,192,211231,1,0,0:0:0:0:
182,192,211231,1,0,0:0:0:0:
256,192,211334,1,0,0:0:0:0:
402,192,211334,1,0,0:0:0:0:
402,192,211541,1,0,0:0:0:0:
402,192,211955,1,0,0:0:0:0:
329,192,212162,128,0,212265:0:0:0:0:
448,192,212369,128,0,212472:0:0:0:0:
182,192,212576,128,0,212679:0:0:0:0:
182,192,212783,128,0,212886:0:0:0:0:
64,192,212990,128,0,213403:0:0:0:0:
402,192,212990,128,0,213403:0:0:0:0:
182,192,212990,1,0,0:0:0:0:
256,192,212990,1,0,0:0:0:0:
320,192,213403,128,0,213507:0:0:0:0:
182,192,213403,1,0,0:0:0:0:
329,192,213610,128,0,213714:0:0:0:0:
182,192,213714,128,0,213817:0:0:0:0:
256,192,213817,128,0,213921:0:0:0:0:
475,192,213817,1,0,0:0:0:0:
36,192,213817,1,0,0:0:0:0:
182,192,213921,128,0,214024:0:0:0:0:
329,192,214024,128,0,214128:0:0:0:0:
320,192,214231,128,0,214645:0:0:0:0:
36,192,214231,1,0,0:0:0:0:
475,192,214231,1,0,0:0:0:0:
182,192,214438,128,0,214645:0:0:0:0:
402,192,214645,1,0,0:0:0:0:
109,192,214645,128,0,214852:0:0:0:0:
329,192,214852,128,0,215059:0:0:0:0:
182,192,215059,1,0,0:0:0:0:
64,192,215059,128,0,215162:0:0:0:0:
448,192,215059,128,0,215162:0:0:0:0:
329,192,215265,128,0,215369:0:0:0:0:
182,192,215265,128,0,215369:0:0:0:0:
402,192,215472,128,0,215576:0:0:0:0:
109,192,215472,128,0,215576:0:0:0:0:
36,192,215679,128,0,215783:0:0:0:0:
475,192,215679,128,0,215783:0:0:0:0:
109,192,215886,1,0,0:0:0:0:
256,192,215886,1,0,0:0:0:0:
402,192,215886,1,0,0:0:0:0:
448,192,215990,1,0,0:0:0:0:
182,192,216093,1,0,0:0:0:0:
182,192,216196,1,0,0:0:0:0:
256,192,216300,1,0,0:0:0:0:
64,192,216300,128,0,216714:0:0:0:0:
256,192,216714,1,0,0:0:0:0:
402,192,216714,1,0,0:0:0:0:
192,192,216714,128,0,216817:0:0:0:0:
192,192,216921,128,0,217024:0:0:0:0:
320,192,217024,128,0,217128:0:0:0:0:
192,192,217128,128,0,217231:0:0:0:0:
64,192,217128,1,0,0:0:0:0:
320,192,217231,128,0,217334:0:0:0:0:
192,192,217334,128,0,217438:0:0:0:0:
475,192,217541,1,0,0:0:0:0:
320,192,217541,128,0,217645:0:0:0:0:
64,192,217541,1,0,0:0:0:0:
448,192,217748,128,0,217852:0:0:0:0:
320,192,217955,128,0,218162:0:0:0:0:
192,192,217955,1,0,0:0:0:0:
64,192,217955,1,0,0:0:0:0:
448,192,218162,128,0,218369:0:0:0:0:
109,192,218369,1,0,0:0:0:0:
320,192,218369,128,0,218576:0:0:0:0:
192,192,218369,1,0,0:0:0:0:
448,192,218576,1,0,0:0:0:0:
64,192,218783,128,0,218990:0:0:0:0:
320,192,218783,1,0,0:0:0:0:
402,192,218990,1,0,0:0:0:0:
192,192,218990,1,0,0:0:0:0:
448,192,219196,128,0,219300:0:0:0:0:
64,192,219196,1,0,0:0:0:0:
192,192,219196,1,0,0:0:0:0:
256,192,219403,128,0,219507:0:0:0:0:
36,192,219610,1,0,0:0:0:0:
182,192,219610,128,0,220024:0:0:0:0:
448,192,219610,128,0,220024:0:0:0:0:
329,192,220024,1,0,0:0:0:0:
64,192,220024,128,0,220128:0:0:0:0:
64,192,220231,128,0,220334:0:0:0:0:
320,192,220334,128,0,220438:0:0:0:0:
64,192,220438,128,0,220541:0:0:0:0:
448,192,220438,1,0,0:0:0:0:
320,192,220541,128,0,220645:0:0:0:0:
64,192,220645,128,0,220748:0:0:0:0:
320,192,220852,128,0,220955:0:0:0:0:
192,192,220852,1,0,0:0:0:0:
448,192,220852,1,0,0:0:0:0:
64,192,220955,128,0,221059:0:0:0:0:
320,192,221059,128,0,221162:0:0:0:0:
64,192,221162,128,0,221265:0:0:0:0:
256,192,221265,1,0,0:0:0:0:
448,192,221265,128,0,221472:0:0:0:0:
182,192,221472,128,0,221679:0:0:0:0:
109,192,221679,128,0,221783:0:0:0:0:
402,192,221679,128,0,221783:0:0:0:0:
402,192,221886,128,0,221990:0:0:0:0:
109,192,221886,128,0,221990:0:0:0:0:
182,192,221990,128,0,222093:0:0:0:0:
329,192,221990,128,0,222093:0:0:0:0:
64,192,222093,128,0,222196:0:0:0:0:
475,192,222093,128,0,222196:0:0:0:0:
109,192,222300,128,0,222403:0:0:0:0:
192,192,222300,128,0,222403:0:0:0:0:
192,192,222507,128,0,222610:0:0:0:0:
320,192,222507,128,0,222610:0:0:0:0:
448,192,222507,1,0,0:0:0:0:
475,192,222714,128,0,222817:0:0:0:0:
320,192,222714,128,0,222817:0:0:0:0:
448,192,222921,1,0,0:0:0:0:
64,192,222921,128,0,223128:0:0:0:0:
329,192,223128,128,0,223334:0:0:0:0:
182,192,223334,128,0,223438:0:0:0:0:
64,192,223334,1,0,0:0:0:0:
448,192,223334,1,0,0:0:0:0:
448,192,223541,128,0,223645:0:0:0:0:
192,192,223645,128,0,223748:0:0:0:0:
109,192,223748,1,0,0:0:0:0:
320,192,223748,1,0,0:0:0:0:
192,192,223852,128,0,223955:0:0:0:0:
256,192,223955,128,0,224059:0:0:0:0:
109,192,224162,128,0,224265:0:0:0:0:
192,192,224162,1,0,0:0:0:0:
448,192,224162,1,0,0:0:0:0:
109,192,224369,128,0,224472:0:0:0:0:
329,192,224576,1,0,0:0:0:0:
402,192,224576,1,0,0:0:0:0:
192,192,224576,1,0,0:0:0:0:
256,192,224783,1,0,0:0:0:0:
109,192,224783,1,0,0:0:0:0:
256,192,224990,1,0,0:0:0:0:
475,192,224990,1,0,0:0:0:0:
64,192,224990,1,0,0:0:0:0:
329,192,225196,1,0,0:0:0:0:
192,192,225196,1,0,0:0:0:0:
36,192,225403,1,0,0:0:0:0:
475,192,225403,1,0,0:0:0:0:
329,192,225403,1,0,0:0:0:0:
192,192,225610,1,0,0:0:0:0:
402,192,225610,1,0,0:0:0:0:
64,192,225610,1,0,0:0:0:0:
329,192,225817,1,0,0:0:0:0:
402,192,225817,1,0,0:0:0:0:
192,192,225817,1,0,0:0:0:0:
402,192,225921,1,0,0:0:0:0:
329,192,225921,1,0,0:0:0:0:
192,192,225921,1,0,0:0:0:0:
329,192,226024,1,0,0:0:0:0:
402,192,226024,1,0,0:0:0:0:
192,192,226024,1,0,0:0:0:0:
402,192,226128,1,0,0:0:0:0:
329,192,226128,1,0,0:0:0:0:
192,192,226128,1,0,0:0:0:0:
36,192,226231,128,0,226645:0:0:0:0:
475,192,226231,128,0,226645:0:0:0:0:
192,192,226645,128,0,227059:0:0:0:0:
256,192,226852,128,0,227059:0:0:0:0:
36,192,227059,128,0,227265:0:0:0:0:
448,192,227059,1,0,0:0:0:0:
192,192,227265,128,0,227472:0:0:0:0:
329,192,227472,128,0,227783:0:0:0:0:
448,192,227472,1,0,0:0:0:0:
192,192,227524,1,0,0:0:0:0:
64,192,227576,1,0,0:0:0:0:
192,192,227886,1,0,0:0:0:0:
64,192,227886,128,0,228093:0:0:0:0:
448,192,227886,128,0,228300:0:0:0:0:
256,192,228093,128,0,228300:0:0:0:0:
182,192,228093,1,0,0:0:0:0:
64,192,228300,128,0,228403:0:0:0:0:
402,192,228507,128,0,228610:0:0:0:0:
448,192,228714,128,0,228817:0:0:0:0:
192,192,228714,1,0,0:0:0:0:
64,192,228714,1,0,0:0:0:0:
36,192,228921,1,0,0:0:0:0:
192,192,229024,1,0,0:0:0:0:
256,192,229128,1,0,0:0:0:0:
64,192,229128,1,0,0:0:0:0:
448,192,229231,1,0,0:0:0:0:
320,192,229334,1,0,0:0:0:0:
192,192,229438,1,0,0:0:0:0:
36,192,229541,128,0,229955:0:0:0:0:
475,192,229541,128,0,229955:0:0:0:0:
320,192,229748,1,0,0:0:0:0:
192,192,229955,128,0,230369:0:0:0:0:
448,192,230162,128,0,230369:0:0:0:0:
320,192,230369,128,0,230472:0:0:0:0:
64,192,230369,1,0,0:0:0:0:
320,192,230576,128,0,230679:0:0:0:0:
320,192,230783,128,0,230886:0:0:0:0:
192,192,230886,128,0,230990:0:0:0:0:
109,192,230990,1,0,0:0:0:0:
402,192,230990,1,0,0:0:0:0:
320,192,230990,128,0,231093:0:0:0:0:
192,192,231093,128,0,231196:0:0:0:0:
256,192,231196,1,0,0:0:0:0:
109,192,231196,128,0,231403:0:0:0:0:
448,192,231196,128,0,231610:0:0:0:0:
192,192,231403,128,0,231610:0:0:0:0:
320,192,231610,128,0,231817:0:0:0:0:
64,192,231610,1,0,0:0:0:0:
182,192,231817,128,0,232024:0:0:0:0:
475,192,232024,1,0,0:0:0:0:
36,192,232024,1,0,0:0:0:0:
329,192,232024,1,0,0:0:0:0:
192,192,232128,1,0,0:0:0:0:
256,192,232231,1,0,0:0:0:0:
182,192,232334,1,0,0:0:0:0:
329,192,232438,128,0,232645:0:0:0:0:
36,192,232438,1,0,0:0:0:0:
402,192,232645,128,0,232852:0:0:0:0:
36,192,232852,128,0,233265:0:0:0:0:
192,192,232852,128,0,233265:0:0:0:0:
320,192,233059,1,0,0:0:0:0:
448,192,233265,128,0,233679:0:0:0:0:
320,192,233472,128,0,233679:0:0:0:0:
64,192,233679,128,0,233886:0:0:0:0:
192,192,233679,128,0,233886:0:0:0:0:
329,192,233886,128,0,234093:0:0:0:0:
475,192,233886,128,0,234093:0:0:0:0:
36,192,234093,1,0,0:0:0:0:
182,192,234162,1,0,0:0:0:0:
320,192,234231,1,0,0:0:0:0:
109,192,234300,1,0,0:0:0:0:
192,192,234369,1,0,0:0:0:0:
320,192,234438,1,0,0:0:0:0:
64,192,234507,128,0,234921:0:0:0:0:
448,192,234507,128,0,234714:0:0:0:0:
192,192,234714,128,0,234921:0:0:0:0:
448,192,234921,128,0,235024:0:0:0:0:
320,192,235024,128,0,235128:0:0:0:0:
448,192,235128,128,0,235231:0:0:0:0:
320,192,235231,128,0,235334:0:0:0:0:
36,192,235334,128,0,235541:0:0:0:0:
182,192,235334,1,0,0:0:0:0:
402,192,235334,1,0,0:0:0:0:
256,192,235541,1,0,0:0:0:0:
182,192,235645,1,0,0:0:0:0:
256,192,235748,1,0,0:0:0:0:
36,192,235748,1,0,0:0:0:0:
192,192,235852,1,0,0:0:0:0:
320,192,235955,1,0,0:0:0:0:
475,192,236059,1,0,0:0:0:0:
182,192,236162,128,0,236576:0:0:0:0:
320,192,236162,128,0,236576:0:0:0:0:
109,192,236162,1,0,0:0:0:0:
448,192,236369,1,0,0:0:0:0:
64,192,236576,128,0,236990:0:0:0:0:
320,192,236783,1,0,0:0:0:0:
448,192,236990,128,0,237093:0:0:0:0:
192,192,236990,1,0,0:0:0:0:
320,192,236990,1,0,0:0:0:0:
320,192,237196,128,0,237300:0:0:0:0:
192,192,237403,128,0,237507:0:0:0:0:
36,192,237610,128,0,237714:0:0:0:0:
448,192,237610,1,0,0:0:0:0:
329,192,237817,1,0,0:0:0:0:
64,192,237817,128,0,238231:0:0:0:0:
402,192,238024,1,0,0:0:0:0:
256,192,238128,1,0,0:0:0:0:
192,192,238231,1,0,0:0:0:0:
448,192,238231,1,0,0:0:0:0:
320,192,238334,1,0,0:0:0:0:
64,192,238438,128,0,238852:0:0:0:0:
448,192,238438,1,0,0:0:0:0:
475,192,238645,1,0,0:0:0:0:
320,192,238748,1,0,0:0:0:0:
192,192,238852,1,0,0:0:0:0:
192,192,239059,128,0,239162:0:0:0:0:
320,192,239059,128,0,239162:0:0:0:0:
36,192,239059,1,0,0:0:0:0:
475,192,239059,1,0,0:0:0:0:
109,192,239265,128,0,239369:0:0:0:0:
448,192,239265,128,0,239369:0:0:0:0:
182,192,239265,1,0,0:0:0:0:
256,192,239265,1,0,0:0:0:0:
64,192,239472,1,0,0:0:0:0:
448,192,239472,1,0,0:0:0:0:
