osu file format v14

[General]
AudioFilename: Platinum Spice.mp3
AudioLeadIn: 0
PreviewTime: 56135
Countdown: 0
SampleSet: Normal
StackLeniency: 0.8
Mode: 0
LetterboxInBreaks: 0
WidescreenStoryboard: 0

[Editor]
DistanceSpacing: 1.3
BeatDivisor: 4
GridSize: 4
TimelineZoom: 0.8999997

[Metadata]
Title:Platinum Spice
TitleUnicode:Platinum Spice
Artist:RazQ
ArtistUnicode:RazQ
Creator:Ovoui
Version:Normal
Source:
Tags:tv size platinum disco old spice Nisemonogatari iguchi yuka ytpmv Midnaait
BeatmapID:479049
BeatmapSetID:201516

[Difficulty]
HPDrainRate:4
CircleSize:3.5
OverallDifficulty:4
ApproachRate:5
SliderMultiplier:1.2
SliderTickRate:1

[Events]
//Background and Video events
0,0,"g4JMnqE.jpg",0,0
Video,0,"PlatinumSpice.avi"
//Break Periods
//Storyboard Layer 0 (Background)
//Storyboard Layer 1 (Fail)
//Storyboard Layer 2 (Pass)
//Storyboard Layer 3 (Foreground)
//Storyboard Sound Samples

[TimingPoints]
1278,512.732866176722,4,1,0,60,1,0
19736,-90.9090909090909,4,1,0,60,0,0
54602,-83.3333333333333,4,1,0,70,0,1
55627,-83.3333333333333,4,1,0,70,0,0
56140,-83.3333333333333,4,1,0,70,0,1
62293,-66.6666666666667,4,1,0,70,0,1
63831,-83.3333333333333,4,1,0,70,0,1
72804,-100,4,1,0,60,0,0
89230,512.820512820513,4,1,0,60,1,0
89358,618.556701030928,4,1,0,60,1,8
89512,550.45871559633,4,1,0,60,1,8
90062,558.139534883721,4,1,0,60,1,8
90341,705.882352941176,4,1,0,60,1,8
90870,677.966101694915,4,1,0,100,1,0

[HitObjects]
120,128,1278,6,0,P|188:112|252:80,1,120,0|8,0:0|0:0,0:0:0:0:
388,120,2303,2,0,P|320:136|256:168,1,120,0|8,0:0|0:0,0:0:0:0:
224,292,3328,6,0,L|204:364,2,60
356,236,4354,1,0,0:0:0:0:
384,100,4867,1,8,0:0:0:0:
384,100,5123,2,0,L|300:84,1,60
260,56,5636,2,0,L|260:124,1,60,0|8,0:0|0:0,0:0:0:0:
192,88,6148,2,0,L|116:68,2,60,0|0|8,0:0|0:0|0:0,0:0:0:0:
260,116,6918,1,8,0:0:0:0:
356,220,7430,5,0,0:0:0:0:
356,220,7943,2,0,P|328:292|284:328,1,120,8|0,0:0|0:0,0:0:0:0:
152,320,8968,2,0,P|111:276|93:219,1,120,8|0,0:0|0:0,0:0:0:0:
225,162,9994,5,8,0:0:0:0:
225,163,10507,2,0,L|225:223,1,60,8|0,0:0|0:0,0:0:0:0:
225,300,11019,2,0,L|225:360,2,60,8|0|0,0:0|0:0|0:0,0:0:0:0:
293,261,11789,5,0,0:0:0:0:
355,214,12045,2,4,P|395:238|443:318,2,120,8|0|8,0:0|0:0|0:0,0:0:0:0:
209,180,13583,6,0,P|169:156|121:76,2,120,0|8|0,0:0|0:0|0:0,0:0:0:0:
319,290,15121,1,8,0:0:0:0:
209,180,15634,1,0,0:0:0:0:
98,290,16147,1,8,0:0:0:0:
49,140,16659,2,0,L|33:12,2,120,0|8|4,0:0|0:0|0:0,0:0:0:0:
256,192,17942,12,0,19736,0:0:0:0:
248,24,21787,6,0,P|300:68|304:152,1,132.00000402832,0|8,0:0|0:0,0:0:0:0:
276,284,22812,2,0,L|160:172,1,132.00000402832,0|8,0:0|0:0,0:0:0:0:
312,104,23838,5,0,0:0:0:0:
448,188,24350,1,8,0:0:0:0:
368,324,24863,1,0,0:0:0:0:
272,196,25376,1,8,0:0:0:0:
156,320,25889,2,0,P|100:280|88:256,1,66.0000020141602
120,200,26401,2,0,P|176:240|188:264,1,66.0000020141602,8|0,0:0|0:0,0:0:0:0:
232,300,26914,2,0,P|255:322|285:336,1,66.0000020141602
372,348,27427,6,0,P|396:206|396:196,1,132.00000402832,8|0,0:0|0:0,0:0:0:0:
324,60,28452,2,0,P|300:176|300:196,1,132.00000402832,8|0,0:0|0:0,0:0:0:0:
232,348,29478,1,8,0:0:0:0:
200,180,29991,1,0,0:0:0:0:
128,336,30503,1,8,0:0:0:0:
280,252,31016,1,0,0:0:0:0:
108,236,31529,1,8,0:0:0:0:
232,348,32041,2,0,P|328:352|372:188,1,264.000008056641
220,172,33580,1,0,0:0:0:0:
256,192,34092,12,0,36143,0:0:0:0:
84,340,36656,6,8,L|76:184,1,132.00000402832,8|0,0:0|0:0,0:0:0:0:
136,60,37682,1,8,0:0:0:0:
292,32,38194,2,0,P|328:92|384:96,1,132.00000402832,0|8,0:0|0:0,0:0:0:0:
392,268,39220,2,0,P|380:206|318:167,1,132.00000402832,0|0,0:0|0:0,0:0:0:0:
308,252,39989,1,0,0:0:0:0:
276,332,40245,6,0,P|216:348|136:328,1,132.00000402832,4|8,0:0|0:0,0:0:0:0:
88,172,41271,1,0,0:0:0:0:
234,63,41783,1,8,0:0:0:0:
315,198,42296,1,0,0:0:0:0:
244,339,42809,1,8,0:0:0:0:
110,254,43322,2,0,B|54:214|54:214|67:124,1,132.00000402832,0|8,0:0|0:0,0:0:0:0:
212,208,44347,6,0,B|272:238|272:238|304:152,1,132.00000402832,0|8,0:0|0:0,0:0:0:0:
362,32,45373,2,0,B|418:72|418:72|408:134,1,132.00000402832,0|8,0:0|0:0,0:0:0:0:
376,288,46398,2,0,L|244:295,1,132.00000402832,0|8,0:0|0:0,0:0:0:0:
188,348,47167,2,0,L|100:328,1,66.0000020141602
60,288,47680,6,0,L|36:356,2,66.0000020141602,0|8|4,0:0|0:0|0:0,0:0:0:0:
60,288,48449,1,0,0:0:0:0:
128,144,48962,1,8,0:0:0:0:
128,144,49218,2,0,L|200:96,1,66.0000020141602,0|4,0:0|0:0,0:0:0:0:
420,80,50243,1,8,0:0:0:0:
464,144,50500,6,2,P|448:204|360:204,1,132.00000402832,0|8,0:0|0:0,0:0:0:0:
324,172,51269,1,0,0:0:0:0:
264,120,51525,2,2,P|202:134|186:195,1,132.00000402832,0|4,0:0|0:0,0:0:0:0:
304,308,52551,2,0,B|352:348|428:320|428:320|412:256|412:256|464:208|464:208|416:132|360:120,1,396.000012084961
248,244,54602,5,0,0:0:0:0:
225,328,54858,1,0,0:0:0:0:
136,328,55114,1,0,0:0:0:0:
108,246,55371,1,0,0:0:0:0:
177,194,55627,1,0,0:0:0:0:
332,119,56140,6,0,P|361:100|396:90,2,71.9999978027344,8|0|0,0:0|0:0|0:0,0:0:0:0:
280,188,56909,1,0,0:0:0:0:
224,252,57165,2,0,P|176:280|92:253,1,143.999995605469,8|0,0:0|0:0,0:0:0:0:
24,104,58191,5,8,0:0:0:0:
4,188,58447,1,0,0:0:0:0:
16,276,58704,2,0,P|56:328|160:356,1,143.999995605469,0|8,0:0|0:0,0:0:0:0:
212,316,59473,1,0,0:0:0:0:
300,352,59729,2,0,B|344:324|377:335|436:296,1,143.999995605469,0|8,0:0|0:0,0:0:0:0:
504,236,60498,1,0,0:0:0:0:
512,128,60755,6,0,L|424:164,1,71.9999978027344
363,189,61267,1,8,0:0:0:0:
364,276,61524,1,2,0:0:0:0:
444,312,61780,2,0,P|452:276|432:232,1,71.9999978027344,0|0,0:0|0:0,0:0:0:0:
363,189,62293,2,0,B|288:200|276:272|276:272|224:260,3,180.000006866455,8|2|8|4,0:0|0:0|0:0|0:0,0:0:0:0:
72,228,64344,6,0,P|64:264|92:316,2,71.9999978027344,8|0|0,0:0|0:0|0:0,0:0:0:0:
96,144,65113,1,0,0:0:0:0:
156,76,65369,2,0,P|228:92|308:64,1,143.999995605469,8|0,0:0|0:0,0:0:0:0:
408,204,66395,6,0,L|424:112,2,71.9999978027344,8|0|2,0:0|0:0|0:0,0:0:0:0:
320,204,67164,1,0,0:0:0:0:
280,276,67420,2,8,L|190:244,2,71.9999978027344,8|0|2,0:0|0:0|0:0,0:0:0:0:
100,356,68445,6,0,L|84:284,1,71.9999978027344,8|0,0:0|0:0,0:0:0:0:
140,220,68958,2,0,L|156:136,1,71.9999978027344
72,180,69471,1,8,0:0:0:0:
82,106,69727,1,0,0:0:0:0:
96,32,69984,6,2,B|134:44|148:74|148:74|208:72|214:133|194:61|235:5,1,215.999993408203
292,56,71009,2,2,B|272:108|264:252|264:252|352:136|484:168,1,431.999986816407,2|4,0:0|0:0,0:0:0:0:
448,240,72804,5,0,0:0:0:0:
448,240,73060,2,0,L|396:300,1,60,4|0,0:0|0:0,0:0:0:0:
260,324,73829,1,0,0:0:0:0:
260,324,74086,2,0,L|180:344,1,60,4|0,0:0|0:0,0:0:0:0:
88,252,74855,6,0,L|72:172,1,60,0|0,0:0|0:0,0:0:0:0:
136,144,75367,1,8,0:0:0:0:
136,144,75624,1,8,0:0:0:0:
196,96,75880,2,0,L|176:28,1,60,0|0,0:0|0:0,0:0:0:0:
348,156,76906,5,0,0:0:0:0:
348,156,77163,2,0,L|428:128,1,60,4|0,0:0|0:0,0:0:0:0:
304,240,77931,1,0,0:0:0:0:
304,240,78188,2,0,L|224:268,1,60,4|0,0:0|0:0,0:0:0:0:
228,336,78700,2,0,P|180:308|172:236,1,120,0|12,0:0|0:0,0:0:0:0:
248,260,79469,1,0,0:0:0:0:
248,260,79726,2,0,P|236:200|176:168,1,120,0|12,0:0|0:0,0:0:0:0:
117,169,80495,1,2,0:0:0:0:
117,169,80751,1,2,0:0:0:0:
152,104,81007,5,0,0:0:0:0:
152,104,81264,2,0,L|120:28,1,60,4|0,0:0|0:0,0:0:0:0:
280,80,82033,1,0,0:0:0:0:
280,80,82289,2,0,L|308:148,1,60,4|0,0:0|0:0,0:0:0:0:
332,292,83058,6,0,L|416:292,2,60,0|0|0,0:0|0:0|0:0,0:0:0:0:
268,248,83827,2,0,L|192:248,2,60,8|0|0,0:0|0:0|0:0,0:0:0:0:
336,208,84597,1,0,0:0:0:0:
276,160,84853,2,0,P|312:136|352:128,1,60,8|0,0:0|0:0,0:0:0:0:
400,104,85366,1,0,0:0:0:0:
340,52,85622,1,0,0:0:0:0:
208,136,86135,5,8,0:0:0:0:
208,136,86391,2,0,L|231:217,2,60,0|0|0,0:0|0:0|0:0,0:0:0:0:
132,156,87160,1,0,0:0:0:0:
132,156,87417,2,0,B|116:124|140:88|140:88|94:33,2,120,4|8|4,0:0|0:0|0:0,0:0:0:0:
224,284,88955,1,0,0:0:0:0:
256,192,89211,12,0,91208,0:0:0:0:
