osu file format v14

[General]
AudioFilename: Platinum Spice.mp3
AudioLeadIn: 0
PreviewTime: 56135
Countdown: 0
SampleSet: Soft
StackLeniency: 0.7
Mode: 3
LetterboxInBreaks: 0
SpecialStyle: 0
WidescreenStoryboard: 0

[Editor]
DistanceSpacing: 1.4
BeatDivisor: 4
GridSize: 4
TimelineZoom: 1.099999

[Metadata]
Title:Platinum Spice
TitleUnicode:Platinum Spice
Artist:RazQ
ArtistUnicode:RazQ
Creator:Ovoui
Version:HD
Source:
Tags:tv size platinum disco old spice Nisemonogatari iguchi yuka ytpmv Midnaait
BeatmapID:762702
BeatmapSetID:201516

[Difficulty]
HPDrainRate:7.5
CircleSize:4
OverallDifficulty:7.5
ApproachRate:8
SliderMultiplier:2
SliderTickRate:1

[Events]
//Background and Video events
0,0,"g4JMnqE.jpg",0,0
Video,0,"PlatinumSpice.avi"
//Break Periods
//Storyboard Layer 0 (Background)
//Storyboard Layer 1 (Fail)
//Storyboard Layer 2 (Pass)
//Storyboard Layer 3 (Foreground)
//Storyboard Sound Samples

[TimingPoints]
1278,512.732866176722,4,2,0,25,1,0
19736,-100,4,2,0,25,0,0
35118,-100,4,2,0,25,0,0
35631,-100,4,2,0,25,0,0
36143,-100,4,2,0,25,0,0
54602,-100,4,2,0,25,0,1
55627,-100,4,2,0,25,0,0
56140,-100,4,2,0,25,0,1
72804,-100,4,2,0,25,0,0
89230,512.820512820513,4,1,0,60,1,0
89358,618.556701030928,4,1,0,60,1,8
89512,550.45871559633,4,1,0,60,1,8
90062,558.139534883721,4,1,0,60,1,8
90341,705.882352941176,4,1,0,60,1,8
90870,677.966101694915,4,1,0,60,1,0

[HitObjects]
192,192,1278,5,0,0:0:0:0:
448,192,1278,1,0,0:0:0:0:
64,192,1278,1,0,0:0:0:0:
320,192,1534,1,0,0:0:0:0:
448,192,1662,1,0,0:0:0:0:
64,192,1790,1,0,0:0:0:0:
320,192,1790,1,0,0:0:0:0:
192,192,2047,1,0,0:0:0:0:
64,192,2175,1,0,0:0:0:0:
448,192,2303,1,0,0:0:0:0:
192,192,2303,1,0,0:0:0:0:
320,192,2559,1,0,0:0:0:0:
448,192,2688,1,0,0:0:0:0:
320,192,2816,1,0,0:0:0:0:
64,192,2816,1,0,0:0:0:0:
320,192,3072,128,0,3328:0:0:0:0:
448,192,3328,1,0,0:0:0:0:
192,192,3328,1,0,0:0:0:0:
64,192,3328,1,0,0:0:0:0:
320,192,3585,1,0,0:0:0:0:
64,192,3841,1,0,0:0:0:0:
448,192,3841,1,0,0:0:0:0:
320,192,4098,1,0,0:0:0:0:
448,192,4354,128,0,4867:0:0:0:0:
192,192,4354,128,0,4867:0:0:0:0:
64,192,4610,1,0,0:0:0:0:
64,192,4867,1,0,0:0:0:0:
320,192,4867,1,0,0:0:0:0:
448,192,5123,1,0,0:0:0:0:
448,192,5379,1,0,0:0:0:0:
64,192,5379,1,0,0:0:0:0:
192,192,5636,1,0,0:0:0:0:
320,192,5892,1,0,0:0:0:0:
64,192,5892,1,0,0:0:0:0:
192,192,6148,1,0,0:0:0:0:
448,192,6405,1,0,0:0:0:0:
64,192,6405,1,0,0:0:0:0:
320,192,6661,128,0,6918:0:0:0:0:
192,192,6661,1,0,0:0:0:0:
64,192,6918,128,0,7174:0:0:0:0:
448,192,6918,1,0,0:0:0:0:
192,192,7174,1,0,0:0:0:0:
448,192,7430,1,0,0:0:0:0:
320,192,7430,1,0,0:0:0:0:
64,192,7687,1,0,0:0:0:0:
320,192,7943,1,0,0:0:0:0:
448,192,7943,1,0,0:0:0:0:
64,192,8199,1,0,0:0:0:0:
192,192,8199,1,0,0:0:0:0:
192,192,8456,1,0,0:0:0:0:
64,192,8456,1,0,0:0:0:0:
448,192,8712,1,0,0:0:0:0:
192,192,8968,1,0,0:0:0:0:
64,192,8968,1,0,0:0:0:0:
192,192,9225,1,0,0:0:0:0:
448,192,9225,1,0,0:0:0:0:
320,192,9481,1,0,0:0:0:0:
448,192,9481,1,0,0:0:0:0:
64,192,9738,1,0,0:0:0:0:
192,192,9866,1,0,0:0:0:0:
320,192,9994,1,0,0:0:0:0:
448,192,9994,1,0,0:0:0:0:
64,192,9994,1,0,0:0:0:0:
192,192,10250,1,0,0:0:0:0:
64,192,10507,1,0,0:0:0:0:
448,192,10507,128,0,10763:0:0:0:0:
192,192,10763,1,0,0:0:0:0:
448,192,11019,1,0,0:0:0:0:
320,192,11019,128,0,11276:0:0:0:0:
64,192,11276,128,0,11532:0:0:0:0:
192,192,11532,1,0,0:0:0:0:
448,192,11532,1,0,0:0:0:0:
320,192,11532,1,0,0:0:0:0:
64,192,11789,1,0,0:0:0:0:
320,192,12045,1,0,0:0:0:0:
192,192,12045,1,0,0:0:0:0:
448,192,12301,1,0,0:0:0:0:
320,192,12558,128,0,13070:0:0:0:0:
192,192,12558,128,0,13070:0:0:0:0:
64,192,12814,1,0,0:0:0:0:
448,192,13070,1,0,0:0:0:0:
64,192,13070,1,0,0:0:0:0:
320,192,13327,1,0,0:0:0:0:
320,192,13583,1,0,0:0:0:0:
64,192,13583,1,0,0:0:0:0:
192,192,13839,1,0,0:0:0:0:
64,192,14096,1,0,0:0:0:0:
320,192,14096,1,0,0:0:0:0:
448,192,14352,1,0,0:0:0:0:
64,192,14609,128,0,15121:0:0:0:0:
448,192,14609,1,0,0:0:0:0:
320,192,14865,1,0,0:0:0:0:
192,192,15121,1,0,0:0:0:0:
448,192,15121,1,0,0:0:0:0:
320,192,15378,1,0,0:0:0:0:
192,192,15634,1,0,0:0:0:0:
448,192,15634,1,0,0:0:0:0:
64,192,15890,1,0,0:0:0:0:
192,192,16147,1,0,0:0:0:0:
448,192,16147,1,0,0:0:0:0:
320,192,16403,1,0,0:0:0:0:
448,192,16659,128,0,16916:0:0:0:0:
192,192,16659,128,0,16916:0:0:0:0:
64,192,16916,128,0,17172:0:0:0:0:
192,192,17172,1,0,0:0:0:0:
448,192,17172,1,0,0:0:0:0:
320,192,17429,1,0,0:0:0:0:
192,192,17685,1,0,0:0:0:0:
64,192,17685,1,0,0:0:0:0:
320,192,17813,1,0,0:0:0:0:
448,192,17941,1,0,0:0:0:0:
320,192,18070,1,0,0:0:0:0:
64,192,18198,1,0,0:0:0:0:
192,192,18198,1,0,0:0:0:0:
320,192,18326,1,0,0:0:0:0:
448,192,18454,1,0,0:0:0:0:
320,192,18497,1,0,0:0:0:0:
192,192,18540,1,0,0:0:0:0:
64,192,18582,1,0,0:0:0:0:
320,192,18710,1,0,0:0:0:0:
448,192,18710,128,0,19223:0:0:0:0:
192,192,18839,1,0,0:0:0:0:
64,192,18967,128,0,19223:0:0:0:0:
320,192,19223,1,0,0:0:0:0:
192,192,19223,128,0,19736:0:0:0:0:
64,192,19736,1,0,0:0:0:0:
320,192,19736,1,0,0:0:0:0:
448,192,19736,1,0,0:0:0:0:
192,192,19992,1,0,0:0:0:0:
448,192,20249,1,0,0:0:0:0:
64,192,20249,1,0,0:0:0:0:
320,192,20377,1,0,0:0:0:0:
192,192,20505,1,0,0:0:0:0:
64,192,20633,1,0,0:0:0:0:
448,192,20761,1,0,0:0:0:0:
320,192,20761,1,0,0:0:0:0:
192,192,20890,1,0,0:0:0:0:
64,192,21018,1,0,0:0:0:0:
448,192,21146,1,0,0:0:0:0:
320,192,21274,1,0,0:0:0:0:
192,192,21274,1,0,0:0:0:0:
64,192,21530,1,0,0:0:0:0:
448,192,21530,1,0,0:0:0:0:
192,192,21787,1,0,0:0:0:0:
320,192,21787,1,0,0:0:0:0:
448,192,21787,1,0,0:0:0:0:
64,192,22043,1,0,0:0:0:0:
448,192,22171,1,0,0:0:0:0:
192,192,22300,1,0,0:0:0:0:
320,192,22300,1,0,0:0:0:0:
64,192,22556,1,0,0:0:0:0:
448,192,22812,1,0,0:0:0:0:
64,192,22812,1,0,0:0:0:0:
320,192,23069,128,0,23325:0:0:0:0:
192,192,23325,1,0,0:0:0:0:
64,192,23325,1,0,0:0:0:0:
448,192,23581,1,0,0:0:0:0:
448,192,23838,1,0,0:0:0:0:
192,192,23838,1,0,0:0:0:0:
320,192,24094,1,0,0:0:0:0:
192,192,24222,1,0,0:0:0:0:
448,192,24350,1,0,0:0:0:0:
64,192,24350,1,0,0:0:0:0:
192,192,24607,1,0,0:0:0:0:
320,192,24735,1,0,0:0:0:0:
64,192,24863,1,0,0:0:0:0:
448,192,24863,1,0,0:0:0:0:
320,192,25120,1,0,0:0:0:0:
192,192,25248,1,0,0:0:0:0:
448,192,25376,1,0,0:0:0:0:
64,192,25376,1,0,0:0:0:0:
192,192,25632,1,0,0:0:0:0:
448,192,25889,1,0,0:0:0:0:
64,192,25889,1,0,0:0:0:0:
64,192,26145,1,0,0:0:0:0:
320,192,26145,1,0,0:0:0:0:
192,192,26401,1,0,0:0:0:0:
64,192,26401,1,0,0:0:0:0:
448,192,26658,1,0,0:0:0:0:
320,192,26658,1,0,0:0:0:0:
320,192,26914,1,0,0:0:0:0:
448,192,26914,1,0,0:0:0:0:
64,192,27171,1,0,0:0:0:0:
192,192,27299,1,0,0:0:0:0:
320,192,27427,1,0,0:0:0:0:
448,192,27427,1,0,0:0:0:0:
448,192,27683,1,0,0:0:0:0:
320,192,27811,1,0,0:0:0:0:
192,192,27940,1,0,0:0:0:0:
64,192,27940,1,0,0:0:0:0:
192,192,28196,1,0,0:0:0:0:
64,192,28196,1,0,0:0:0:0:
320,192,28324,1,0,0:0:0:0:
64,192,28709,1,0,0:0:0:0:
192,192,28837,1,0,0:0:0:0:
64,192,28965,1,0,0:0:0:0:
320,192,28965,1,0,0:0:0:0:
320,192,29221,1,0,0:0:0:0:
64,192,29221,1,0,0:0:0:0:
192,192,29350,1,0,0:0:0:0:
320,192,29734,1,0,0:0:0:0:
64,192,29862,1,0,0:0:0:0:
320,192,29991,1,0,0:0:0:0:
448,192,29991,1,0,0:0:0:0:
448,192,30247,1,0,0:0:0:0:
320,192,30247,1,0,0:0:0:0:
64,192,30375,1,0,0:0:0:0:
320,192,30760,1,0,0:0:0:0:
448,192,30888,1,0,0:0:0:0:
64,192,31016,1,0,0:0:0:0:
192,192,31016,1,0,0:0:0:0:
192,192,31272,1,0,0:0:0:0:
64,192,31272,1,0,0:0:0:0:
448,192,31401,1,0,0:0:0:0:
64,192,31785,1,0,0:0:0:0:
192,192,32041,1,0,0:0:0:0:
448,192,32041,1,0,0:0:0:0:
320,192,32298,1,0,0:0:0:0:
192,192,32554,1,0,0:0:0:0:
448,192,32554,1,0,0:0:0:0:
64,192,32811,1,0,0:0:0:0:
192,192,33067,1,0,0:0:0:0:
448,192,33067,1,0,0:0:0:0:
320,192,33323,1,0,0:0:0:0:
64,192,33323,1,0,0:0:0:0:
192,192,33580,1,0,0:0:0:0:
448,192,33580,1,0,0:0:0:0:
320,192,33836,1,0,0:0:0:0:
64,192,33836,1,0,0:0:0:0:
64,192,34092,1,0,0:0:0:0:
320,192,34092,1,0,0:0:0:0:
192,192,34092,1,0,0:0:0:0:
448,192,34221,1,0,0:0:0:0:
320,192,34349,1,0,0:0:0:0:
192,192,34477,1,0,0:0:0:0:
448,192,34605,1,0,0:0:0:0:
64,192,34605,1,0,0:0:0:0:
192,192,34733,1,0,0:0:0:0:
320,192,34862,1,0,0:0:0:0:
448,192,34990,1,0,0:0:0:0:
320,192,35118,1,0,0:0:0:0:
64,192,35118,1,0,0:0:0:0:
320,192,35374,1,0,0:0:0:0:
448,192,35374,1,0,0:0:0:0:
448,192,35631,1,0,0:0:0:0:
320,192,35631,1,0,0:0:0:0:
192,192,35631,1,0,0:0:0:0:
64,192,35887,1,0,0:0:0:0:
320,192,36015,1,0,0:0:0:0:
192,192,36143,1,0,0:0:0:0:
448,192,36143,1,0,0:0:0:0:
320,192,36400,1,0,0:0:0:0:
448,192,36656,1,0,0:0:0:0:
64,192,36656,1,0,0:0:0:0:
448,192,36912,1,0,0:0:0:0:
64,192,37169,1,0,0:0:0:0:
320,192,37169,1,0,0:0:0:0:
64,192,37425,1,0,0:0:0:0:
192,192,37682,1,0,0:0:0:0:
320,192,37682,1,0,0:0:0:0:
448,192,37938,1,0,0:0:0:0:
64,192,38194,1,0,0:0:0:0:
320,192,38194,1,0,0:0:0:0:
192,192,38451,1,0,0:0:0:0:
448,192,38707,1,0,0:0:0:0:
192,192,38707,1,0,0:0:0:0:
320,192,38963,1,0,0:0:0:0:
64,192,39220,1,0,0:0:0:0:
320,192,39220,1,0,0:0:0:0:
448,192,39476,1,0,0:0:0:0:
64,192,39732,1,0,0:0:0:0:
192,192,39732,1,0,0:0:0:0:
320,192,39989,1,0,0:0:0:0:
64,192,40245,1,0,0:0:0:0:
448,192,40245,128,0,40502:0:0:0:0:
192,192,40502,128,0,40758:0:0:0:0:
64,192,40758,1,0,0:0:0:0:
320,192,40758,1,0,0:0:0:0:
448,192,41014,1,0,0:0:0:0:
320,192,41271,128,0,41783:0:0:0:0:
64,192,41271,1,0,0:0:0:0:
448,192,41527,1,0,0:0:0:0:
192,192,41783,1,0,0:0:0:0:
64,192,41783,1,0,0:0:0:0:
448,192,42040,128,0,42296:0:0:0:0:
192,192,42296,1,0,0:0:0:0:
64,192,42296,128,0,42552:0:0:0:0:
320,192,42552,128,0,42809:0:0:0:0:
448,192,42809,1,0,0:0:0:0:
192,192,42809,1,0,0:0:0:0:
320,192,43065,1,0,0:0:0:0:
64,192,43322,1,0,0:0:0:0:
448,192,43322,1,0,0:0:0:0:
192,192,43578,1,0,0:0:0:0:
320,192,43578,1,0,0:0:0:0:
320,192,43834,1,0,0:0:0:0:
64,192,43834,1,0,0:0:0:0:
192,192,44091,1,0,0:0:0:0:
448,192,44347,1,0,0:0:0:0:
64,192,44347,1,0,0:0:0:0:
320,192,44603,1,0,0:0:0:0:
64,192,44860,1,0,0:0:0:0:
192,192,44860,1,0,0:0:0:0:
448,192,45116,1,0,0:0:0:0:
64,192,45373,1,0,0:0:0:0:
448,192,45373,1,0,0:0:0:0:
320,192,45629,1,0,0:0:0:0:
64,192,45885,1,0,0:0:0:0:
448,192,45885,1,0,0:0:0:0:
64,192,46142,1,0,0:0:0:0:
64,192,46398,1,0,0:0:0:0:
320,192,46398,1,0,0:0:0:0:
448,192,46654,1,0,0:0:0:0:
320,192,46783,1,0,0:0:0:0:
192,192,46911,1,0,0:0:0:0:
64,192,46911,1,0,0:0:0:0:
448,192,47167,1,0,0:0:0:0:
320,192,47295,1,0,0:0:0:0:
192,192,47423,1,0,0:0:0:0:
64,192,47423,1,0,0:0:0:0:
448,192,47680,1,0,0:0:0:0:
64,192,47936,1,0,0:0:0:0:
192,192,47936,1,0,0:0:0:0:
320,192,48193,1,0,0:0:0:0:
448,192,48193,1,0,0:0:0:0:
448,192,48449,1,0,0:0:0:0:
320,192,48449,1,0,0:0:0:0:
192,192,48705,1,0,0:0:0:0:
64,192,48962,1,0,0:0:0:0:
448,192,48962,1,0,0:0:0:0:
320,192,48962,1,0,0:0:0:0:
192,192,49218,1,0,0:0:0:0:
320,192,49218,1,0,0:0:0:0:
320,192,49474,1,0,0:0:0:0:
192,192,49474,1,0,0:0:0:0:
448,192,49731,1,0,0:0:0:0:
320,192,49987,1,0,0:0:0:0:
64,192,49987,1,0,0:0:0:0:
192,192,49987,1,0,0:0:0:0:
448,192,50243,1,0,0:0:0:0:
448,192,50500,128,0,51013:0:0:0:0:
64,192,50500,1,0,0:0:0:0:
64,192,50756,1,0,0:0:0:0:
320,192,51013,128,0,51525:0:0:0:0:
192,192,51013,1,0,0:0:0:0:
192,192,51269,1,0,0:0:0:0:
64,192,51525,128,0,52038:0:0:0:0:
448,192,51525,1,0,0:0:0:0:
448,192,51782,1,0,0:0:0:0:
192,192,52038,128,0,52551:0:0:0:0:
320,192,52038,1,0,0:0:0:0:
320,192,52294,1,0,0:0:0:0:
64,192,52551,128,0,54089:0:0:0:0:
448,192,52551,1,0,0:0:0:0:
192,192,53064,1,0,0:0:0:0:
320,192,53064,1,0,0:0:0:0:
448,192,53320,1,0,0:0:0:0:
192,192,53576,1,0,0:0:0:0:
320,192,53576,1,0,0:0:0:0:
192,192,54089,1,0,0:0:0:0:
448,192,54089,128,0,54602:0:0:0:0:
64,192,54602,1,0,0:0:0:0:
192,192,54602,1,0,0:0:0:0:
320,192,54602,1,0,0:0:0:0:
320,192,54858,1,0,0:0:0:0:
192,192,54858,1,0,0:0:0:0:
448,192,54858,1,0,0:0:0:0:
192,192,55114,1,0,0:0:0:0:
320,192,55114,1,0,0:0:0:0:
64,192,55114,1,0,0:0:0:0:
448,192,55371,1,0,0:0:0:0:
320,192,55371,1,0,0:0:0:0:
192,192,55371,1,0,0:0:0:0:
320,192,55627,1,0,0:0:0:0:
192,192,55627,1,0,0:0:0:0:
64,192,55627,1,0,0:0:0:0:
448,192,56140,1,0,0:0:0:0:
448,192,56396,1,0,0:0:0:0:
192,192,56653,1,0,0:0:0:0:
64,192,56653,1,0,0:0:0:0:
320,192,56653,128,0,56909:0:0:0:0:
192,192,56909,128,0,57165:0:0:0:0:
64,192,57165,128,0,57422:0:0:0:0:
448,192,57165,1,0,0:0:0:0:
320,192,57422,128,0,57678:0:0:0:0:
448,192,57678,128,0,57934:0:0:0:0:
192,192,57678,1,0,0:0:0:0:
64,192,58191,1,0,0:0:0:0:
192,192,58191,1,0,0:0:0:0:
192,192,58447,1,0,0:0:0:0:
320,192,58704,1,0,0:0:0:0:
448,192,58704,1,0,0:0:0:0:
320,192,58960,1,0,0:0:0:0:
192,192,59216,1,0,0:0:0:0:
64,192,59216,1,0,0:0:0:0:
192,192,59473,1,0,0:0:0:0:
64,192,59729,128,0,60242:0:0:0:0:
448,192,59729,1,0,0:0:0:0:
320,192,59985,1,0,0:0:0:0:
448,192,60242,1,0,0:0:0:0:
192,192,60242,1,0,0:0:0:0:
320,192,60498,1,0,0:0:0:0:
320,192,60755,1,0,0:0:0:0:
64,192,60755,1,0,0:0:0:0:
64,192,61011,1,0,0:0:0:0:
192,192,61267,1,0,0:0:0:0:
448,192,61267,1,0,0:0:0:0:
448,192,61524,1,0,0:0:0:0:
320,192,61780,1,0,0:0:0:0:
64,192,61780,128,0,62293:0:0:0:0:
448,192,62036,1,0,0:0:0:0:
192,192,62293,1,0,0:0:0:0:
320,192,62293,1,0,0:0:0:0:
448,192,62549,1,0,0:0:0:0:
192,192,62805,1,0,0:0:0:0:
64,192,62805,1,0,0:0:0:0:
320,192,62934,1,0,0:0:0:0:
448,192,63062,1,0,0:0:0:0:
320,192,63190,1,0,0:0:0:0:
192,192,63318,1,0,0:0:0:0:
64,192,63318,1,0,0:0:0:0:
320,192,63446,1,0,0:0:0:0:
448,192,63575,1,0,0:0:0:0:
320,192,63703,1,0,0:0:0:0:
192,192,63831,1,0,0:0:0:0:
64,192,63831,1,0,0:0:0:0:
320,192,63959,1,0,0:0:0:0:
448,192,64087,1,0,0:0:0:0:
320,192,64215,1,0,0:0:0:0:
192,192,64344,1,0,0:0:0:0:
64,192,64344,1,0,0:0:0:0:
448,192,64600,1,0,0:0:0:0:
64,192,64856,1,0,0:0:0:0:
192,192,64856,1,0,0:0:0:0:
448,192,65113,1,0,0:0:0:0:
64,192,65369,1,0,0:0:0:0:
192,192,65369,1,0,0:0:0:0:
448,192,65625,1,0,0:0:0:0:
192,192,65882,1,0,0:0:0:0:
64,192,65882,1,0,0:0:0:0:
320,192,66138,1,0,0:0:0:0:
320,192,66395,1,0,0:0:0:0:
192,192,66395,1,0,0:0:0:0:
192,192,66651,1,0,0:0:0:0:
320,192,66907,1,0,0:0:0:0:
448,192,66907,1,0,0:0:0:0:
64,192,67164,1,0,0:0:0:0:
320,192,67420,1,0,0:0:0:0:
192,192,67420,1,0,0:0:0:0:
448,192,67676,1,0,0:0:0:0:
192,192,67933,1,0,0:0:0:0:
64,192,67933,128,0,68446:0:0:0:0:
320,192,68189,1,0,0:0:0:0:
192,192,68446,1,0,0:0:0:0:
448,192,68446,1,0,0:0:0:0:
320,192,68702,1,0,0:0:0:0:
64,192,68958,1,0,0:0:0:0:
448,192,68958,1,0,0:0:0:0:
320,192,69215,1,0,0:0:0:0:
448,192,69471,1,0,0:0:0:0:
64,192,69471,1,0,0:0:0:0:
192,192,69727,1,0,0:0:0:0:
64,192,69984,1,0,0:0:0:0:
448,192,69984,128,0,70496:0:0:0:0:
320,192,70240,1,0,0:0:0:0:
64,192,70496,1,0,0:0:0:0:
192,192,70496,1,0,0:0:0:0:
320,192,70753,1,0,0:0:0:0:
448,192,71009,1,0,0:0:0:0:
320,192,71137,1,0,0:0:0:0:
192,192,71266,1,0,0:0:0:0:
64,192,71394,1,0,0:0:0:0:
192,192,71522,1,0,0:0:0:0:
320,192,71650,1,0,0:0:0:0:
448,192,71778,1,0,0:0:0:0:
320,192,71821,1,0,0:0:0:0:
192,192,71864,1,0,0:0:0:0:
64,192,71906,1,0,0:0:0:0:
448,192,72035,128,0,72547:0:0:0:0:
64,192,72163,1,0,0:0:0:0:
192,192,72291,1,0,0:0:0:0:
192,192,72547,1,0,0:0:0:0:
320,192,72547,1,0,0:0:0:0:
64,192,72804,1,0,0:0:0:0:
192,192,73060,1,0,0:0:0:0:
320,192,73060,1,0,0:0:0:0:
448,192,73060,1,0,0:0:0:0:
320,192,73573,1,0,0:0:0:0:
448,192,73573,1,0,0:0:0:0:
192,192,73829,1,0,0:0:0:0:
64,192,74086,1,0,0:0:0:0:
320,192,74086,1,0,0:0:0:0:
448,192,74086,1,0,0:0:0:0:
64,192,74598,1,0,0:0:0:0:
192,192,74598,1,0,0:0:0:0:
448,192,74855,1,0,0:0:0:0:
320,192,75111,1,0,0:0:0:0:
64,192,75111,1,0,0:0:0:0:
448,192,75367,1,0,0:0:0:0:
192,192,75367,1,0,0:0:0:0:
448,192,75624,1,0,0:0:0:0:
192,192,75624,1,0,0:0:0:0:
320,192,75880,1,0,0:0:0:0:
192,192,76136,1,0,0:0:0:0:
64,192,76136,128,0,76649:0:0:0:0:
320,192,76393,1,0,0:0:0:0:
448,192,76393,1,0,0:0:0:0:
448,192,76649,1,0,0:0:0:0:
320,192,76649,1,0,0:0:0:0:
192,192,76906,1,0,0:0:0:0:
64,192,77162,1,0,0:0:0:0:
320,192,77162,1,0,0:0:0:0:
448,192,77162,1,0,0:0:0:0:
64,192,77675,1,0,0:0:0:0:
192,192,77675,1,0,0:0:0:0:
320,192,77931,1,0,0:0:0:0:
192,192,78187,1,0,0:0:0:0:
64,192,78187,1,0,0:0:0:0:
448,192,78187,1,0,0:0:0:0:
320,192,78700,1,0,0:0:0:0:
448,192,78700,1,0,0:0:0:0:
64,192,78957,1,0,0:0:0:0:
192,192,79213,1,0,0:0:0:0:
320,192,79213,1,0,0:0:0:0:
448,192,79469,1,0,0:0:0:0:
64,192,79726,1,0,0:0:0:0:
192,192,79726,1,0,0:0:0:0:
448,192,79982,1,0,0:0:0:0:
192,192,80238,1,0,0:0:0:0:
320,192,80238,1,0,0:0:0:0:
320,192,80495,1,0,0:0:0:0:
64,192,80495,1,0,0:0:0:0:
64,192,80751,1,0,0:0:0:0:
320,192,80751,1,0,0:0:0:0:
448,192,81007,1,0,0:0:0:0:
320,192,81264,1,0,0:0:0:0:
192,192,81264,1,0,0:0:0:0:
64,192,81264,1,0,0:0:0:0:
320,192,81777,1,0,0:0:0:0:
448,192,81777,1,0,0:0:0:0:
64,192,82033,1,0,0:0:0:0:
192,192,82289,1,0,0:0:0:0:
320,192,82289,1,0,0:0:0:0:
448,192,82289,1,0,0:0:0:0:
64,192,82802,1,0,0:0:0:0:
320,192,82802,1,0,0:0:0:0:
192,192,83058,1,0,0:0:0:0:
320,192,83315,1,0,0:0:0:0:
448,192,83315,1,0,0:0:0:0:
192,192,83571,1,0,0:0:0:0:
192,192,83827,1,0,0:0:0:0:
64,192,83827,1,0,0:0:0:0:
448,192,84084,1,0,0:0:0:0:
320,192,84340,1,0,0:0:0:0:
192,192,84340,128,0,84597:0:0:0:0:
64,192,84597,128,0,84853:0:0:0:0:
448,192,84853,128,0,85109:0:0:0:0:
192,192,84853,1,0,0:0:0:0:
320,192,85109,128,0,85366:0:0:0:0:
64,192,85366,1,0,0:0:0:0:
192,192,85366,1,0,0:0:0:0:
448,192,85366,1,0,0:0:0:0:
192,192,85622,1,0,0:0:0:0:
64,192,85622,1,0,0:0:0:0:
448,192,85622,1,0,0:0:0:0:
320,192,85878,1,0,0:0:0:0:
320,192,86135,1,0,0:0:0:0:
448,192,86135,1,0,0:0:0:0:
64,192,86391,1,0,0:0:0:0:
192,192,86391,1,0,0:0:0:0:
320,192,86648,1,0,0:0:0:0:
448,192,86648,1,0,0:0:0:0:
192,192,86904,1,0,0:0:0:0:
448,192,87160,1,0,0:0:0:0:
320,192,87417,1,0,0:0:0:0:
448,192,87417,1,0,0:0:0:0:
64,192,87417,1,0,0:0:0:0:
192,192,87673,1,0,0:0:0:0:
320,192,87929,1,0,0:0:0:0:
448,192,87929,1,0,0:0:0:0:
192,192,87929,1,0,0:0:0:0:
64,192,88186,1,0,0:0:0:0:
64,192,88442,1,0,0:0:0:0:
192,192,88442,1,0,0:0:0:0:
448,192,88442,1,0,0:0:0:0:
320,192,88442,1,0,0:0:0:0:
320,192,88698,1,0,0:0:0:0:
448,192,88827,1,0,0:0:0:0:
192,192,88955,1,0,0:0:0:0:
64,192,88955,1,0,0:0:0:0:
