osu file format v14

[General]
AudioFilename: Platinum Spice.mp3
AudioLeadIn: 0
PreviewTime: 56135
Countdown: 0
SampleSet: Normal
StackLeniency: 0.7
Mode: 0
LetterboxInBreaks: 0
WidescreenStoryboard: 0

[Editor]
DistanceSpacing: 1.2
BeatDivisor: 4
GridSize: 4
TimelineZoom: 0.8999997

[Metadata]
Title:Platinum Spice
TitleUnicode:Platinum Spice
Artist:RazQ
ArtistUnicode:RazQ
Creator:Ovoui
Version:Easy
Source:
Tags:tv size platinum disco old spice Nisemonogatari iguchi yuka ytpmv Midnaait
BeatmapID:480192
BeatmapSetID:201516

[Difficulty]
HPDrainRate:2
CircleSize:2.7
OverallDifficulty:2
ApproachRate:3
SliderMultiplier:0.9
SliderTickRate:1

[Events]
//Background and Video events
0,0,"g4JMnqE.jpg",0,0
Video,0,"PlatinumSpice.avi"
//Break Periods
//Storyboard Layer 0 (Background)
//Storyboard Layer 1 (Fail)
//Storyboard Layer 2 (Pass)
//Storyboard Layer 3 (Foreground)
//Storyboard Sound Samples

[TimingPoints]
1278,512.732866176722,4,1,0,60,1,0
19736,-90.9090909090909,4,1,0,60,0,0
54602,-83.3333333333333,4,1,0,70,0,1
55627,-83.3333333333333,4,1,0,70,0,0
56140,-83.3333333333333,4,1,0,70,0,1
72804,-100,4,1,0,60,0,0
89230,512.820512820513,4,1,0,60,1,0
89358,618.556701030928,4,1,0,60,1,8
89512,550.45871559633,4,1,0,60,1,8
90062,558.139534883721,4,1,0,60,1,8
90341,705.882352941176,4,1,0,60,1,8
90870,677.966101694915,4,1,0,60,1,0

[HitObjects]
60,296,1278,6,0,P|104:296|156:284,1,90,4|0,0:0|0:0,0:0:0:0:
248,244,2303,1,0,0:0:0:0:
348,284,2816,2,0,P|391:293|436:293,1,90,0|4,0:0|0:0,0:0:0:0:
392,196,3841,6,0,P|344:184|304:164,1,90,8|0,0:0|0:0,0:0:0:0:
200,152,4867,1,8,0:0:0:0:
96,180,5379,6,0,P|92:144|116:84,2,90,0|8|0,0:0|0:0|0:0,0:0:0:0:
176,252,6918,1,8,0:0:0:0:
256,184,7430,5,0,0:0:0:0:
352,236,7943,2,0,P|384:264|412:316,1,90,8|0,0:0|0:0,0:0:0:0:
304,336,8968,2,0,P|256:348|208:332,1,90,8|0,0:0|0:0,0:0:0:0:
128,280,9994,5,8,0:0:0:0:
212,212,10507,2,0,P|256:172|272:128,1,90,0|8,0:0|0:0,0:0:0:0:
308,44,11532,6,0,B|364:72|365:117,1,90,4|8,0:0|0:0,0:0:0:0:
420,200,12558,2,0,B|468:180|476:120,2,90,0|8|0,0:0|0:0|0:0,0:0:0:0:
308,216,14096,5,8,0:0:0:0:
368,304,14609,2,0,P|320:324|268:320,1,90,0|8,0:0|0:0,0:0:0:0:
180,296,15634,5,0,0:0:0:0:
104,216,16147,2,0,P|88:164|92:120,1,90,8|0,0:0|0:0,0:0:0:0:
176,68,17172,2,0,P|190:110|190:155,1,90,8|4,0:0|0:0,0:0:0:0:
256,192,18198,12,4,19736,0:0:0:0:
452,312,21787,6,0,P|456:248|432:204,1,99.0000030212403,0|8,0:0|0:0,0:0:0:0:
340,272,22812,1,0,0:0:0:0:
236,212,23325,1,8,0:0:0:0:
340,156,23838,6,0,B|384:108|384:108|384:60,1,99.0000030212403,2|8,0:0|0:0,0:0:0:0:
280,20,24863,2,0,B|236:68|236:68|236:116,1,99.0000030212403,2|8,0:0|0:0,0:0:0:0:
236,212,25889,1,2,0:0:0:0:
120,240,26401,2,0,P|128:272|148:296,2,49.5000015106202,8|0|0,0:0|0:0|0:0,0:0:0:0:
152,124,27427,1,8,0:0:0:0:
272,108,27940,5,4,0:0:0:0:
360,184,28452,2,0,B|392:200|392:200|432:204|460:240,1,99.0000030212403,8|0,0:0|0:0,0:0:0:0:
372,320,29478,2,0,P|332:344|265:333,1,99.0000030212403,8|0,0:0|0:0,0:0:0:0:
228,312,30247,2,2,L|200:272,1,49.5000015106202,0|8,0:0|0:0,0:0:0:0:
132,172,31016,5,2,0:0:0:0:
252,152,31529,2,0,L|252:88,2,49.5000015106202,8|0|0,0:0|0:0|0:0,0:0:0:0:
311,254,32554,2,0,B|376:216|372:144|372:144|392:104|420:96,1,198.000006042481,8|8,0:0|0:0,0:0:0:0:
256,192,34092,12,0,35631,0:0:0:0:
439,274,37169,6,0,P|391:284|344:272,1,99.0000030212403,8|0,0:0|0:0,0:0:0:0:
248,200,38194,1,0,0:0:0:0:
154,272,38707,2,0,P|110:284|48:270,1,99.0000030212403,8|0,0:0|0:0,0:0:0:0:
104,165,39732,1,8,0:0:0:0:
166,63,40245,2,0,P|205:103|224:151,1,99.0000030212403,2|8,0:0|0:0,0:0:0:0:
208,264,41271,5,0,0:0:0:0:
296,344,41783,1,8,0:0:0:0:
392,272,42296,2,0,P|432:176|384:104,1,198.000006042481,0|4,0:0|0:0,0:0:0:0:
152,48,44347,6,0,P|112:144|160:216,1,198.000006042481,4|0,0:0|0:0,0:0:0:0:
284,224,45885,1,8,0:0:0:0:
360,316,46398,1,0,0:0:0:0:
248,360,46911,2,0,L|148:340,1,99.0000030212403,8|0,0:0|0:0,0:0:0:0:
116,228,47936,6,0,P|104:160|116:124,1,99.0000030212403,8|0,0:0|0:0,0:0:0:0:
148,88,48705,1,0,0:0:0:0:
244,160,49218,2,0,L|244:224,2,49.5000015106202,0|0|0,0:0|0:0|0:0,0:0:0:0:
308,60,50243,5,0,0:0:0:0:
348,100,50500,2,0,B|368:124|368:124|400:132|440:176,1,99.0000030212403,0|8,0:0|0:0,0:0:0:0:
448,280,51525,1,0,0:0:0:0:
336,244,52038,1,8,0:0:0:0:
240,316,52551,2,0,B|200:272|216:212|216:212|172:168|124:168,1,198.000006042481
28,165,54089,6,4,P|36:216|76:256,1,99.0000030212403,8|0,0:0|0:0,0:0:0:0:
176,320,55114,1,0,0:0:0:0:
224,200,55627,1,4,0:0:0:0:
344,256,56140,5,8,0:0:0:0:
472,296,56653,2,0,P|484:228|468:176,1,107.999996704102,4|8,0:0|0:0,0:0:0:0:
376,126,57678,2,0,L|248:118,1,107.999996704102,0|8,0:0|0:0,0:0:0:0:
160,188,58704,1,0,0:0:0:0:
204,312,59216,1,8,0:0:0:0:
328,308,59729,6,0,P|400:208|360:108,1,215.999993408203,0|4,0:0|0:0,0:0:0:0:
252,100,61267,1,8,0:0:0:0:
128,136,61780,2,0,P|104:184|140:228,2,107.999996704102,0|8|4,0:0|0:0|0:0,0:0:0:0:
252,100,63318,1,8,0:0:0:0:
380,104,63831,1,0,0:0:0:0:
424,228,64344,1,8,0:0:0:0:
324,312,64856,6,0,P|274:322|211:316,2,107.999996704102,2|8|0,0:0|0:0|0:0,0:0:0:0:
228,224,66395,2,0,P|179:183|151:143,2,107.999996704102,10|0|8,0:0|0:0|0:0,0:0:0:0:
352,232,67933,1,4,0:0:0:0:
460,160,68446,6,0,B|428:124|428:124|356:96,1,107.999996704102,8|0,0:0|0:0,0:0:0:0:
251,67,69471,1,8,0:0:0:0:
126,54,69984,2,0,B|100:80|100:80|128:112|124:144|104:168,1,107.999996704102,0|8,0:0|0:0,0:0:0:0:
80,272,71009,2,0,B|48:344|104:368|104:368|188:276|304:280,1,323.999990112305,4|8,0:0|0:0,0:0:0:0:
348,376,73060,6,0,P|397:352|427:312,1,90,4|8,0:0|0:0,0:0:0:0:
456,224,74086,2,0,L|480:116,1,90,0|8,0:0|0:0,0:0:0:0:
384,76,75111,5,0,0:0:0:0:
296,140,75624,1,8,0:0:0:0:
256,240,76136,1,0,0:0:0:0:
160,292,76649,1,8,0:0:0:0:
56,264,77162,6,0,L|36:172,1,90,0|8,0:0|0:0,0:0:0:0:
128,116,78187,2,0,B|176:84|176:84|196:48,1,90,0|8,0:0|0:0,0:0:0:0:
299,55,79213,2,0,B|314:83|314:83|362:115,1,90,0|8,0:0|0:0,0:0:0:0:
388,220,80238,2,0,L|428:248,2,45,0|0|8,0:0|0:0|0:0,0:0:0:0:
280,236,81264,5,0,0:0:0:0:
228,332,81777,1,8,0:0:0:0:
148,256,82289,2,0,L|64:288,1,90,0|8,0:0|0:0,0:0:0:0:
92,184,83315,2,0,L|188:148,1,90,0|8,0:0|0:0,0:0:0:0:
272,100,84340,2,0,L|272:36,2,45,0|0|8,0:0|0:0|0:0,0:0:0:0:
368,152,85366,6,0,L|424:168,1,45,0|4,0:0|0:0,0:0:0:0:
372,264,86135,2,0,L|432:280,2,45,0|4|0,0:0|0:0|0:0,0:0:0:0:
280,320,87160,2,0,B|252:308|252:308|199:348|134:320,1,135
184,220,88442,1,0,0:0:0:0:
256,192,88698,12,4,91208,0:0:0:0:
