osu file format v14

[General]
AudioFilename: iwf.mp3
AudioLeadIn: 0
PreviewTime: 22342
Countdown: 0
SampleSet: Normal
StackLeniency: 0.7
Mode: 0
LetterboxInBreaks: 0
WidescreenStoryboard: 0

[Editor]
DistanceSpacing: 0.9
BeatDivisor: 4
GridSize: 8
TimelineZoom: 1.6

[Metadata]
Title:International Wrestling Festival
TitleUnicode:国際的パンツレスリング
Artist:RazQ
ArtistUnicode:RazQ
Creator:XVoIR
Version:estellia-'s Easy
Source:
Tags:estellia- mrdorian crn caren_sk gourmet race snow goose gachimuchi iwf kokusaiteki pantsu cut sdafsf
BeatmapID:865982
BeatmapSetID:397819

[Difficulty]
HPDrainRate:2
CircleSize:2.5
OverallDifficulty:3
ApproachRate:3
SliderMultiplier:1
SliderTickRate:1

[Events]
//Background and Video events
0,0,"oh god.jpg",0,0
//Break Periods
//Storyboard Layer 0 (Background)
//Storyboard Layer 1 (Fail)
//Storyboard Layer 2 (Pass)
//Storyboard Layer 3 (Foreground)
//Storyboard Sound Samples

[TimingPoints]
1356,327.868852459016,4,2,1,75,1,0
17089,-100,4,2,5,75,0,0
17417,-100,4,2,1,75,0,0
18401,-100,4,2,5,75,0,0
18729,-100,4,2,1,75,0,0
19712,-100,4,2,5,75,0,0
21351,-100,4,2,1,75,0,0
22344,327.868852459016,4,1,2,75,1,1
35456,-100,4,2,1,75,0,1
35784,-100,4,2,1,75,0,1
36112,-100,4,2,1,75,0,1
36440,-100,4,2,1,75,0,1
36768,-100,4,1,2,75,0,1
43327,-100,4,1,2,75,0,0

[Colours]
Combo1 : 255,128,64
Combo2 : 255,255,85
Combo3 : 255,147,201
Combo4 : 36,146,255

[HitObjects]
269,139,1356,6,0,L|436:127,1,150,12|0,1:0|0:0,0:0:0:0:
451,259,2339,1,0,0:0:0:0:
381,316,2667,2,0,P|314:331|227:232,1,200,8|8,1:0|1:0,0:0:0:0:
202,159,3651,1,8,0:0:0:0:
114,140,3978,6,0,P|120:220|123:302,2,150,8|0|8,1:0|0:0|0:0,0:0:0:0:
148,56,5290,2,0,B|215:52|215:52|272:74|272:74|361:66,1,200,8|0,1:0|0:0,0:0:0:0:
410,128,6274,1,2,3:0:0:0:
444,211,6601,6,0,L|431:373,1,150,12|8,0:0|0:0,0:0:0:0:
310,301,7585,1,0,0:0:0:0:
232,345,7913,2,0,P|140:345|107:287,2,150,8|0|8,1:0|0:0|0:0,0:0:0:0:
213,257,9224,6,0,P|202:202|203:157,1,100,8|8,1:0|0:0,0:0:0:0:
254,84,9880,2,0,L|365:79,1,100,8|8,1:0|0:0,0:0:0:0:
442,62,10536,2,0,L|437:178,1,100,8|2,1:0|3:0,0:0:0:0:
391,239,11192,2,0,L|386:355,1,100,8|2,0:0|3:0,0:0:0:0:
299,317,11847,6,0,L|291:163,2,150,12|8|0,1:0|0:0|0:0,0:0:0:0:
208,310,13159,2,0,B|194:234|194:234|201:184|201:184|186:93,1,200,8|8,1:0|1:0,0:0:0:0:
173,24,14142,1,8,0:0:0:0:
262,38,14470,6,0,P|307:109|374:109,1,150,8|0,1:0|0:0,0:0:0:0:
446,2,15454,1,8,0:0:0:0:
477,86,15782,2,0,B|495:178|444:178|473:289,1,200,8|8,1:0|1:0,0:0:0:0:
401,340,16765,1,8,0:0:0:0:
311,338,17093,6,0,L|157:350,1,150,12|0,2:0|0:0,0:0:0:0:
65,145,18405,2,0,P|150:134|206:187,1,150,12|0,0:0|0:0,0:0:0:0:
407,251,19716,6,0,P|462:192|320:114,1,300,12|0,0:0|0:0,0:0:0:0:
294,196,21028,6,0,B|284:266|333:323|333:323|252:279|176:343,1,300,12|8,0:0|0:0,0:0:0:0:
93,360,22344,6,0,L|82:255,1,100,6|8,0:0|0:0,3:0:0:0:
168,240,22999,2,0,L|179:135,1,100,2|8,0:1|0:0,0:0:0:0:
153,57,23655,2,0,L|259:44,2,100,2|8|2,0:0|0:0|0:0,0:0:0:0:
274,190,24966,6,0,P|333:220|385:222,1,100,2|8,0:0|0:0,0:0:0:0:
434,164,25622,2,0,P|430:97|406:51,1,100,2|8,0:0|0:0,0:0:0:0:
331,40,26278,2,0,P|275:76|247:120,2,100,2|8|2,0:0|0:0|0:0,0:0:0:0:
376,214,27589,6,0,L|384:325,1,100,6|8,0:0|0:0,0:0:0:0:
305,359,28245,2,0,P|243:357|199:334,1,100,2|8,0:0|0:0,0:0:0:0:
137,287,28901,2,0,P|89:323|64:360,2,100,2|8|2,0:0|0:0|0:0,0:0:0:0:
210,235,29884,1,8,0:0:0:0:
299,245,30212,6,0,L|404:254,1,100,6|8,0:0|0:0,0:0:0:0:
430,169,30868,2,0,L|325:160,1,100,6|8,0:0|0:0,0:0:0:0:
241,146,31524,2,0,P|228:89|231:30,2,100,12|8|8,0:0|0:0|0:0,0:0:0:0:
410,208,32835,6,0,P|409:257|397:306,1,100,6|2,0:0|0:0,0:0:0:0:
316,347,33491,2,0,L|197:339,1,100,2|2,0:0|0:0,0:0:0:0:
129,316,34147,2,0,P|84:341|23:338,2,100,2|2|2,0:0|0:0|0:0,0:0:0:0:
259,192,35458,6,0,B|277:242|277:242|322:204,1,100,10|10,0:0|0:0,0:0:0:0:
372,143,36114,2,0,B|407:173|407:173|425:123,1,100,10|10,0:0|0:0,0:0:0:0:
377,46,36770,2,0,L|270:35,2,100,6|8|2,0:0|0:0|0:0,0:0:0:0:
211,116,38081,6,0,P|152:94|110:88,1,100,6|8,0:0|0:0,0:0:0:0:
53,154,38737,2,0,P|63:216|79:255,1,100,2|8,0:0|0:0,0:0:0:0:
160,284,39393,2,0,L|266:278,1,100,2|8,0:0|0:0,0:0:0:0:
341,317,40048,1,2,0:0:0:0:
426,286,40376,1,8,0:0:0:0:
456,201,40704,6,0,L|463:86,1,100,6|8,0:0|0:0,0:0:0:0:
380,63,41360,2,0,L|373:162,1,100,6|8,0:0|0:0,0:0:0:0:
294,206,42016,5,2,0:0:0:0:
256,192,42098,12,4,43327,0:0:0:0:
