osu file format v14

[General]
AudioFilename: iwf.mp3
AudioLeadIn: 0
PreviewTime: 22342
Countdown: 0
SampleSet: Normal
StackLeniency: 0.7
Mode: 0
LetterboxInBreaks: 0
WidescreenStoryboard: 0

[Editor]
Bookmarks: 7913,31524
DistanceSpacing: 0.6
BeatDivisor: 4
GridSize: 8
TimelineZoom: 1.6

[Metadata]
Title:International Wrestling Festival
TitleUnicode:国際的パンツレスリング
Artist:RazQ
ArtistUnicode:RazQ
Creator:XVoIR
Version:MrDorian's Normal
Source:
Tags:estellia- mrdorian crn caren_sk gourmet race snow goose gachimuchi iwf kokusaiteki pantsu cut sdafsf
BeatmapID:866614
BeatmapSetID:397819

[Difficulty]
HPDrainRate:4
CircleSize:3.3
OverallDifficulty:4
ApproachRate:5.3
SliderMultiplier:1
SliderTickRate:1

[Events]
//Background and Video events
0,0,"oh god.jpg",0,0
//Break Periods
//Storyboard Layer 0 (Background)
//Storyboard Layer 1 (Fail)
//Storyboard Layer 2 (Pass)
//Storyboard Layer 3 (Foreground)
//Storyboard Sound Samples

[TimingPoints]
1356,327.868852459016,4,2,1,75,1,0
17093,-100,4,2,5,75,0,0
17421,-100,4,2,1,75,0,0
18405,-100,4,2,5,75,0,0
18733,-100,4,2,1,75,0,0
19716,-200,4,2,5,75,0,0
22344,327.868852459016,4,1,2,75,1,1
35458,-100,4,2,1,75,0,1
35786,-100,4,2,1,75,0,1
36114,-100,4,2,1,75,0,1
36442,-100,4,2,1,75,0,1
36770,-100,4,1,2,75,0,1
43327,-100,4,1,2,75,0,0

[Colours]
Combo1 : 255,128,64
Combo2 : 255,255,85
Combo3 : 255,147,201
Combo4 : 36,146,255

[HitObjects]
29,87,1356,6,0,P|74:99|129:88,1,100,12|8,1:0|0:0,0:0:0:0:
173,53,1847,2,0,L|160:174,1,100
140,208,2339,2,0,P|179:234|199:239,1,50,8|0,0:0|0:0,0:0:0:0:
223,277,2667,6,0,B|271:257|313:290|313:290|337:233,1,150,8|0,1:0|0:0,0:0:0:0:
362,186,3323,1,8,1:0:0:0:
419,80,3651,2,0,L|369:69,1,50,8|0,0:0|0:0,0:0:0:0:
310,65,3978,6,0,P|281:91|170:106,2,150,8|0|8,1:0|0:0|0:0,0:0:0:0:
412,128,5290,6,0,L|383:184,1,50,8|2,1:0|3:0,0:0:0:0:
356,223,5618,2,0,B|313:231|277:222|277:222|271:243,1,100,2|0,3:0|0:0,0:0:0:0:
228,353,6274,2,0,L|183:330,1,50,2|2,3:0|3:0,0:0:0:0:
143,285,6601,6,0,P|94:300|-2:282,2,150,12|0|8,1:0|0:0|0:0,0:0:0:0:
243,218,7913,6,0,P|315:201|387:220,2,150,8|0|8,1:0|0:0|0:0,0:0:0:0:
200,259,9060,1,0,0:0:0:0:
153,297,9224,6,0,L|147:197,1,100,8|8,1:0|0:0,0:0:0:0:
202,90,9880,1,8,1:0:0:0:
315,130,10208,2,0,L|271:174,1,50,8|0,0:0|0:0,0:0:0:0:
247,216,10536,6,0,P|266:272|302:304,1,100,8|2,1:0|3:0,0:0:0:0:
350,323,11028,1,2,3:0:0:0:
406,344,11192,2,0,L|419:239,1,100,8|2,0:0|3:0,0:0:0:0:
414,184,11683,1,2,3:0:0:0:
373,139,11847,6,0,B|357:54|420:-14,2,150,12|0|8,1:0|0:0|0:0,0:0:0:0:
308,240,13159,6,0,P|260:255|210:252,1,100,8|8,1:0|0:0,0:0:0:0:
153,229,13651,2,0,P|128:225|103:229,1,50,0|8,0:0|1:0,0:0:0:0:
16,311,14142,2,0,L|36:372,1,50,8|0,0:0|0:0,0:0:0:0:
89,374,14470,6,0,P|114:331|128:283,1,100,8|8,1:0|0:0,0:0:0:0:
103,228,14962,2,0,P|116:180|142:136,1,100,8|8,1:0|0:0,0:0:0:0:
180,90,15454,1,8,0:0:0:0:
224,49,15618,1,0,0:0:0:0:
283,38,15782,6,0,B|290:90|290:90|253:129|272:180,1,150,8|0,1:0|0:0,0:0:0:0:
330,193,16437,2,0,L|379:201,1,50,8|0,1:0|0:0,0:0:0:0:
426,238,16765,2,0,P|430:272|418:301,1,50,8|0,0:0|0:0,0:0:0:0:
379,325,17093,6,0,L|274:328,1,100,12|8,0:0|0:0,0:0:0:0:
240,281,17585,2,0,B|219:229|169:211|169:211|129:260,1,150,0|8,0:0|0:0,0:0:0:0:
51,330,18405,6,0,L|19:218,1,100,12|8,0:0|0:0,0:0:0:0:
23,173,18896,2,0,B|44:121|94:103|94:103|129:136,1,150,0|8,0:0|0:0,0:0:0:0:
256,192,19716,12,12,21028,0:0:0:0:
102,98,22344,6,0,P|128:108|157:129,1,50,6|0,0:0|0:0,3:0:0:0:
183,167,22671,2,0,L|239:154,1,50,8|0,0:0|0:0,0:0:0:0:
283,124,22999,2,0,P|340:169|353:194,1,100,2|8,0:1|0:0,0:0:0:0:
373,248,23491,1,0,0:0:0:0:
386,306,23655,6,0,L|287:344,1,100,2|8,0:0|0:0,0:0:0:0:
172,345,24311,2,0,L|78:309,1,100,2|8,0:0|0:0,0:0:0:0:
64,190,24966,6,0,L|81:143,1,50,2|0,0:0|0:0,0:0:0:0:
117,95,25294,2,0,P|143:69|172:61,1,50,8|0,0:0|0:0,0:0:0:0:
212,47,25622,2,0,P|256:63|291:109,1,100,2|8,0:0|0:0,0:0:0:0:
331,146,26114,1,0,0:0:0:0:
369,192,26278,6,0,P|379:224|369:293,1,100,2|8,0:0|0:0,0:0:0:0:
276,363,26934,2,0,P|227:351|188:320,1,100,2|8,0:0|0:0,0:1:0:0:
108,231,27589,6,0,L|170:214,1,50,6|0,0:0|0:0,0:0:0:0:
178,161,27917,2,0,P|210:156|240:144,1,50,8|0,0:0|0:0,0:0:0:0:
261,101,28245,2,0,P|315:101|377:121,1,100,2|8,0:0|0:0,0:0:0:0:
407,149,28737,1,0,0:0:0:0:
439,199,28901,6,0,P|463:239|472:302,1,100,2|8,0:0|0:0,0:0:0:0:
387,375,29557,2,0,L|288:364,1,100,2|8,0:0|0:0,0:0:0:0:
230,345,30048,1,0,0:0:0:0:
172,327,30212,6,0,L|147:229,1,100,6|8,0:0|0:0,3:0:0:0:
64,142,30868,2,0,P|109:114|156:108,1,100,6|8,0:0|0:0,3:0:0:0:
267,150,31524,6,0,P|310:174|359:184,1,100,2|8,0:0|0:0,3:0:0:0:
417,168,32016,1,0,0:0:0:0:
473,149,32180,2,0,L|442:245,1,100,2|8,0:0|0:0,0:0:0:0:
409,294,32671,1,0,0:0:0:0:
359,327,32835,6,0,L|341:279,1,50,6|0,0:0|0:0,0:0:0:0:
293,243,33163,2,0,L|275:195,1,50,2|0,0:0|0:0,0:0:0:0:
243,144,33491,2,0,P|204:153|147:207,1,100,2|2,0:0|0:0,0:0:0:0:
115,232,33983,1,0,0:0:0:0:
86,284,34147,6,0,L|148:298,1,50,2|0,0:0|0:0,0:0:0:0:
180,334,34475,2,0,L|242:348,1,50,2|0,0:0|0:0,0:0:0:0:
287,360,34803,2,0,L|309:250,1,100,2|2,0:0|0:0,0:0:0:0:
322,203,35294,1,0,0:0:0:0:
343,147,35458,6,0,L|250:97,1,100,10|10,0:0|0:0,0:0:0:0:
139,64,36114,2,0,L|231:26,1,100,10|10,0:0|0:0,0:0:0:0:
342,71,36770,6,0,L|395:46,1,50,6|0,0:0|0:0,0:0:0:0:
443,26,37098,2,0,P|472:65|480:121,1,100,8|2,0:0|0:0,0:0:0:0:
452,167,37589,1,0,0:0:0:0:
400,197,37753,2,0,L|350:176,1,50,8|0,0:0|0:0,0:0:0:0:
300,149,38081,6,0,P|270:173|242:189,1,50,6|0,0:0|0:0,0:0:0:0:
208,209,38409,2,0,P|238:233|266:249,1,50,8|0,0:0|0:0,0:0:0:0:
300,268,38737,2,0,L|251:366,1,100,2|8,0:0|0:0,0:0:0:0:
196,369,39229,1,0,0:0:0:0:
136,358,39393,6,0,P|88:345|46:319,1,100,2|8,0:0|0:0,0:0:0:0:
35,199,40048,2,0,P|83:211|125:237,1,100,2|8,0:0|0:0,0:0:0:0:
170,277,40540,1,0,0:0:0:0:
224,302,40704,6,0,P|236:253|231:204,1,100,6|8,0:0|0:0,0:0:0:0:
170,99,41360,2,0,P|215:93|283:115,1,100,6|8,0:0|0:0,0:0:0:0:
256,192,42016,12,2,43327,0:0:0:0:
