osu file format v14

[General]
AudioFilename: iwf.mp3
AudioLeadIn: 0
PreviewTime: 22342
Countdown: 0
SampleSet: Soft
StackLeniency: 0.7
Mode: 0
LetterboxInBreaks: 0
WidescreenStoryboard: 0

[Editor]
DistanceSpacing: 0.6
BeatDivisor: 4
GridSize: 8
TimelineZoom: 1.6

[Metadata]
Title:International Wrestling Festival
TitleUnicode:国際的パンツレスリング
Artist:RazQ
ArtistUnicode:RazQ
Creator:XVoIR
Version:Hard
Source:
Tags:estellia- mrdorian crn caren_sk gourmet race snow goose gachimuchi iwf kokusaiteki pantsu cut sdafsf
BeatmapID:1025990
BeatmapSetID:397819

[Difficulty]
HPDrainRate:5
CircleSize:3.3
OverallDifficulty:6
ApproachRate:7.5
SliderMultiplier:1.2
SliderTickRate:1

[Events]
//Background and Video events
0,0,"oh god.jpg",0,0
//Break Periods
//Storyboard Layer 0 (Background)
//Storyboard Layer 1 (Fail)
//Storyboard Layer 2 (Pass)
//Storyboard Layer 3 (Foreground)
//Storyboard Sound Samples

[TimingPoints]
1356,327.868852459016,4,2,1,75,1,0
17093,-100,4,2,5,75,0,0
17421,-100,4,2,1,75,0,0
18405,-100,4,2,5,75,0,0
18733,-100,4,2,1,75,0,0
19716,-133.333333333333,4,2,5,75,0,0
21028,-100,4,2,5,75,0,0
21355,-100,4,2,1,75,0,0
22344,327.868852459016,4,1,2,75,1,1
22344,-83.3333333333333,4,1,2,75,0,1
35458,-100,4,2,1,75,0,1
35704,-100,4,2,1,5,0,1
35786,-100,4,2,1,75,0,1
36032,-100,4,2,1,5,0,1
36114,-100,4,2,1,75,0,1
36360,-100,4,2,1,5,0,1
36442,-100,4,2,1,75,0,1
36688,-100,4,2,1,5,0,1
36770,-100,4,1,2,75,0,1
43327,-100,4,1,2,75,0,0

[Colours]
Combo1 : 255,128,64
Combo2 : 255,255,85
Combo3 : 255,147,201
Combo4 : 36,146,255

[HitObjects]
426,270,1356,6,0,P|374:255|299:277,1,120,12|8,1:0|0:0,0:0:0:0:
217,322,1847,2,0,B|154:332|154:332|93:322,1,120,0|0,0:0|0:0,0:0:0:0:
67,218,2339,2,0,P|59:178|70:152,1,60,8|0,0:0|0:0,0:0:0:0:
180,45,2667,6,0,P|188:85|177:111,1,60,8|0,1:0|0:0,0:0:0:0:
152,206,2995,2,0,P|208:208|234:197,1,60,8|0,0:0|0:0,0:0:0:0:
314,174,3323,1,8,1:0:0:0:
314,174,3651,2,0,L|320:104,1,60,8|0,0:0|0:0,0:0:0:0:
472,136,3978,6,0,L|462:281,1,120,8|8,1:0|0:0,0:0:0:0:
412,350,4470,1,0,0:0:0:0:
313,306,4634,2,0,P|250:297|192:305,1,120,8|8,1:0|0:0,0:0:0:0:
83,92,5290,6,0,B|74:127|81:160,1,60,8|2,1:0|3:0,0:0:0:0:
186,131,5618,1,2,3:0:0:0:
394,74,5946,2,0,P|409:150|381:211,1,120,0|2,0:0|3:0,0:0:0:0:
302,135,6437,1,2,3:0:0:0:
298,242,6601,6,0,P|346:288|467:271,2,180,12|0|8,1:0|0:0|0:0,0:0:0:0:
214,142,7913,2,0,P|168:100|46:103,2,180,8|0|8,1:0|0:0|0:0,0:0:0:0:
151,349,9224,6,0,P|111:279|122:222,1,120,8|8,1:0|0:0,0:0:0:0:
219,268,9716,1,0,0:0:0:0:
302,336,9880,2,0,P|343:343|370:337,1,60,8|0,1:0|0:0,0:0:0:0:
406,241,10208,2,0,L|415:167,1,60,8|0,0:0|0:0,0:0:0:0:
422,127,10454,1,0,0:0:0:0:
422,127,10536,6,0,P|349:140|285:120,1,120,8|2,1:0|3:0,0:0:0:0:
212,72,11028,1,2,3:0:0:0:
316,44,11192,2,0,P|364:51|438:15,1,120,0|2,0:0|3:0,0:0:0:0:
93,75,11847,6,0,L|81:211,1,120,12|8,1:0|0:0,0:0:0:0:
115,298,12339,1,0,0:0:0:0:
191,221,12503,2,0,P|241:218|274:222,1,60,8|0,1:0|0:0,0:0:0:0:
312,313,12831,2,0,P|262:316|229:312,1,60,8|0,0:0|0:0,0:0:0:0:
339,208,13159,5,8,1:0:0:0:
339,208,13323,1,0,0:0:0:0:
431,263,13487,2,0,P|439:313|435:337,1,60,8|0,0:0|0:0,0:0:0:0:
420,173,13815,2,0,P|412:123|416:99,1,60,8|0,1:0|0:0,0:0:0:0:
312,39,14142,2,0,P|312:68|305:98,1,60,8|0,0:0|0:0,0:0:0:0:
204,51,14470,6,0,P|148:58|81:40,1,120,8|8,1:0|0:0,0:0:0:0:
78,151,14962,2,0,B|70:216|70:216|92:272,1,120,0|0,0:0|0:0,0:0:0:0:
182,209,15454,2,0,L|203:268,1,60,8|0,0:0|0:0,0:0:0:0:
253,361,15782,6,0,P|309:370|374:353,1,120,8|8,1:0|0:0,0:0:0:0:
466,305,16274,1,0,0:0:0:0:
372,252,16437,1,8,1:0:0:0:
376,120,16765,6,0,P|371:78|375:55,2,40,8|0|0,0:0|0:0|0:0,0:0:0:0:
376,120,17093,6,0,L|232:115,1,120,12|8,2:0|0:0,0:0:0:0:
186,36,17585,2,0,P|152:127|196:201,1,180,0|8,0:0|0:0,0:0:0:0:
332,325,18405,6,0,L|319:195,1,120,12|8,0:0|0:0,0:0:0:0:
215,234,18896,2,0,B|170:282|99:250|99:250|47:267,1,180,0|8,0:0|0:0,0:0:0:0:
136,88,19716,6,0,B|144:96|176:120|208:136|208:136|232:112|240:104|256:80|256:80|272:104|280:112|304:136|304:136|334:121|368:96|376:88,1,315.000012016297
449,145,21028,6,0,P|455:208|439:270,1,120,4|8,0:0|0:0,0:0:0:0:
346,313,21519,1,8,0:0:0:0:
244,275,21683,1,0,0:0:0:0:
142,311,21847,1,8,0:0:0:0:
40,273,22011,2,0,L|43:204,1,60,8|0,0:0|0:0,0:0:0:0:
134,68,22344,6,0,L|127:218,1,143.999995605469,6|8,0:0|0:0,3:0:0:0:
223,163,22835,1,0,0:0:0:0:
325,131,22999,2,0,P|272:68|185:64,1,143.999995605469,2|8,0:1|0:0,0:0:0:0:
223,163,23491,1,0,0:0:0:0:
311,247,23655,6,0,P|356:255|390:245,1,71.9999978027344,2|0,0:0|0:0,0:0:0:0:
479,112,23983,2,0,P|434:104|400:114,1,71.9999978027344,8|0,0:0|0:0,0:0:0:0:
487,255,24311,2,0,L|495:347,1,71.9999978027344,2|0,0:0|0:0,0:0:0:0:
445,358,24557,1,0,0:0:0:0:
445,358,24639,2,0,P|386:369|358:364,1,71.9999978027344,8|0,0:0|0:0,0:0:0:0:
255,315,24966,6,0,P|185:300|108:318,1,143.999995605469,2|8,0:0|0:0,0:0:0:0:
15,357,25458,1,0,0:0:0:0:
84,274,25622,2,0,L|97:184,1,71.9999978027344,2|0,0:0|0:0,0:0:0:0:
242,123,25950,2,0,L|229:213,1,71.9999978027344,8|0,0:0|0:0,0:0:0:0:
144,128,26278,6,0,L|155:51,1,71.9999978027344,2|0,0:0|0:0,0:0:0:0:
344,48,26606,2,0,L|333:125,1,71.9999978027344,8|0,0:0|0:0,0:0:0:0:
304,241,26934,1,2,0:0:0:0:
304,241,27016,1,0,0:0:0:0:
304,241,27098,2,0,P|311:268|297:300,2,35.9999989013672,0|0|8,0:0|0:0|0:0,0:0:0:0:
333,119,27425,1,0,0:0:0:0:
406,204,27589,6,0,P|419:300|397:355,1,143.999995605469,6|8,0:0|0:0,0:0:0:0:
295,358,28081,1,0,0:0:0:0:
192,324,28245,2,0,P|128:317|103:323,1,71.9999978027344,2|0,0:0|0:0,0:0:0:0:
78,218,28573,2,0,P|142:225|167:219,1,71.9999978027344,8|0,0:0|0:0,0:0:0:0:
253,195,28901,6,0,L|290:128,1,71.9999978027344,2|0,0:0|0:0,0:0:0:0:
202,58,29229,2,0,L|165:125,1,71.9999978027344,8|0,0:0|0:0,0:0:0:0:
253,195,29557,2,0,B|328:204|328:204|399:179,1,143.999995605469,2|8,0:0|0:0,0:0:0:0:
468,103,30048,1,0,0:0:0:0:
478,210,30212,6,0,L|463:361,1,143.999995605469,6|8,0:0|0:0,3:0:0:0:
238,338,30868,2,0,L|253:187,1,143.999995605469,6|8,0:0|0:0,3:0:0:0:
94,45,31524,6,0,P|87:80|95:115,1,71.9999978027344,6|0,0:0|0:0,3:0:0:0:
193,162,31852,2,0,P|199:126|191:91,1,71.9999978027344,8|0,0:0|0:0,0:0:0:0:
102,213,32180,1,2,0:0:0:0:
102,213,32262,1,0,0:0:0:0:
102,213,32343,2,0,L|92:311,2,71.9999978027344,0|8|0,0:0|0:0|0:0,0:0:0:0:
193,162,32835,6,0,P|239:161|269:168,1,71.9999978027344,6|0,0:0|0:0,0:0:0:0:
376,216,33163,1,2,0:0:0:0:
290,282,33327,1,0,0:0:0:0:
391,318,33491,2,0,B|437:319|437:319|466:311,1,71.9999978027344,2|0,0:0|0:0,0:0:0:0:
479,124,33819,2,0,B|433:123|433:123|404:131,1,71.9999978027344,2|0,0:0|0:0,0:0:0:0:
301,107,34147,6,0,L|285:31,1,71.9999978027344,2|0,0:0|0:0,0:0:0:0:
192,114,34475,2,0,L|208:190,1,71.9999978027344,2|0,0:0|0:0,0:0:0:0:
283,261,34803,1,2,0:0:0:0:
286,370,34966,2,0,P|321:365|350:344,2,71.9999978027344,0|2|0,0:0|0:0|0:0,0:0:0:0:
191,316,35458,6,0,P|129:303|55:321,1,120,10|10,0:0|0:0,0:0:0:0:
192,114,36114,2,0,P|254:127|328:109,1,120,10|10,0:0|0:0,0:0:0:0:
51,74,36770,6,0,L|45:158,1,60,6|0,0:0|0:0,0:0:0:0:
105,218,37098,2,0,P|137:224|170:220,1,60,8|0,0:0|0:0,0:0:0:0:
263,199,37425,1,2,0:0:0:0:
263,199,37507,1,0,0:0:0:0:
263,199,37589,2,0,L|268:272,2,60,0|8|0,0:0|0:0|0:0,0:0:0:0:
347,140,38081,6,0,P|405:120|476:147,1,120,6|8,0:0|0:0,0:0:0:0:
406,227,38573,1,0,0:0:0:0:
433,325,38737,2,0,L|370:354,1,60,2|0,0:0|0:0,0:0:0:0:
212,283,39065,2,0,L|275:254,1,60,8|0,0:0|0:0,0:0:0:0:
228,372,39393,6,0,P|165:361|126:309,1,120,2|8,0:0|0:0,0:0:0:0:
84,229,39884,1,0,0:0:0:0:
84,229,40048,2,0,L|100:102,1,120,2|8,0:0|0:0,0:0:0:0:
198,82,40540,1,0,0:0:0:0:
277,145,40704,6,0,P|354:158|412:141,1,120,6|8,0:0|0:0,0:0:0:0:
246,324,41360,2,0,P|169:311|111:328,1,120,6|8,0:0|0:0,0:0:0:0:
340,344,42016,6,0,P|377:351|408:344,1,60,2|2,0:0|0:0,0:0:0:0:
479,231,42343,2,0,P|442:224|411:231,1,60,2|2,0:0|0:0,0:0:0:0:
318,247,42671,2,0,L|280:258,3,30,2|2|2|2,0:0|0:0|0:0|0:0,0:0:0:0:
240,238,42999,2,0,L|211:246,3,30,2|2|2|2,0:0|0:0|0:0|0:0,0:0:0:0:
162,230,43327,5,4,0:0:0:0:
