osu file format v14

[General]
AudioFilename: iwf.mp3
AudioLeadIn: 0
PreviewTime: 22342
Countdown: 0
SampleSet: Normal
StackLeniency: 0.7
Mode: 0
LetterboxInBreaks: 0
WidescreenStoryboard: 0

[Editor]
DistanceSpacing: 0.5
BeatDivisor: 4
GridSize: 8
TimelineZoom: 2.1

[Metadata]
Title:International Wrestling Festival
TitleUnicode:国際的パンツレスリング
Artist:RazQ
ArtistUnicode:RazQ
Creator:XVoIR
Version:Extra
Source:
Tags:estellia- mrdorian crn caren_sk gourmet race snow goose gachimuchi iwf kokusaiteki pantsu cut sdafsf
BeatmapID:1009377
BeatmapSetID:397819

[Difficulty]
HPDrainRate:5.5
CircleSize:4.2
OverallDifficulty:8.2
ApproachRate:9.2
SliderMultiplier:2
SliderTickRate:1

[Events]
//Background and Video events
0,0,"oh god.jpg",0,0
//Break Periods
//Storyboard Layer 0 (Background)
//Storyboard Layer 1 (Fail)
//Storyboard Layer 2 (Pass)
//Storyboard Layer 3 (Foreground)
//Storyboard Sound Samples

[TimingPoints]
1356,327.868852459016,4,2,1,75,1,0
17093,-100,4,2,5,75,0,0
17421,-100,4,2,1,75,0,0
18405,-100,4,2,5,75,0,0
18733,-100,4,2,1,75,0,0
19716,-200,4,2,5,75,0,0
21028,-133.333333333333,4,2,5,75,0,0
21355,-100,4,2,1,75,0,0
22344,327.868852459016,4,1,2,75,1,1
22344,-80,4,1,2,75,0,1
35458,-100,4,2,1,75,0,1
35704,-100,4,2,1,5,0,1
35786,-100,4,2,1,75,0,1
36032,-100,4,2,1,5,0,1
36114,-66.6666666666667,4,2,1,75,0,1
36360,-100,4,2,1,5,0,1
36442,-100,4,2,1,75,0,1
36688,-100,4,2,1,5,0,1
36770,-100,4,1,2,75,0,1
43327,-100,4,1,2,75,0,0

[Colours]
Combo1 : 255,128,64
Combo2 : 255,255,85
Combo3 : 255,147,201
Combo4 : 36,146,255

[HitObjects]
116,300,1356,6,0,B|113:241|113:241|131:165|131:165|118:79,1,200,12|8,1:0|0:0,0:0:0:0:
32,160,1847,1,0,0:0:0:0:
211,250,2011,2,0,P|264:259|315:253,1,100,8|0,1:0|0:0,0:0:0:0:
423,109,2339,2,0,P|370:100|319:106,1,100,8|0,0:0|0:0,0:0:0:0:
391,308,2667,6,0,P|431:326|389:266,1,200,8|8,1:0|0:0,0:0:0:0:
268,353,3159,1,0,0:0:0:0:
193,231,3323,2,0,B|191:177|191:177|201:125,1,100,8|0,1:0|0:0,0:0:0:0:
349,20,3651,1,8,0:0:0:0:
366,202,3815,1,0,0:0:0:0:
193,107,3978,6,0,P|108:98|41:196,1,200,8|8,1:0|0:0,0:0:0:0:
158,345,4470,1,0,0:0:0:0:
140,192,4634,2,0,P|225:201|292:103,1,200,8|8,1:0|0:0,0:0:0:0:
109,257,5126,1,0,0:0:0:0:
239,332,5290,6,0,B|291:341|291:341|341:333,1,100,8|2,1:0|3:0,0:0:0:0:
433,228,5618,1,2,3:0:0:0:
291,149,5782,1,2,3:0:0:0:
288,173,5864,1,2,3:0:0:0:
446,106,6028,1,2,3:0:0:0:
439,81,6110,1,2,3:0:0:0:
265,30,6274,2,0,P|204:26|163:38,1,100,2|2,3:0|3:0,0:0:0:0:
146,241,6601,6,0,P|175:174|144:49,1,200,12|8,1:0|0:0,0:0:0:0:
31,146,7093,1,0,0:0:0:0:
159,265,7257,2,0,B|212:255|212:255|258:266,1,100,8|0,1:0|0:0,0:0:0:0:
149,361,7585,2,0,B|96:371|96:371|50:360,1,100,8|0,0:0|0:0,0:0:0:0:
267,235,7913,6,0,B|321:253|396:216|396:216|466:258,1,200,8|8,1:0|0:0,0:0:0:0:
383,344,8405,1,0,0:0:0:0:
312,139,8569,1,8,1:0:0:0:
332,287,8733,1,0,0:0:0:0:
360,71,8896,2,0,P|312:55|262:72,1,100,8|0,0:0|0:0,0:0:0:0:
139,272,9224,6,0,B|111:174|111:174|142:66,1,200,8|8,1:0|0:0,0:0:0:0:
304,31,9716,1,0,0:0:0:0:
251,197,9880,2,0,P|309:209|355:202,1,100,8|0,1:0|0:0,0:0:0:0:
236,87,10208,1,8,0:0:0:0:
308,310,10372,1,0,0:0:0:0:
308,310,10454,1,0,0:0:0:0:
308,310,10536,6,0,B|361:296|413:318,1,100,8|2,1:0|3:0,0:0:0:0:
200,353,10864,1,2,3:0:0:0:
258,157,11028,1,2,3:0:0:0:
270,184,11110,1,2,3:0:0:0:
429,253,11274,1,2,3:0:0:0:
415,226,11355,1,2,3:0:0:0:
198,227,11519,2,0,L|94:229,1,100,2|2,3:0|3:0,0:0:0:0:
29,102,11847,6,0,P|81:121|186:37,1,200,12|8,1:0|0:0,0:0:0:0:
91,29,12339,1,0,0:0:0:0:
251,119,12503,2,0,P|302:103|353:113,1,100,8|0,1:0|0:0,0:0:0:0:
252,327,12831,1,8,0:0:0:0:
191,212,12995,1,0,0:0:0:0:
348,248,13159,6,0,L|465:265,1,100,8|0,1:0|0:0,0:0:0:0:
252,327,13487,2,0,L|135:310,1,100,8|0,0:0|0:0,0:0:0:0:
70,232,13815,1,8,1:0:0:0:
161,172,13978,1,0,0:0:0:0:
62,122,14142,2,0,B|52:72|52:72|66:24,1,100,8|0,0:0|0:0,0:0:0:0:
346,125,14470,6,0,P|385:70|291:70,1,200,8|8,1:0|0:0,0:0:0:0:
229,267,14962,1,0,0:0:0:0:
372,194,15126,1,8,1:0:0:0:
162,221,15290,1,0,0:0:0:0:
322,318,15454,2,0,B|372:328|372:328|428:313,1,100,8|0,0:0|0:0,0:0:0:0:
150,228,15782,6,0,P|127:278|239:331,1,200,8|8,1:0|0:0,0:0:0:0:
316,185,16274,1,0,0:0:0:0:
199,277,16437,2,0,L|88:292,1,100,8|0,1:0|0:0,0:0:0:0:
70,127,16765,2,0,L|50:54,2,66.6666666666667,8|0|0,0:0|0:0|0:0,0:0:0:0:
199,139,17093,6,0,B|254:158|335:114|335:114|393:151,1,200,12|8,2:0|0:0,0:0:0:0:
488,274,17585,1,0,0:0:0:0:
338,306,17749,1,8,1:0:0:0:
377,165,17913,1,0,0:0:0:0:
398,360,18077,2,8,P|349:385|285:366,1,100,8|0,0:0|0:0,0:0:0:0:
63,185,18405,6,0,P|115:145|228:211,1,200,12|8,0:0|0:0,0:0:0:0:
123,319,18896,1,0,0:0:0:0:
53,172,19060,2,0,P|58:117|83:70,1,100,8|0,1:0|0:0,0:0:0:0:
318,171,19388,2,0,P|267:194|214:196,1,100,8|0,0:0|0:0,0:0:0:0:
414,59,19716,6,0,B|464:104|468:164|464:232|417:288|417:288|371:313|302:283,1,350,12|0,0:0|0:0,0:0:0:0:
224,144,21028,6,0,P|177:130|86:196,1,150.000005722046,12|0,0:0|0:0,0:0:0:0:
70,323,21519,1,8,0:0:0:0:
177,224,21683,1,0,0:0:0:0:
10,249,21847,1,8,0:0:0:0:
256,216,22011,2,0,P|294:179|293:117,1,100,8|0,0:0|0:0,0:0:0:0:
258,343,22344,6,0,B|320:310|385:337|385:337|453:222,1,250,6|8,0:0|0:0,3:0:0:0:
356,70,22835,1,0,0:0:0:0:
256,222,22999,2,0,P|242:280|269:361,1,125,2|0,0:1|0:0,0:0:0:0:
361,216,23327,1,8,0:0:0:0:
189,102,23491,1,0,0:0:0:0:
152,95,23573,1,0,0:0:0:0:
114,100,23655,6,0,P|68:156|97:247,1,125,2|0,0:0|0:0,0:0:0:0:
263,289,23983,2,0,P|309:233|280:142,1,125,8|0,0:0|0:0,0:0:0:0:
154,181,24311,1,2,0:0:0:0:
383,340,24475,1,0,0:0:0:0:
383,340,24557,1,0,0:0:0:0:
383,340,24639,2,0,P|446:353|501:325,1,125,8|0,0:0|0:0,0:0:0:0:
248,292,24966,6,0,P|241:220|257:162,1,125,2|0,0:0|0:0,0:0:0:0:
389,27,25294,1,8,0:0:0:0:
426,206,25458,1,0,0:0:0:0:
254,156,25622,2,0,P|189:159|122:125,1,125,2|0,0:0|0:0,0:0:0:0:
221,10,25950,1,8,0:0:0:0:
141,229,26114,1,0,0:0:0:0:
141,229,26196,1,0,0:0:0:0:
141,229,26278,6,0,P|75:216|12:263,1,125,2|0,0:0|0:0,0:0:0:0:
160,371,26606,2,0,P|226:384|289:337,1,125,8|0,0:0|0:0,0:0:0:0:
380,259,26934,1,2,0:0:0:0:
395,232,27015,1,0,0:0:0:0:
402,201,27097,1,0,0:0:0:0:
400,170,27179,1,0,0:0:0:0:
390,141,27261,1,8,0:0:0:0:
254,43,27425,1,0,0:0:0:0:
247,79,27507,1,0,0:0:0:0:
251,116,27589,6,0,L|274:250,1,125,6|0,0:0|0:0,0:0:0:0:
459,340,27917,2,0,L|436:206,1,125,8|0,0:0|0:0,0:0:0:0:
200,274,28245,1,2,0:0:0:0:
371,355,28409,1,0,0:0:0:0:
211,349,28573,2,0,P|152:352|72:320,1,125,8|0,0:0|0:0,0:0:0:0:
169,51,28901,5,2,0:0:0:0:
229,274,29065,1,0,0:0:0:0:
41,154,29229,1,8,0:0:0:0:
293,236,29393,1,0,0:0:0:0:
150,37,29557,2,0,L|120:177,1,125,2|0,0:0|0:0,0:0:0:0:
117,196,29803,1,0,0:0:0:0:
109,232,29884,1,8,0:0:0:0:
236,125,30048,1,0,0:0:0:0:
248,288,30212,6,0,P|335:292|317:156,1,250,6|8,0:0|0:0,3:0:0:0:
86,261,30704,1,0,0:0:0:0:
251,372,30868,6,0,P|352:325|297:227,1,250,6|8,0:0|0:0,3:0:0:0:
157,312,31360,1,0,0:0:0:0:
157,312,31442,1,0,0:0:0:0:
157,312,31524,6,0,P|99:333|38:319,1,125,6|0,0:0|0:0,3:0:0:0:
110,172,31852,2,0,P|167:150|228:164,1,125,8|0,0:0|0:0,0:0:0:0:
303,260,32180,1,2,0:0:0:0:
330,274,32261,1,0,0:0:0:0:
361,279,32343,1,0,0:0:0:0:
391,274,32425,1,0,0:0:0:0:
419,260,32507,1,8,0:0:0:0:
307,112,32671,1,0,0:0:0:0:
277,105,32752,1,0,0:0:0:0:
240,111,32835,5,6,0:0:0:0:
217,131,32916,1,0,0:0:0:0:
198,155,32998,1,0,0:0:0:0:
171,171,33080,1,0,0:0:0:0:
141,178,33162,1,2,0:0:0:0:
110,175,33244,1,0,0:0:0:0:
82,161,33327,2,0,L|55:102,1,62.5
200,154,33491,5,2,0:0:0:0:
208,183,33572,1,0,0:0:0:0:
202,213,33654,1,0,0:0:0:0:
187,240,33736,1,0,0:0:0:0:
188,271,33819,1,2,0:0:0:0:
204,297,33900,1,0,0:0:0:0:
232,310,33983,2,0,L|292:291,1,62.5
362,195,34147,5,2,0:0:0:0:
398,199,34228,1,0,0:0:0:0:
427,222,34310,1,0,0:0:0:0:
440,257,34392,1,0,0:0:0:0:
432,293,34474,1,2,0:0:0:0:
406,320,34556,1,0,0:0:0:0:
371,329,34639,2,0,L|348:250,1,62.5,0|0,0:0|0:0,0:0:0:0:
396,119,34803,6,0,L|411:50,3,62.5,2|0|0|0,0:0|0:0|0:0|0:0,0:0:0:0:
262,72,35130,2,0,L|247:141,2,62.5,2|0|0,0:0|0:0|0:0,0:0:0:0:
88,80,35458,6,0,P|40:128|58:219,1,150,10|2,0:0|0:0,0:0:0:0:
120,160,35786,2,0,L|166:310,1,150,10|2,0:0|0:0,0:0:0:0:
287,339,36114,6,0,P|249:220|330:171,1,225.000008583069,10|2,0:0|0:0,0:0:0:0:
327,260,36442,2,0,B|387:254|404:196|404:196|466:240,1,150,10|2,0:0|0:0,0:0:0:0:
481,288,36770,6,0,P|516:238|501:177,1,100,6|0,0:0|0:0,0:0:0:0:
342,62,37098,2,0,P|307:112|322:173,1,100,8|0,0:0|0:0,0:0:0:0:
447,53,37425,1,2,0:0:0:0:
412,56,37506,1,0,0:0:0:0:
377,59,37588,1,0,0:0:0:0:
342,62,37670,1,0,0:0:0:0:
307,65,37752,1,8,0:0:0:0:
92,127,37917,1,0,0:0:0:0:
127,130,37999,1,0,0:0:0:0:
162,133,38081,5,6,0:0:0:0:
326,182,38245,1,0,0:0:0:0:
332,211,38327,1,0,0:0:0:0:
340,239,38409,2,0,L|349:344,1,100,8|0,0:0|0:0,0:0:0:0:
94,302,38737,1,2,0:0:0:0:
256,240,38901,2,0,L|264:200,4,25,0|0|0|0|8,0:0|0:0|0:0|0:0|0:0,0:0:0:0:
367,352,39229,1,0,0:0:0:0:
396,359,39311,1,0,0:0:0:0:
425,363,39393,6,0,B|456:301|433:230|433:230|456:159,1,200,2|8,0:0|0:0,0:0:0:0:
318,38,39884,1,0,0:0:0:0:
153,164,40048,2,0,B|235:129|235:129|285:173|349:156,1,200,2|8,0:0|0:0,0:0:0:0:
161,38,40540,1,0,0:0:0:0:
132,183,40704,6,0,P|128:253|147:298,1,100,6|0,0:0|0:0,0:0:0:0:
351,233,41032,1,8,0:0:0:0:
233,136,41196,1,0,0:0:0:0:
291,347,41360,6,0,B|341:358|341:358|396:347,1,100,6|0,0:0|0:0,0:0:0:0:
137,280,41688,2,0,L|37:295,1,100,8|0,0:0|0:0,0:0:0:0:
53,320,41934,1,0,0:0:0:0:
68,345,42016,5,2,0:0:0:0:
295,251,42180,1,2,0:0:0:0:
295,251,42262,1,2,0:0:0:0:
295,251,42344,1,2,0:0:0:0:
83,139,42507,1,2,0:0:0:0:
276,53,42671,5,2,0:0:0:0:
324,42,42752,1,2,0:0:0:0:
372,55,42834,1,2,0:0:0:0:
408,88,42916,1,2,0:0:0:0:
426,134,42999,2,0,L|421:203,1,50,2|2,0:0|0:0,0:0:0:0:
295,251,43163,2,0,L|300:182,1,50,2|2,0:0|0:0,0:0:0:0:
193,123,43327,5,4,0:0:0:0:
