osu file format v14

[General]
AudioFilename: iwf.mp3
AudioLeadIn: 0
PreviewTime: 22342
Countdown: 0
SampleSet: Soft
StackLeniency: 0.7
Mode: 0
LetterboxInBreaks: 0
WidescreenStoryboard: 0

[Editor]
DistanceSpacing: 0.6
BeatDivisor: 4
GridSize: 8
TimelineZoom: 1.6

[Metadata]
Title:International Wrestling Festival
TitleUnicode:国際的パンツレスリング
Artist:RazQ
ArtistUnicode:RazQ
Creator:XVoIR
Version:Challenge -Gay Bar-
Source:
Tags:estellia- mrdorian crn caren_sk gourmet race snow goose gachimuchi iwf kokusaiteki pantsu cut sdafsf
BeatmapID:1023497
BeatmapSetID:397819

[Difficulty]
HPDrainRate:5.5
CircleSize:6
OverallDifficulty:9
ApproachRate:9.6
SliderMultiplier:2
SliderTickRate:1

[Events]
//Background and Video events
0,0,"oh god.jpg",0,0
//Break Periods
//Storyboard Layer 0 (Background)
//Storyboard Layer 1 (Fail)
//Storyboard Layer 2 (Pass)
//Storyboard Layer 3 (Foreground)
//Storyboard Sound Samples

[TimingPoints]
1356,327.868852459016,4,2,1,75,1,0
14224,-100,4,2,1,5,0,0
14306,-100,4,2,1,75,0,0
14388,-100,4,2,1,5,0,0
14470,-100,4,2,1,75,0,0
16765,-133.333333333333,4,2,1,75,0,0
17093,-100,4,2,5,75,0,0
17421,-100,4,2,1,75,0,0
18405,-100,4,2,5,75,0,0
18733,-100,4,2,1,75,0,0
19716,-111.111111111111,4,2,5,75,0,0
21028,-133.333333333333,4,2,5,75,0,0
21355,-133.333333333333,4,2,1,75,0,0
21683,-100,4,2,1,75,0,0
22344,327.868852459016,4,1,2,75,1,1
22344,-80,4,1,2,75,0,1
35458,-80,4,2,1,75,0,1
35704,-100,4,2,1,5,0,1
35786,-100,4,2,1,75,0,1
36032,-100,4,2,1,5,0,1
36114,-66.6666666666667,4,2,1,75,0,1
36360,-100,4,2,1,5,0,1
36442,-100,4,2,1,75,0,1
36688,-100,4,2,1,5,0,1
36770,-100,4,1,2,75,0,1
43327,-100,4,1,2,75,0,0

[Colours]
Combo1 : 255,128,64
Combo2 : 255,255,85
Combo3 : 255,147,201
Combo4 : 36,146,255

[HitObjects]
412,160,1356,6,0,B|361:146|317:164|317:164|270:186|198:149,1,200,12|8,1:0|0:0,0:0:0:0:
83,76,1847,1,0,0:0:0:0:
281,3,2011,2,0,P|289:62|274:104,1,100,8|0,1:0|0:0,0:0:0:0:
362,335,2339,2,0,P|354:276|369:234,1,100,8|0,0:0|0:0,0:0:0:0:
181,260,2667,6,0,P|130:279|206:333,1,200,8|8,1:0|0:0,0:0:0:0:
236,99,3159,1,0,0:0:0:0:
204,335,3323,2,0,L|319:342,1,100,8|0,1:0|0:0,0:0:0:0:
426,207,3651,1,8,0:0:0:0:
247,106,3815,1,0,0:0:0:0:
437,214,3978,6,0,P|442:158|316:100,1,200,8|8,1:0|0:0,0:0:0:0:
121,151,4470,1,0,0:0:0:0:
357,178,4634,2,0,P|352:250|392:290,1,100,8|0,1:0|0:0,0:0:0:0:
470,110,4962,2,0,P|475:38|435:-2,1,100,8|0,0:0|0:0,0:0:0:0:
272,200,5290,5,8,1:0:0:0:
160,16,5454,1,2,3:0:0:0:
118,217,5618,1,2,3:0:0:0:
292,58,5782,1,2,3:0:0:0:
292,58,5864,1,2,3:0:0:0:
56,104,6028,1,2,3:0:0:0:
56,104,6110,1,2,3:0:0:0:
277,229,6274,2,0,P|331:235|380:223,1,100,2|2,3:0|3:0,0:0:0:0:
175,75,6601,6,0,L|157:299,1,200,12|8,1:0|0:0,0:0:0:0:
295,356,7093,1,0,0:0:0:0:
386,228,7257,2,0,P|395:168|391:125,1,100,8|0,1:0|0:0,0:0:0:0:
238,35,7585,2,0,P|229:95|233:138,1,100,8|0,0:0|0:0,0:0:0:0:
334,258,7913,6,0,P|275:290|137:261,1,200,8|8,1:0|0:0,0:0:0:0:
77,96,8405,1,0,0:0:0:0:
240,147,8569,1,8,1:0:0:0:
79,278,8733,1,0,0:0:0:0:
184,76,8896,2,0,B|239:41|305:77,1,100,8|0,0:0|0:0,0:0:0:0:
421,264,9224,6,0,B|445:184|415:113,1,150,8|0,1:0|0:0,0:0:0:0:
368,66,9552,2,0,P|345:114|364:162,1,100,8|0,0:0|0:0,0:0:0:0:
239,299,9880,1,8,1:0:0:0:
130,142,10044,1,0,0:0:0:0:
288,181,10208,1,8,0:0:0:0:
89,300,10372,1,0,0:0:0:0:
89,300,10454,1,0,0:0:0:0:
89,300,10536,6,0,L|80:184,1,100,8|2,1:0|3:0,0:0:0:0:
175,37,10864,1,2,3:0:0:0:
297,234,11028,1,2,3:0:0:0:
297,234,11110,1,2,3:0:0:0:
370,30,11274,1,2,3:0:0:0:
370,30,11355,1,2,3:0:0:0:
297,234,11519,2,0,L|307:338,1,100,2|2,3:0|3:0,0:0:0:0:
462,219,11847,6,0,B|482:112|482:112|435:19,1,200,12|8,1:0|0:0,0:0:0:0:
198,112,12339,1,0,0:0:0:0:
396,138,12503,2,0,L|375:241,1,100,8|0,1:0|0:0,0:0:0:0:
186,169,12831,2,0,L|207:66,1,100,8|0,0:0|0:0,0:0:0:0:
257,279,13159,5,8,1:0:0:0:
29,359,13323,1,0,0:0:0:0:
92,144,13487,1,8,0:0:0:0:
257,279,13651,1,0,0:0:0:0:
372,118,13815,2,0,L|330:26,1,100,8|0,1:0|0:0,0:0:0:0:
279,308,14142,2,0,L|337:314,1,50,8|0,0:0|0:0,0:0:0:0:
475,246,14306,2,0,L|414:240,1,50,0|0,0:0|0:0,0:0:0:0:
177,158,14470,6,0,P|144:221|244:300,1,200,8|8,1:0|0:0,0:0:0:0:
418,229,14962,1,0,0:0:0:0:
219,224,15126,2,0,L|107:249,1,100,8|0,1:0|0:0,0:0:0:0:
19,138,15454,1,8,0:0:0:0:
100,17,15618,1,0,0:0:0:0:
228,229,15782,6,0,P|343:246|402:162,1,200,8|8,1:0|0:0,0:0:0:0:
288,36,16274,1,0,0:0:0:0:
208,248,16437,2,0,P|202:302|212:351,1,100,8|0,1:0|0:0,0:0:0:0:
440,275,16765,2,0,L|496:275,2,50.0000019073487,8|0|0,0:0|0:0|0:0,0:0:0:0:
302,217,17093,6,0,P|232:151|117:206,1,200,12|8,2:0|0:0,0:0:0:0:
192,348,17585,1,0,0:0:0:0:
319,220,17749,2,0,P|346:175|352:123,1,100,8|0,1:0|0:0,0:0:0:0:
121,32,18077,2,0,P|94:77|88:129,1,100,8|0,0:0|0:0,0:0:0:0:
229,302,18405,6,0,P|169:346|92:256,1,200,12|8,0:0|0:0,0:0:0:0:
218,126,18896,1,0,0:0:0:0:
325,197,19060,2,0,P|375:208|448:197,1,100,8|0,1:0|0:3,0:0:0:0:
209,119,19388,2,0,P|159:108|86:119,1,100,8|0,0:0|0:0,0:0:0:0:
325,197,19716,6,0,B|325:198|260:165|210:205|208:269|215:315|244:354|316:358|349:343|386:309|399:259|372:234|344:203|442:113|442:113|457:139|457:139|454:92|454:92|392:97,1,629.999980773926,12|0,0:0|0:0,0:0:0:0:
242,118,21028,6,0,P|181:104|86:120,1,150.000005722046,12|0,0:0|0:0,0:0:0:0:
166,265,21519,1,8,0:0:0:0:
253,123,21683,1,0,0:0:0:0:
86,120,21847,1,8,0:0:0:0:
181,260,22011,2,0,P|232:271|289:267,1,100,8|0,0:0|0:0,0:0:0:0:
312,54,22344,6,0,P|374:51|435:65,1,125,6|0,0:0|0:0,3:0:0:0:
366,197,22671,1,8,0:0:0:0:
195,203,22835,1,0,0:0:0:0:
179,176,22917,1,0,0:0:0:0:
163,148,22999,2,0,L|185:18,1,125,2|0,0:1|0:0,0:0:0:0:
392,184,23327,2,0,L|370:314,1,125,8|0,0:0|0:0,0:0:0:0:
194,337,23655,6,0,P|121:345|63:328,1,125,2|0,0:0|0:0,0:0:0:0:
90,125,23983,1,8,0:0:0:0:
139,224,24147,1,0,0:0:0:0:
148,35,24311,1,2,0:0:0:0:
261,228,24475,1,0,0:0:0:0:
261,228,24557,1,0,0:0:0:0:
261,228,24639,2,0,B|328:240|328:240|389:224,1,125,8|0,0:0|0:0,0:0:0:0:
440,53,24966,5,2,0:0:0:0:
197,130,25130,1,0,0:0:0:0:
383,225,25294,5,8,0:0:0:0:
284,0,25458,1,0,0:0:0:0:
205,213,25622,6,0,P|134:199|72:213,1,125,2|0,0:0|0:0,0:0:0:0:
320,358,25950,2,0,P|391:372|453:358,1,125,8|0,0:0|0:0,0:0:0:0:
386,238,26278,5,2,0:0:0:0:
124,323,26442,1,0,0:0:0:0:
240,164,26606,2,0,B|251:98|251:98|239:41,1,125,8|0,0:0|0:0,0:0:0:0:
49,247,26934,5,2,0:0:0:0:
64,280,27015,1,0,0:0:0:0:
90,307,27097,1,0,0:0:0:0:
124,323,27179,1,0,0:0:0:0:
161,328,27261,1,8,0:0:0:0:
359,296,27425,2,0,P|405:283|446:336,1,62.5
394,351,27589,6,0,P|319:358|293:289,1,125,6|0,0:0|0:0,0:0:0:0:
374,126,27917,2,0,P|380:64|362:-1,1,125,8|0,0:0|0:0,0:0:0:0:
140,68,28245,1,2,0:0:0:0:
284,130,28409,1,0,0:0:0:0:
129,58,28573,2,0,P|123:120|141:185,1,125,8|0,0:0|0:0,0:0:0:0:
407,247,28901,5,2,0:0:0:0:
306,75,29065,1,0,0:0:0:0:
253,308,29229,1,8,0:0:0:0:
371,87,29393,1,0,0:0:0:0:
145,171,29557,1,2,0:0:0:0:
421,241,29721,2,0,L|395:306,1,62.5
332,349,29884,1,8,0:0:0:0:
320,188,30048,1,0,0:0:0:0:
204,210,30212,6,0,P|143:188|52:318,1,250,6|8,0:0|0:0,3:0:0:0:
210,357,30704,1,0,0:0:0:0:
141,284,30868,2,0,P|177:173|293:178,1,250,6|8,0:0|0:0,3:0:0:0:
441,260,31360,1,0,0:0:0:0:
231,253,31524,6,0,L|125:143,1,125,6|0,0:0|0:0,3:0:0:0:
312,19,31852,2,0,L|418:129,1,125,8|0,0:0|0:0,0:0:0:0:
238,110,32180,1,2,0:0:0:0:
206,110,32261,1,0,0:0:0:0:
175,110,32343,1,0,0:0:0:0:
144,110,32425,1,0,0:0:0:0:
113,110,32507,1,8,0:0:0:0:
245,193,32671,2,0,L|320:192,1,62.5
404,322,32835,5,6,0:0:0:0:
381,343,32916,1,0,0:0:0:0:
351,346,32998,1,0,0:0:0:0:
324,331,33080,1,0,0:0:0:0:
311,303,33162,1,2,0:0:0:0:
318,274,33244,1,0,0:0:0:0:
341,253,33327,2,0,L|408:260,1,62.5
243,318,33491,5,2,0:0:0:0:
209,334,33572,1,0,0:0:0:0:
172,338,33654,1,0,0:0:0:0:
135,330,33736,1,0,0:0:0:0:
103,311,33818,1,2,0:0:0:0:
80,282,33900,1,0,0:0:0:0:
66,247,33983,2,0,P|60:202|68:146,1,62.5,0|0,0:0|0:0,0:0:0:0:
184,60,34147,6,0,P|193:100|186:136,1,62.5,2|0,0:0|0:0,0:0:0:0:
79,241,34311,2,0,P|72:195|80:139,1,62.5
194,54,34475,2,0,P|203:94|196:130,1,62.5,2|0,0:0|0:0,0:0:0:0:
89,235,34639,2,0,P|82:189|90:133,1,62.5,0|0,0:0|0:0,0:0:0:0:
262,186,34803,5,2,0:0:0:0:
281,217,34884,1,0,0:0:0:0:
287,254,34966,1,0,0:0:0:0:
280,290,35048,1,0,0:0:0:0:
259,321,35130,2,0,L|194:340,2,62.5,2|0|0,0:0|0:0|0:0,0:0:0:0:
262,186,35458,6,0,P|333:177|439:240,1,187.5,10|2,0:0|0:0,0:0:0:0:
369,275,35786,2,0,P|437:309|517:248,1,150,10|2,0:0|0:0,0:0:0:0:
468,167,36114,6,0,L|279:38,1,225.000008583069,10|2,0:0|0:0,0:0:0:0:
188,69,36442,2,0,L|349:178,1,150,10|2,0:0|0:0,0:0:0:0:
229,233,36770,6,0,P|176:256|112:240,1,100,6|0,0:0|0:0,0:0:0:0:
24,86,37098,1,8,0:0:0:0:
165,169,37262,1,0,0:0:0:0:
60,347,37425,1,2,0:0:0:0:
51,323,37506,1,0,0:0:0:0:
46,298,37588,1,0,0:0:0:0:
45,273,37670,1,0,0:0:0:0:
48,249,37752,1,8,0:0:0:0:
244,241,37917,1,0,0:0:0:0:
245,265,37999,1,0,0:0:0:0:
242,290,38081,6,0,P|188:302|133:280,1,100,6|0,0:0|0:0,0:0:0:0:
80,181,38327,1,0,0:0:0:0:
80,181,38409,2,0,L|95:67,1,100,8|0,0:0|0:0,0:0:0:0:
226,180,38737,1,2,0:0:0:0:
339,70,38901,2,0,L|331:46,4,25,0|0|0|0|8,0:0|0:0|0:0|0:0|0:0,0:0:0:0:
434,198,39229,2,0,L|441:134,1,50
419,84,39393,6,0,L|405:209,1,100,2|0,0:0|0:0,0:0:0:0:
260,344,39721,2,0,L|274:219,1,100,8|0,0:0|0:0,0:0:0:0:
423,290,40048,1,2,0:0:0:0:
193,277,40212,1,0,0:0:0:0:
193,277,40294,1,0,0:0:0:0:
193,277,40376,2,0,P|135:283|90:256,1,100,8|0,0:0|0:0,0:0:0:0:
167,96,40704,5,6,0:0:0:0:
326,194,40868,1,0,0:0:0:0:
326,194,40950,1,0,0:0:0:0:
326,194,41032,1,8,0:0:0:0:
87,268,41196,1,0,0:0:0:0:
248,69,41360,5,6,0:0:0:0:
254,324,41524,1,0,0:0:0:0:
254,324,41606,1,0,0:0:0:0:
254,324,41688,1,8,0:0:0:0:
73,167,41852,1,0,0:0:0:0:
261,59,42016,6,0,P|311:51|379:60,1,100,2|2,0:0|0:0,0:0:0:0:
435,164,42262,1,2,0:0:0:0:
435,164,42343,2,0,P|385:172|317:163,1,100,2|2,0:0|0:0,0:0:0:0:
218,125,42671,5,2,0:0:0:0:
185,111,42752,1,2,0:0:0:0:
151,111,42834,1,2,0:0:0:0:
119,125,42916,1,2,0:0:0:0:
94,149,42999,1,2,0:0:0:0:
87,197,43080,1,2,0:0:0:0:
107,242,43162,1,2,0:0:0:0:
148,269,43244,1,2,0:0:0:0:
209,268,43326,5,4,0:0:0:0:
