osu file format v14

[General]
AudioFilename: iwf.mp3
AudioLeadIn: 0
PreviewTime: 22342
Countdown: 0
SampleSet: Normal
StackLeniency: 0.7
Mode: 0
LetterboxInBreaks: 0
WidescreenStoryboard: 0

[Editor]
DistanceSpacing: 2
BeatDivisor: 4
GridSize: 8
TimelineZoom: 1.6

[Metadata]
Title:International Wrestling Festival
TitleUnicode:国際的パンツレスリング
Artist:RazQ
ArtistUnicode:RazQ
Creator:XVoIR
Version:sdafsf' Light Insane
Source:
Tags:estellia- mrdorian crn caren_sk gourmet race snow goose gachimuchi iwf kokusaiteki pantsu cut sdafsf
BeatmapID:1025938
BeatmapSetID:397819

[Difficulty]
HPDrainRate:5
CircleSize:3.5
OverallDifficulty:6.9
ApproachRate:8.3
SliderMultiplier:1.2
SliderTickRate:1

[Events]
//Background and Video events
0,0,"oh god.jpg",0,0
//Break Periods
//Storyboard Layer 0 (Background)
//Storyboard Layer 1 (Fail)
//Storyboard Layer 2 (Pass)
//Storyboard Layer 3 (Foreground)
//Storyboard Sound Samples

[TimingPoints]
1356,327.868852459016,4,2,1,75,1,0
17093,-100,4,2,5,75,0,0
17421,-100,4,2,1,75,0,0
18405,-100,4,2,5,75,0,0
18733,-100,4,2,1,75,0,0
19716,-200,4,2,5,75,0,0
21028,-100,4,2,5,75,0,0
21355,-100,4,2,1,75,0,0
22344,327.868852459016,4,1,2,75,1,1
22344,-83.3333333333333,4,1,2,75,0,1
35458,-100,4,2,1,75,0,1
35704,-100,4,2,1,5,0,1
35786,-100,4,2,1,75,0,1
36032,-100,4,2,1,5,0,1
36114,-100,4,2,1,75,0,1
36360,-100,4,2,1,5,0,1
36442,-100,4,2,1,75,0,1
36688,-100,4,2,1,5,0,1
36770,-100,4,1,2,75,0,1
43327,-100,4,1,2,75,0,0

[Colours]
Combo1 : 255,128,64
Combo2 : 255,255,85
Combo3 : 255,147,201
Combo4 : 36,146,255

[HitObjects]
83,127,1356,6,0,P|135:93|206:100,1,120,12|8,1:0|0:0,0:0:0:0:
278,162,1847,2,0,P|337:162|386:129,1,120,0|0,0:0|0:0,0:0:0:0:
313,82,2339,2,0,L|290:26,1,60,8|0,0:0|0:0,0:0:0:0:
156,174,2667,2,0,L|178:229,1,60,8|0,1:0|0:0,0:0:0:0:
329,326,2995,5,8,0:0:0:0:
382,187,3159,1,0,0:0:0:0:
286,230,3323,1,8,1:0:0:0:
424,283,3487,1,0,0:0:0:0:
238,338,3651,6,0,B|178:328,1,60,0|8,0:0|0:0,0:0:0:0:
86,310,3978,2,0,B|52:258|52:258|55:190,1,120,8|8,1:0|0:0,0:0:0:0:
117,90,4470,2,0,B|151:142|151:142|148:210,1,120,0|0,0:0|0:0,0:0:0:0:
237,151,4962,2,0,B|233:214,1,60,8|0,0:0|0:0,0:0:0:0:
324,65,5290,6,0,B|320:128,1,60,8|2,1:0|3:0,0:0:0:0:
320,124,5536,1,0,0:0:0:0:
320,124,5618,1,2,3:0:0:0:
410,176,5782,1,2,3:0:0:0:
320,229,5946,1,8,1:0:0:0:
320,229,6028,1,2,3:0:0:0:
320,229,6110,1,2,3:0:0:0:
409,280,6274,2,0,L|333:325,1,60,2|2,3:0|3:0,0:0:0:0:
252,337,6601,6,0,P|177:335|132:294,1,120,12|8,1:0|0:0,0:0:0:0:
216,251,7093,2,0,P|214:176|173:131,1,120,0|0,0:0|0:0,0:0:0:0:
66,222,7585,2,0,L|126:214,1,60,8|0,0:0|0:0,0:0:0:0:
279,125,7913,6,0,P|303:181|302:248,1,120,8|8,1:0|0:0,0:0:0:0:
249,335,8405,2,0,B|236:357|236:357|333:363,1,120,0|0,0:0|0:0,0:0:0:0:
405,284,8896,2,0,P|414:244|413:204,1,60,8|0,0:0|0:0,0:0:0:0:
337,149,9224,5,8,0:0:0:0:
375,49,9388,1,0,0:0:0:0:
405,117,9552,1,8,0:0:0:0:
305,79,9716,1,0,0:0:0:0:
200,61,9880,6,0,L|142:86,2,60,8|0|8,1:0|0:0|0:0,0:0:0:0:
52,122,10372,1,0,0:0:0:0:
52,122,10454,1,0,0:0:0:0:
52,122,10536,2,0,L|77:204,1,60,8|2,1:0|3:0,0:0:0:0:
197,200,10864,2,0,L|179:257,1,60,2|2,3:0|3:0,0:0:0:0:
145,346,11192,6,0,L|202:346,1,30,0|2,0:0|3:0,0:0:0:0:
228,346,11355,2,0,L|285:346,1,30,2|0,3:0|0:0,0:0:0:0:
311,346,11519,2,0,B|370:346|370:346|382:293,1,90,2|0,3:0|0:0,0:0:0:0:
397,274,11847,6,0,P|380:215|389:149,1,120,12|8,1:0|0:0,0:0:0:0:
284,84,12339,2,0,P|301:143|292:209,1,120,0|0,0:0|0:0,0:0:0:0:
134,152,12831,2,0,L|194:152,1,60,8|0,0:0|0:0,0:0:0:0:
264,296,13159,2,0,L|204:296,1,60,8|0,1:0|0:0,0:0:0:0:
86,279,13487,1,8,0:0:0:0:
62,170,13651,1,0,0:0:0:0:
184,224,13815,1,8,1:0:0:0:
201,108,13978,1,0,0:0:0:0:
79,34,14142,6,0,P|87:66|77:109,1,60,8|0,0:0|0:0,0:0:0:0:
62,170,14470,2,0,P|56:228|86:279,1,120,8|8,1:0|0:0,0:0:0:0:
151,334,14962,2,0,B|183:357|183:357|282:331,1,120,0|0,0:0|0:0,0:0:0:0:
346,291,15454,2,0,L|328:221,1,60,8|0,0:0|0:0,0:0:0:0:
238,205,15782,2,0,L|253:263,1,60,8|0,1:0|0:0,0:0:0:0:
364,305,16110,2,0,L|348:247,1,60,8|0,0:0|0:0,0:0:0:0:
219,190,16437,2,0,L|234:248,1,60,8|0,1:0|0:0,0:0:0:0:
175,334,16765,6,0,L|136:322,2,40,8|0|0,0:0|0:0|0:0,0:0:0:0:
81,254,17093,2,0,B|76:220|99:197|99:197|135:163|122:112,1,120,12|8,2:0|0:0,0:0:0:0:
113,51,17585,2,0,B|177:57|217:34|217:34|241:68|241:68|293:48|345:81,1,240,0|0,0:0|0:0,0:0:0:0:
420,103,18405,6,0,B|390:157|390:157|333:170,1,120,12|8,0:0|0:0,0:0:0:0:
236,189,18896,2,0,P|178:230|284:256,1,240,0|0,0:0|0:0,0:0:0:0:
364,261,19716,6,0,P|334:329|201:375,1,210,12|0,0:0|0:0,0:0:0:0:
116,342,21028,6,0,B|98:277,1,60,12|0,0:0|0:0,0:0:0:0:
203,272,21355,2,0,B|221:207,1,60,8|0,0:0|0:0,0:0:0:0:
116,202,21683,2,0,B|98:137,1,60,8|0,0:0|0:0,0:0:0:0:
203,132,22011,2,0,B|221:67,1,60,8|0,0:0|0:0,0:0:0:0:
321,67,22344,6,6,P|344:137|417:178,1,143.999995605469,6|8,0:0|0:0,3:0:0:0:
429,70,22835,1,0,0:0:0:0:
400,174,22999,2,0,L|406:332,1,143.999995605469,2|8,0:1|0:0,0:0:0:0:
313,332,23491,1,0,0:0:0:0:
218,330,23655,6,0,P|171:314|153:295,1,71.9999978027344,2|0,0:0|0:0,0:0:0:0:
222,162,23983,2,0,P|269:178|287:197,1,71.9999978027344,8|0,0:0|0:0,0:0:0:0:
220,246,24311,2,0,B|107:186|107:186|132:173,1,143.999995605469,2|8,0:0|0:0,0:0:0:0:
263,83,24803,5,0,0:0:0:0:
263,83,24966,2,0,B|335:56|335:56,2,71.9999978027344,2|0|8,0:0|0:0|0:0,0:0:0:0:
382,203,25458,1,0,0:0:0:0:
466,180,25622,2,0,B|486:223|486:223|486:259,1,71.9999978027344,2|0,0:0|0:0,0:0:0:0:
302,230,25950,2,0,B|282:187|282:187|282:151,1,71.9999978027344,8|0,0:0|0:0,0:0:0:0:
450,326,26278,6,0,L|353:323,1,71.9999978027344,2|0,0:0|0:0,0:0:0:0:
267,321,26606,2,0,L|170:324,1,71.9999978027344,8|0,0:0|0:0,0:0:0:0:
94,276,26934,6,0,L|118:243,3,35.9999989013672,2|0|0|0,0:0|0:0|0:0|0:0,0:0:0:0:
137,189,27262,2,0,L|112:156,3,35.9999989013672,8|0|0|0,0:0|0:0|0:0|0:0,0:0:0:0:
81,110,27589,6,0,B|60:81|60:81|180:76,1,143.999995605469,6|8,0:0|0:0,0:0:0:0:
256,72,28081,1,0,0:0:0:0:
343,76,28245,2,0,B|451:81|451:81|431:110,1,143.999995605469,2|8,0:0|0:0,0:0:0:0:
358,195,28737,1,0,0:0:0:0:
420,275,28901,2,0,P|420:323|391:363,1,71.9999978027344,2|0,0:0|0:0,0:0:0:0:
260,321,29229,2,0,P|260:273|289:233,1,71.9999978027344,8|0,0:0|0:0,0:0:0:0:
340,298,29557,1,2,0:0:0:0:
340,298,29884,5,8,0:0:0:0:
352,208,30047,1,0,0:0:0:0:
364,119,30212,2,0,B|374:67|374:67|263:88,1,143.999995605469,6|8,0:0|0:0,3:0:0:0:
231,151,30704,1,0,0:0:0:0:
177,218,30868,2,0,B|88:235|88:235|98:183,1,143.999995605469,6|8,0:0|0:0,3:0:0:0:
142,309,31360,1,0,0:0:0:0:
142,309,31524,2,0,L|227:326,1,71.9999978027344,2|0,0:0|0:0,3:0:0:0:
267,253,31852,2,0,L|352:270,1,71.9999978027344,8|0,0:0|0:0,0:0:0:0:
431,286,32180,2,0,L|436:251,7,35.9999989013672,2|0|0|0|8|0|0|0,0:0|0:0|0:0|0:0|0:0|0:0|0:0|0:0,0:0:0:0:
417,180,32835,6,0,L|402:147,7,35.9999989013672,2|0|0|0|8|0|0|0,0:0|0:0|0:0|0:0|0:0|0:0|0:0|0:0,0:0:0:0:
343,103,33491,2,0,L|313:84,7,35.9999989013672,2|0|0|0|8|0|0|0,0:0|0:0|0:0|0:0|0:0|0:0|0:0|0:0,0:0:0:0:
243,59,34147,2,0,P|205:52|147:67,1,71.9999978027344,2|0,0:0|0:0,0:0:0:0:
51,166,34475,2,0,P|88:172|146:157,1,71.9999978027344,8|0,0:0|0:0,0:0:0:0:
205,150,34803,2,0,L|191:301,1,143.999995605469,2|8,0:0|0:0,0:0:0:0:
283,190,35458,5,10,0:0:0:0:
272,282,35786,1,10,0:0:0:0:
359,320,36114,1,10,0:0:0:0:
420,251,36442,1,10,0:0:0:0:
373,170,36770,6,0,L|390:94,1,60,6|0,0:0|0:0,0:0:0:0:
266,50,37098,2,0,L|279:108,1,60,8|0,0:0|0:0,0:0:0:0:
185,147,37425,2,0,L|177:184,7,30,2|0|0|0|8|0|0|0,0:0|0:0|0:0|0:0|0:0|0:0|0:0|0:0,0:0:0:0:
166,223,38081,5,6,0:0:0:0:
147,334,38245,1,0,0:0:0:0:
147,334,38327,1,0,0:0:0:0:
147,334,38409,2,0,L|206:308,1,60,8|0,0:0|0:0,0:0:0:0:
297,265,38737,5,2,0:0:0:0:
421,265,38901,2,0,L|442:281,4,15,0|0|0|0|8,0:0|0:0|0:0|0:0|0:0,0:0:0:0:
358,170,39229,1,0,0:0:0:0:
358,170,39311,1,0,0:0:0:0:
358,170,39393,6,0,B|376:150|376:150|391:101,1,60,2|0,0:0|0:0,0:0:0:0:
287,56,39721,2,0,B|268:77|268:77|259:108,1,60,8|0,0:0|0:0,0:0:0:0:
202,206,40048,2,0,B|182:232|182:232|157:245,1,60,2|0,0:0|0:0,0:0:0:0:
118,154,40376,1,8,0:0:0:0:
98,42,40540,1,0,0:0:0:0:
7,117,40704,6,0,L|26:235,1,120,4|8,0:0|0:0,0:0:0:0:
210,212,41360,2,0,L|191:330,1,120,4|8,0:0|0:0,0:0:0:0:
315,295,42016,5,2,0:0:0:0:
420,234,42180,1,2,0:0:0:0:
420,234,42262,1,2,0:0:0:0:
420,234,42343,1,2,0:0:0:0:
301,173,42507,1,2,0:0:0:0:
415,99,42671,2,0,L|446:49,7,30,2|2|2|2|2|2|2|2,0:0|0:0|0:0|0:0|0:0|0:0|0:0|0:0,0:0:0:0:
472,6,43327,5,4,0:0:0:0:
