osu file format v14

[General]
AudioFilename: iwf.mp3
AudioLeadIn: 0
PreviewTime: 22342
Countdown: 0
SampleSet: Normal
StackLeniency: 0.7
Mode: 0
LetterboxInBreaks: 0
WidescreenStoryboard: 1

[Editor]
DistanceSpacing: 0.6
BeatDivisor: 4
GridSize: 8
TimelineZoom: 2.5

[Metadata]
Title:International Wrestling Festival
TitleUnicode:国際的パンツレスリング
Artist:RazQ
ArtistUnicode:RazQ
Creator:XVoIR
Version:Insane
Source:
Tags:estellia- mrdorian crn caren_sk gourmet race snow goose gachimuchi iwf kokusaiteki pantsu cut sdafsf
BeatmapID:1168758
BeatmapSetID:397819

[Difficulty]
HPDrainRate:5
CircleSize:4
OverallDifficulty:7.5
ApproachRate:9
SliderMultiplier:1.9
SliderTickRate:1

[Events]
//Background and Video events
0,0,"oh god.jpg",0,0
//Break Periods
//Storyboard Layer 0 (Background)
//Storyboard Layer 1 (Fail)
//Storyboard Layer 2 (Pass)
//Storyboard Layer 3 (Foreground)
//Storyboard Sound Samples

[TimingPoints]
1356,327.868852459016,4,2,1,75,1,0
16765,-133.333333333333,4,2,1,75,0,0
17093,-100,4,2,5,75,0,0
17421,-100,4,2,1,75,0,0
18405,-100,4,2,5,75,0,0
18733,-100,4,2,1,75,0,0
19716,-185.185185185185,4,2,5,75,0,0
21028,-133.333333333333,4,2,5,75,0,0
21355,-100,4,2,1,75,0,0
22344,327.868852459016,4,1,2,75,1,1
22344,-100,4,1,2,75,0,1
35458,-100,4,2,1,75,0,1
35704,-100,4,2,1,5,0,1
35786,-100,4,2,1,75,0,1
36032,-100,4,2,1,5,0,1
36114,-66.6666666666667,4,2,1,75,0,1
36360,-100,4,2,1,5,0,1
36442,-100,4,2,1,75,0,1
36688,-100,4,2,1,5,0,1
36770,-100,4,1,2,75,0,1
43327,-100,4,1,2,75,0,0

[Colours]
Combo1 : 255,128,64
Combo2 : 255,255,85
Combo3 : 255,147,201
Combo4 : 36,146,255

[HitObjects]
123,306,1356,6,0,P|176:278|209:154,1,190,12|8,1:0|0:0,0:0:0:0:
130,73,1847,1,0,0:0:0:0:
130,196,2011,2,0,P|177:191|218:140,1,95,8|0,1:0|0:0,0:0:0:0:
262,54,2339,2,0,P|296:22|342:17,1,95,0|0,0:0|0:0,0:0:0:0:
403,156,2667,6,0,P|358:142|331:104,1,95,8|0,1:0|0:0,0:0:0:0:
448,60,2995,1,8,0:0:0:0:
497,159,3159,1,0,0:0:0:0:
443,298,3323,2,0,P|419:252|505:159,1,190,8|8,1:0|0:0,0:0:0:0:
501,241,3815,1,0,0:0:0:0:
381,357,3978,6,0,B|329:346|329:346|284:347|284:347|190:319,1,190,8|8,1:0|0:0,0:0:0:0:
73,288,4470,1,0,0:0:0:0:
73,288,4552,1,0,0:0:0:0:
73,288,4634,2,0,P|65:239|78:194,1,95,8|0,1:0|0:0,0:0:0:0:
220,140,4962,2,0,P|228:189|215:234,1,95,8|0,0:0|0:0,0:0:0:0:
58,116,5290,6,0,P|117:123|144:149,1,95,8|2,1:0|3:0,0:0:0:0:
216,231,5618,1,2,3:0:0:0:
327,150,5782,2,0,P|332:126|327:99,1,47.5,2|2,3:0|3:0,0:0:0:0:
181,22,6028,2,0,P|176:46|181:73,1,47.5,2|2,3:0|3:0,0:0:0:0:
344,24,6274,2,0,P|390:47|407:89,1,95,2|2,3:0|3:0,0:0:0:0:
396,206,6601,6,0,P|331:243|238:180,1,190,12|8,1:0|0:0,0:0:0:0:
255,71,7093,1,0,0:0:0:0:
322,162,7257,2,0,P|324:210|313:256,1,95,8|0,1:0|0:0,0:0:0:0:
141,239,7585,2,0,P|139:286|150:332,1,95,8|0,0:0|0:0,0:0:0:0:
330,361,7913,6,0,P|375:326|414:191,1,190,8|8,1:0|0:0,0:0:0:0:
406,110,8405,1,0,0:0:0:0:
406,110,8487,1,0,0:0:0:0:
406,110,8569,2,0,P|338:148|328:187,1,95,8|0,1:0|0:0,0:0:0:0:
486,146,8896,2,0,P|487:68|458:39,1,95,8|0,0:0|0:0,0:0:0:0:
346,25,9224,6,0,L|231:44,1,95,8|0,1:0|0:0,0:0:0:0:
83,116,9552,2,0,L|198:135,1,95,8|0,0:0|0:0,0:0:0:0:
334,160,9880,1,8,1:0:0:0:
252,40,10044,1,0,0:0:0:0:
252,211,10208,2,0,P|302:251|342:256,1,95,8|0,0:0|0:0,0:0:0:0:
418,248,10454,1,0,0:0:0:0:
418,248,10536,6,0,P|426:296|409:342,1,95,8|2,1:0|3:0,0:0:0:0:
298,376,10864,1,2,3:0:0:0:
197,319,11028,2,0,L|136:323,1,47.5,2|2,3:0|3:0,0:0:0:0:
38,238,11274,2,0,L|99:242,1,47.5,2|2,3:0|3:0,0:0:0:0:
152,160,11519,2,0,P|157:107|140:63,1,95,2|2,3:0|3:0,0:0:0:0:
39,239,11847,6,0,B|125:243|125:243|180:234|180:234|230:237,1,190,12|8,1:0|0:0,0:0:0:0:
365,240,12339,1,0,0:0:0:0:
260,326,12503,2,0,L|226:232,1,95,8|0,1:0|0:0,0:0:0:0:
397,150,12831,2,0,L|364:239,1,95,8|0,0:0|0:0,0:0:0:0:
286,151,13159,5,8,1:0:0:0:
432,61,13323,1,0,0:0:0:0:
365,237,13487,1,8,0:0:0:0:
328,77,13651,1,0,0:0:0:0:
328,77,13733,1,0,0:0:0:0:
328,77,13815,2,0,P|275:66|225:95,1,95,8|0,1:0|0:0,0:0:0:0:
138,241,14142,2,0,P|191:252|241:223,1,95,8|0,0:0|0:0,0:0:0:0:
97,152,14470,6,0,P|61:187|108:335,1,190,8|8,1:0|0:0,0:0:0:0:
179,335,14962,1,0,0:0:0:0:
224,235,15126,2,0,P|152:228|117:254,1,95,8|0,1:0|0:0,0:0:0:0:
293,316,15454,2,0,P|335:257|330:213,1,95,8|0,0:0|0:0,0:0:0:0:
298,111,15782,5,8,1:0:0:0:
224,235,15946,1,0,0:0:0:0:
363,155,16110,2,0,P|377:96|353:55,1,95,8|0,0:0|0:0,0:0:0:0:
224,146,16437,2,0,P|210:205|234:246,1,95,8|0,1:0|0:0,0:0:0:0:
363,155,16765,2,0,P|414:141|432:126,2,47.5000018119813,8|0|0,0:0|0:0|0:0,0:0:0:0:
226,146,17093,6,0,P|141:134|65:198,1,190,12|8,2:0|0:0,0:0:0:0:
49,317,17585,1,0,0:0:0:0:
140,316,17749,2,0,P|90:306|42:320,1,95,8|0,1:0|0:0,0:0:0:0:
232,361,18077,2,0,P|282:371|330:357,1,95,8|0,0:0|0:0,0:0:0:0:
410,320,18405,6,0,B|420:246|420:246|411:202|411:202|418:126,1,190,12|8,0:0|0:0,0:0:0:0:
337,46,18896,1,0,0:0:0:0:
333,69,18977,1,0,0:0:0:0:
327,93,19060,2,0,P|275:101|225:83,1,95,8|0,1:0|0:3,0:0:0:0:
149,35,19388,2,0,P|97:27|47:45,1,95,8|0,0:0|0:0,0:0:0:0:
5,155,19716,6,0,B|52:137|120:161|98:227|194:274|254:228|283:199|294:157|270:121,1,359.10000876709,6|0,0:0|0:0,0:0:0:0:
293,259,21028,6,0,P|308:211|255:115,1,142.500005435944,12|0,0:0|0:0,0:0:0:0:
204,212,21519,1,8,0:0:0:0:
241,331,21683,2,0,P|287:348|331:336,1,95,0|8,0:0|0:0,0:0:0:0:
204,212,22011,2,0,P|158:195|114:207,1,95,8|0,0:0|0:0,0:0:0:0:
95,334,22344,6,0,P|145:326|201:204,1,190,6|8,0:0|0:0,3:0:0:0:
178,82,22835,1,0,0:0:0:0:
178,82,22917,1,0,0:0:0:0:
178,82,22999,2,0,L|71:91,1,95,2|0,0:1|0:0,0:0:0:0:
257,139,23327,2,0,L|364:148,1,95,8|0,0:0|0:0,0:0:0:0:
485,153,23655,5,2,0:0:0:0:
409,241,23819,1,0,0:0:0:0:
450,68,23983,2,0,P|482:117|484:154,1,95,8|0,0:0|0:0,0:0:0:0:
409,241,24311,2,0,L|311:231,1,95,2|0,0:0|0:0,0:0:0:0:
230,221,24557,1,0,0:0:0:0:
230,221,24639,2,0,P|245:279|281:307,1,95,8|0,0:0|0:0,0:0:0:0:
229,137,24966,6,0,P|174:159|146:209,1,95,2|0,0:0|0:0,0:0:0:0:
309,176,25294,2,0,P|317:117|288:68,1,95,8|0,0:0|0:0,0:0:0:0:
191,35,25622,1,2,0:0:0:0:
156,182,25786,1,0,0:0:0:0:
81,117,25950,1,8,0:0:0:0:
116,264,26114,1,0,0:0:0:0:
232,193,26278,6,0,P|213:129|183:112,1,95,2|0,0:0|0:0,0:0:0:0:
115,266,26606,2,0,L|231:262,1,95,8|0,0:0|0:0,0:0:0:0:
327,257,26934,1,2,0:0:0:0:
347,244,27015,1,0,0:0:0:0:
362,226,27097,1,0,0:0:0:0:
372,205,27179,1,0,0:0:0:0:
374,181,27261,1,8,0:0:0:0:
326,54,27425,1,0,0:0:0:0:
326,54,27507,1,0,0:0:0:0:
326,54,27589,6,0,B|237:48|237:48|170:62|170:62|116:56,1,190,6|8,0:0|0:0,0:0:0:0:
9,65,28081,1,0,0:0:0:0:
111,145,28245,2,0,P|136:101|137:53,1,95,2|0,0:0|0:0,0:0:0:0:
37,189,28573,2,0,P|13:229|10:276,1,95,8|0,0:0|0:0,0:0:0:0:
210,309,28901,5,2,0:0:0:0:
96,257,29065,1,0,0:0:0:0:
116,356,29229,1,8,0:0:0:0:
179,200,29393,1,0,0:0:0:0:
339,341,29557,2,0,P|394:350|435:328,1,95,2|0,0:0|0:0,0:0:0:0:
472,264,29803,1,0,0:0:0:0:
472,264,29884,5,8,0:0:0:0:
348,116,30048,1,0,0:0:0:0:
242,242,30212,6,0,P|300:227|343:100,1,190,6|0,0:0|0:0,3:0:0:0:
249,145,30704,1,0,0:0:0:0:
143,271,30868,6,0,P|226:233|248:144,1,190,6|8,0:0|0:0,3:0:0:0:
145,166,31360,1,0,0:0:0:0:
67,278,31524,6,0,P|83:325|143:349,1,95,6|0,0:0|0:0,3:0:0:0:
198,235,31852,2,0,P|182:188|122:164,1,95,8|0,0:0|0:0,0:0:0:0:
232,326,32180,1,2,0:0:0:0:
265,321,32261,1,0,0:0:0:0:
298,317,32343,1,0,0:0:0:0:
331,313,32425,1,0,0:0:0:0:
364,309,32507,1,8,0:0:0:0:
458,227,32671,1,0,0:0:0:0:
424,222,32753,1,0,0:0:0:0:
391,218,32835,6,0,P|385:186|389:154,3,47.5,6|0|0|0,0:0|0:0|0:0|0:0,0:0:0:0:
457,147,33163,2,0,P|463:115|459:83,3,47.5,2|0|0|0,0:0|0:0|0:0|0:0,0:0:0:0:
381,53,33491,5,2,0:0:0:0:
354,41,33572,1,0,0:0:0:0:
326,36,33654,1,0,0:0:0:0:
298,37,33736,1,0,0:0:0:0:
270,44,33818,1,2,0:0:0:0:
245,56,33900,1,0,0:0:0:0:
223,74,33982,1,0,0:0:0:0:
205,96,34064,1,0,0:0:0:0:
189,120,34147,6,0,L|165:179,3,47.5,2|0|0|0,0:0|0:0|0:0|0:0,0:0:0:0:
89,135,34475,2,0,L|65:194,3,47.5,2|0|0|0,0:0|0:0|0:0|0:0,0:0:0:0:
97,268,34803,1,2,0:0:0:0:
122,279,34884,1,0,0:0:0:0:
150,284,34966,1,0,0:0:0:0:
179,281,35048,1,0,0:0:0:0:
205,271,35130,1,2,0:0:0:0:
228,254,35212,1,0,0:0:0:0:
245,232,35294,1,0,0:0:0:0:
256,356,35458,6,0,L|410:322,1,142.5,10|0,0:0|0:0,0:0:0:0:
472,266,35786,2,0,L|326:232,1,142.5,10|0,0:0|0:0,0:0:0:0:
242,270,36114,6,0,P|238:217|359:133,1,213.750008153916,10|0,0:0|0:0,0:0:0:0:
440,144,36442,2,0,P|430:88|347:45,1,142.5,10|0,0:0|0:0,0:0:0:0:
270,47,36770,6,0,L|165:71,1,95,6|0,0:0|0:0,0:0:0:0:
81,55,37098,2,0,P|82:105|122:157,1,95,8|0,0:0|0:0,0:0:0:0:
174,217,37425,1,2,0:0:0:0:
183,238,37506,1,0,0:0:0:0:
187,261,37588,1,0,0:0:0:0:
186,285,37670,1,0,0:0:0:0:
178,308,37752,1,8,0:0:0:0:
68,339,37917,1,0,0:0:0:0:
66,316,37999,1,0,0:0:0:0:
70,292,38081,6,0,P|117:281|163:295,1,95,6|0,0:0|0:0,0:0:0:0:
242,342,38327,1,0,0:0:0:0:
242,342,38409,2,0,L|359:334,1,95,8|0,0:0|0:0,0:0:0:0:
454,272,38737,1,2,0:0:0:0:
335,213,38901,2,0,L|306:214,4,23.75,0|0|0|0|8,0:0|0:0|0:0|0:0|0:0,0:0:0:0:
428,137,39229,1,0,0:0:0:0:
434,114,39310,1,0,0:0:0:0:
432,88,39393,6,0,B|367:78|367:78|299:88|299:88|227:73,1,190,2|8,0:0|0:0,0:0:0:0:
105,24,39884,1,0,0:0:0:0:
304,17,40048,2,0,P|309:103|195:157,1,190,2|0,0:0|0:0,0:0:0:0:
71,190,40540,1,0,0:0:0:0:
137,104,40704,5,6,0:0:0:0:
175,272,40868,1,0,0:0:0:0:
175,272,40950,1,0,0:0:0:0:
175,272,41032,2,0,P|115:285|74:269,1,95,8|0,0:0|0:0,0:0:0:0:
232,158,41360,6,0,P|292:145|333:161,1,95,6|0,0:0|0:0,0:0:0:0:
386,211,41606,1,0,0:0:0:0:
386,211,41688,2,0,P|398:263|382:306,1,95,8|0,0:0|0:0,0:0:0:0:
231,279,42016,6,0,P|216:337|243:389,1,95,2|2,0:0|0:0,0:0:0:0:
294,330,42262,1,2,0:0:0:0:
294,330,42343,2,0,L|396:297,1,95,2|2,0:0|0:0,0:0:0:0:
471,176,42671,1,2,0:0:0:0:
458,140,42752,1,2,0:0:0:0:
437,108,42834,1,2,0:0:0:0:
409,81,42916,1,2,0:0:0:0:
372,67,42999,2,0,P|350:57|316:57,1,47.5,2|2,0:0|0:0,0:0:0:0:
314,159,43163,2,0,P|290:168|267:191,1,47.5,2|2,0:0|0:0,0:0:0:0:
296,281,43327,5,6,0:0:0:0:
