osu file format v14

[General]
AudioFilename: iwf.mp3
AudioLeadIn: 0
PreviewTime: 22342
Countdown: 0
SampleSet: Soft
StackLeniency: 0.7
Mode: 0
LetterboxInBreaks: 0
WidescreenStoryboard: 1

[Editor]
DistanceSpacing: 0.6
BeatDivisor: 4
GridSize: 8
TimelineZoom: 1.6

[Metadata]
Title:International Wrestling Festival
TitleUnicode:国際的パンツレスリング
Artist:RazQ
ArtistUnicode:RazQ
Creator:XVoIR
Version:Extreme -Aniki-
Source:
Tags:estellia- mrdorian crn caren_sk gourmet race snow goose gachimuchi iwf kokusaiteki pantsu cut sdafsf
BeatmapID:865199
BeatmapSetID:397819

[Difficulty]
HPDrainRate:6
CircleSize:4.7
OverallDifficulty:8.6
ApproachRate:9.3
SliderMultiplier:2
SliderTickRate:1

[Events]
//Background and Video events
0,0,"oh god.jpg",0,0
//Break Periods
//Storyboard Layer 0 (Background)
//Storyboard Layer 1 (Fail)
//Storyboard Layer 2 (Pass)
//Storyboard Layer 3 (Foreground)
//Storyboard Sound Samples

[TimingPoints]
1356,327.868852459016,4,2,1,75,1,0
14224,-100,4,2,1,5,0,0
14306,-100,4,2,1,75,0,0
14388,-100,4,2,1,5,0,0
14470,-100,4,2,1,75,0,0
16765,-133.333333333333,4,2,1,75,0,0
17089,-100,4,2,1,75,0,0
19716,-111.111111111111,4,2,1,75,0,0
21028,-133.333333333333,4,2,5,75,0,0
21355,-133.333333333333,4,2,1,75,0,0
21683,-100,4,2,1,75,0,0
22344,327.868852459016,4,1,2,75,1,1
22344,-80,4,1,2,75,0,1
35456,-100,4,2,1,75,0,1
35704,-100,4,2,1,5,0,1
35786,-100,4,2,1,75,0,1
36032,-100,4,2,1,5,0,1
36114,-66.6666666666667,4,2,1,75,0,1
36360,-100,4,2,1,5,0,1
36442,-100,4,2,1,75,0,1
36688,-100,4,2,1,5,0,1
36768,-100,4,1,2,75,0,1
43327,-100,4,1,2,75,0,0

[Colours]
Combo1 : 255,128,64
Combo2 : 255,255,85
Combo3 : 255,147,201
Combo4 : 36,146,255

[HitObjects]
201,240,1356,6,0,P|262:207|384:247,1,200,12|8,1:0|0:0,0:0:0:0:
290,327,1847,1,0,0:0:0:0:
68,359,2011,2,0,B|56:309|56:309|71:258,1,100,8|0,1:0|0:0,0:0:0:0:
205,140,2339,2,0,B|217:190|217:190|202:241,1,100,8|0,0:0|0:0,0:0:0:0:
61,46,2667,6,0,L|169:54,1,100,8|0,1:0|0:0,0:0:0:0:
383,71,2995,1,8,0:0:0:0:
138,122,3159,1,0,0:0:0:0:
413,138,3323,1,8,1:0:0:0:
413,138,3651,5,8,0:0:0:0:
370,349,3815,1,0,0:0:0:0:
347,273,3978,2,0,B|267:224|232:322|150:251,1,200,8|8,1:0|0:0,0:0:0:0:
53,159,4470,1,0,0:0:0:0:
57,134,4551,1,0,0:0:0:0:
61,109,4634,2,0,P|113:104|164:108,1,100,8|0,1:0|0:0,0:0:0:0:
440,137,4962,2,0,P|388:131|337:135,1,100,8|0,0:0|0:0,0:0:0:0:
156,258,5290,5,8,1:0:0:0:
356,355,5454,1,2,3:0:0:0:
272,180,5618,1,2,3:0:0:0:
181,360,5782,1,2,3:0:0:0:
181,360,5864,1,2,3:0:0:0:
49,229,6028,1,2,3:0:0:0:
49,229,6110,1,2,3:0:0:0:
161,110,6274,2,0,L|263:112,1,100,2|2,3:0|3:0,0:0:0:0:
471,196,6601,6,0,P|415:230|306:153,1,200,12|8,1:0|0:0,0:0:0:0:
418,31,7093,1,0,0:0:0:0:
471,196,7257,2,0,L|466:319,1,100,8|0,1:0|0:0,0:0:0:0:
277,353,7585,2,0,L|272:230,1,100,8|0,0:0|0:0,0:0:0:0:
258,52,7913,6,0,P|202:18|93:95,1,200,8|8,1:0|0:0,0:0:0:0:
103,254,8405,1,0,0:0:0:0:
103,254,8487,1,0,0:0:0:0:
103,254,8569,2,0,P|156:261|206:253,1,100,8|0,1:0|0:0,0:0:0:0:
404,110,8896,2,0,P|351:103|301:111,1,100,8|0,0:0|0:0,0:0:0:0:
425,365,9224,6,0,B|470:274|470:274|421:176,1,200,8|8,1:0|0:0,0:0:0:0:
332,25,9716,1,0,0:0:0:0:
280,256,9880,1,8,1:0:0:0:
358,171,10044,1,0,0:0:0:0:
160,136,10208,1,8,0:0:0:0:
80,304,10372,1,0,0:0:0:0:
80,304,10454,1,0,0:0:0:0:
80,304,10536,6,0,P|132:314|182:303,1,100,8|2,1:0|3:0,0:0:0:0:
371,198,10864,1,2,3:0:0:0:
134,187,11028,1,2,3:0:0:0:
134,187,11110,1,2,3:0:0:0:
244,352,11274,1,2,3:0:0:0:
244,352,11355,1,2,3:0:0:0:
264,113,11519,1,2,3:0:0:0:
242,351,11683,1,2,3:0:0:0:
264,113,11847,6,0,L|48:97,1,200,12|8,1:0|0:0,0:0:0:0:
138,222,12339,1,0,0:0:0:0:
254,38,12503,1,8,1:0:0:0:
329,230,12667,1,0,0:0:0:0:
454,47,12831,2,0,P|402:37|352:48,1,100,8|0,0:0|0:0,0:0:0:0:
245,229,13159,6,0,L|267:343,1,100,8|0,1:0|0:0,0:0:0:0:
488,258,13487,1,8,0:0:0:0:
347,144,13651,1,0,0:0:0:0:
195,340,13815,2,0,P|146:352|91:338,1,100,8|0,1:0|0:0,0:0:0:0:
44,195,14142,2,0,L|53:119,1,50,0|0,0:0|0:0,0:0:0:0:
161,70,14306,2,0,L|170:146,1,50,8|0,0:0|0:0,0:0:0:0:
271,220,14470,6,0,L|290:17,1,200,8|8,1:0|0:0,0:0:0:0:
476,85,14962,1,0,0:0:0:0:
349,257,15126,2,0,P|345:322|356:363,1,100,8|0,1:0|0:0,0:0:0:0:
505,272,15454,2,0,P|509:207|498:166,1,100,8|0,0:0|0:0,0:0:0:0:
191,342,15782,6,0,L|78:350,1,100,8|0,1:0|0:0,0:0:0:0:
30,114,16110,2,0,L|143:122,1,100,8|0,0:0|0:0,0:0:0:0:
365,137,16437,1,8,1:0:0:0:
255,318,16601,1,0,0:0:0:0:
239,115,16765,1,8,0:0:0:0:
239,115,16875,2,0,L|237:54,1,50.0000019073487,0|0,0:0|0:0,0:0:0:0:
466,173,17093,6,0,B|366:215|366:215|272:175,1,200,12|8,2:0|0:0,0:0:0:0:
92,99,17585,1,0,0:0:0:0:
70,271,17749,2,0,L|158:200,1,100,8|0,1:0|0:0,0:0:0:0:
388,235,18077,2,0,L|476:164,1,100,8|0,0:0|0:0,0:0:0:0:
244,35,18405,6,0,P|228:122|291:213,1,200,4|8,0:0|0:0,0:0:0:0:
404,83,18896,1,0,0:0:0:0:
404,83,18978,1,0,0:0:0:0:
404,83,19060,2,0,P|347:79|295:91,1,100,8|0,1:0|0:3,0:0:0:0:
151,239,19388,2,0,P|94:243|42:231,1,100,8|0,0:0|0:0,0:0:0:0:
173,177,19716,6,0,B|173:178|108:145|58:185|56:249|63:295|92:334|164:338|197:323|234:289|247:239|220:214|192:183|290:93|290:93|305:119|305:119|302:72|302:72|240:77,1,629.999980773926,12|0,0:0|0:0,0:0:0:0:
285,317,21028,6,0,P|357:341|435:290,1,150.000005722046,12|0,0:0|0:0,0:0:0:0:
511,193,21519,1,8,0:0:0:0:
411,37,21683,2,0,L|421:144,1,100,0|8,0:0|0:0,0:0:0:0:
224,220,22011,2,0,L|234:113,1,100,8|0,0:0|0:0,0:0:0:0:
74,28,22344,6,0,P|41:115|109:248,1,250,6|8,0:0|0:0,3:0:0:0:
282,299,22835,1,0,0:0:0:0:
325,293,22916,1,0,0:0:0:0:
368,286,22999,2,0,P|381:250|372:160,1,125,2|0,0:1|0:0,0:0:0:0:
254,25,23327,1,8,0:0:0:0:
204,251,23491,1,0,0:0:0:0:
366,90,23655,6,0,L|496:84,1,125,2|0,0:0|0:0,0:0:0:0:
282,299,23983,2,0,L|152:293,1,125,8|0,0:0|0:0,0:0:0:0:
61,168,24311,1,2,0:0:0:0:
249,97,24475,1,0,0:0:0:0:
249,97,24557,1,0,0:0:0:0:
249,97,24639,2,0,P|271:166|247:229,1,125,8|0,0:0|0:0,0:0:0:0:
57,110,24966,5,2,0:0:0:0:
286,34,25130,1,0,0:0:0:0:
397,148,25294,1,8,0:0:0:0:
168,72,25458,1,0,0:0:0:0:
451,75,25622,2,0,P|486:145|467:205,1,125,2|0,0:0|0:0,0:0:0:0:
351,331,25950,2,0,P|316:261|335:201,1,125,8|0,0:0|0:0,0:0:0:0:
483,253,26278,5,2,0:0:0:0:
286,361,26442,1,0,0:0:0:0:
177,266,26606,2,0,P|169:212|189:141,1,125,8|0,0:0|0:0,0:0:0:0:
369,31,26934,1,2,0:0:0:0:
375,61,27015,1,0,0:0:0:0:
376,92,27097,1,0,0:0:0:0:
370,123,27179,1,0,0:0:0:0:
359,152,27261,1,8,0:0:0:0:
119,79,27425,1,0,0:0:0:0:
119,79,27507,1,0,0:0:0:0:
119,79,27589,6,0,L|256:77,1,125,6|0,0:0|0:0,0:0:0:0:
402,259,27917,2,0,L|265:257,1,125,8|0,0:0|0:0,0:0:0:0:
74,255,28245,1,2,0:0:0:0:
280,160,28409,1,0,0:0:0:0:
192,349,28573,1,8,0:0:0:0:
136,160,28737,1,0,0:0:0:0:
300,321,28901,5,2,0:0:0:0:
56,179,29065,1,0,0:0:0:0:
355,185,29229,1,8,0:0:0:0:
95,349,29393,1,0,0:0:0:0:
206,57,29557,2,0,L|355:57,1,125,2|0,0:0|0:0,0:0:0:0:
425,61,29803,1,0,0:0:0:0:
425,61,29884,2,0,L|428:130,1,62.5,8|0,0:0|0:0,0:0:0:0:
341,256,30048,2,0,L|336:167,1,62.5,0|0,0:0|0:0,0:0:0:0:
431,335,30212,6,0,P|327:376|226:288,1,250,6|8,0:0|0:0,0:0:0:0:
199,109,30704,1,0,0:0:0:0:
341,256,30868,6,0,P|237:297|136:209,1,250,6|8,0:0|0:0,0:0:0:0:
109,30,31360,1,0,0:0:0:0:
353,131,31524,6,0,L|340:260,1,125,6|0,0:0|0:0,3:0:0:0:
121,154,31852,2,0,L|108:25,1,125,8|0,0:0|0:0,0:0:0:0:
283,41,32180,1,2,0:0:0:0:
326,41,32261,1,0,0:0:0:0:
370,41,32343,1,0,0:0:0:0:
414,41,32425,1,0,0:0:0:0:
458,41,32507,1,8,0:0:0:0:
340,255,32671,1,0,0:0:0:0:
296,255,32752,1,0,0:0:0:0:
252,255,32835,5,6,0:0:0:0:
220,253,32916,1,0,0:0:0:0:
192,241,32998,1,0,0:0:0:0:
168,221,33080,1,0,0:0:0:0:
152,195,33162,1,2,0:0:0:0:
145,164,33244,1,0,0:0:0:0:
148,133,33326,1,0,0:0:0:0:
161,105,33408,1,0,0:0:0:0:
183,83,33491,6,0,P|202:52|205:20,1,62.5,2|0,1:0|0:0,0:0:0:0:
58,121,33655,2,0,P|39:152|36:184,1,62.5
107,305,33819,1,2,0:0:0:0:
151,322,33900,1,0,0:0:0:0:
198,314,33982,1,0,0:0:0:0:
235,284,34064,1,0,0:0:0:0:
252,239,34147,6,0,P|251:204|244:177,1,62.5,2|0,0:0|0:0,0:0:0:0:
58,121,34311,2,0,P|59:167|65:193,1,62.5
207,117,34475,1,2,0:0:0:0:
248,106,34556,1,0,0:0:0:0:
290,119,34638,1,0,0:0:0:0:
319,151,34720,1,0,0:0:0:0:
327,193,34803,6,0,L|318:256,1,62.5,2|0,0:0|0:0,0:0:0:0:
192,348,34966,2,0,L|182:285,1,62.5
274,160,35130,2,0,L|334:197,2,62.5,2|0|0,0:0|0:0|0:0,0:0:0:0:
101,68,35458,6,0,P|64:122|90:213,1,150,10|2,0:0|0:0,0:0:0:0:
154,145,35786,2,0,L|318:107,1,150,10|2,0:0|0:0,0:0:0:0:
368,139,36114,6,0,B|410:276|410:276|346:357,1,225.000008583069,10|2,0:0|0:0,0:0:0:0:
332,260,36442,2,0,L|168:298,1,150,10|2,0:0|0:0,0:0:0:0:
72,343,36770,6,0,P|97:259|93:214,1,100,6|0,0:0|0:0,0:0:0:0:
66,36,37098,2,0,P|41:120|45:165,1,100,8|0,0:0|0:0,0:0:0:0:
172,200,37425,1,2,0:0:0:0:
205,209,37506,1,0,0:0:0:0:
240,211,37588,1,0,0:0:0:0:
274,205,37670,1,0,0:0:0:0:
307,192,37753,2,0,P|372:170|409:178,1,100,8|0,0:0|0:0,0:0:0:0:
478,208,37999,1,0,0:0:0:0:
478,208,38081,5,6,0:0:0:0:
403,345,38245,1,0,0:0:0:0:
403,345,38327,1,0,0:0:0:0:
403,345,38409,1,8,0:0:0:0:
314,96,38573,1,0,0:0:0:0:
237,294,38737,1,2,0:0:0:0:
150,129,38901,2,0,L|158:106,4,25,0|0|0|0|8,0:0|0:0|0:0|0:0|0:0,0:0:0:0:
92,334,39229,1,0,0:0:0:0:
92,334,39311,1,0,0:0:0:0:
92,334,39393,6,0,P|174:363|275:313,1,200,2|8,0:0|0:0,0:0:0:0:
174,227,39884,1,0,0:0:0:0:
259,116,40048,2,0,P|177:87|76:137,1,200,2|8,0:0|0:0,0:0:0:0:
306,225,40540,1,0,0:0:0:0:
385,40,40704,5,6,0:0:0:0:
125,75,40868,1,0,0:0:0:0:
125,75,40950,1,0,0:0:0:0:
125,75,41032,1,8,0:0:0:0:
240,212,41196,1,0,0:0:0:0:
276,35,41360,5,6,0:0:0:0:
98,254,41524,1,0,0:0:0:0:
98,254,41606,1,0,0:0:0:0:
98,254,41688,1,8,0:0:0:0:
330,155,41852,1,0,0:0:0:0:
37,189,42016,6,0,P|10:243|27:304,1,100,2|2,0:0|0:0,0:0:0:0:
93,343,42262,1,2,0:0:0:0:
93,343,42343,2,0,L|194:339,1,100,2|2,0:0|0:0,0:0:0:0:
372,328,42671,5,2,0:0:0:0:
378,278,42752,1,2,0:0:0:0:
384,228,42834,1,2,0:0:0:0:
390,179,42916,1,2,0:0:0:0:
326,194,42999,1,2,0:0:0:0:
319,144,43080,1,2,0:0:0:0:
313,94,43162,1,2,0:0:0:0:
307,45,43244,1,2,0:0:0:0:
381,62,43327,5,4,0:0:0:0:
