osu file format v14

[General]
AudioFilename: gay.mp3
AudioLeadIn: 0
PreviewTime: 62258
Countdown: 0
SampleSet: Normal
StackLeniency: 0.7
Mode: 1
LetterboxInBreaks: 0
WidescreenStoryboard: 0

[Editor]
DistanceSpacing: 0.9
BeatDivisor: 4
GridSize: 32
TimelineZoom: 2

[Metadata]
Title:Gayfire
TitleUnicode:Gayfire
Artist:RazQ
ArtistUnicode:RazQ
Creator:Surono
Version:Muzukashii
Source:
Tags:Knife Party Bonfire iDubbbzTV Ian Carter Gay Youtuber
BeatmapID:1393735
BeatmapSetID:657768

[Difficulty]
HPDrainRate:6
CircleSize:2
OverallDifficulty:5
ApproachRate:10
SliderMultiplier:1.4
SliderTickRate:1

[Events]
//Background and Video events
0,0,"fayah.jpg",0,-25
//Break Periods
//Storyboard Layer 0 (Background)
//Storyboard Layer 1 (Fail)
//Storyboard Layer 2 (Pass)
//Storyboard Layer 3 (Foreground)
//Storyboard Sound Samples

[TimingPoints]
5895,454.545454545455,4,1,0,80,1,0
64076,-100,4,1,0,80,0,1
78622,-100,4,1,0,80,0,0
93167,-100,4,1,0,80,0,1
107713,-100,4,1,0,80,0,0

[HitObjects]
256,192,5895,5,4,0:0:0:0:
256,192,6349,1,8,0:0:0:0:
256,192,6804,1,0,0:0:0:0:
256,192,7258,1,8,0:0:0:0:
256,192,7485,1,0,0:0:0:0:
256,192,7713,1,0,0:0:0:0:
256,192,8167,1,8,0:0:0:0:
256,192,8622,1,0,0:0:0:0:
256,192,9076,1,8,0:0:0:0:
256,192,9190,1,8,0:0:0:0:
256,192,9304,1,8,0:0:0:0:
256,192,9531,1,0,0:0:0:0:
256,192,9985,1,8,0:0:0:0:
256,192,10440,1,0,0:0:0:0:
256,192,10895,1,8,0:0:0:0:
256,192,11122,1,0,0:0:0:0:
256,192,11349,1,0,0:0:0:0:
256,192,11804,1,8,0:0:0:0:
256,192,12258,1,0,0:0:0:0:
256,192,12485,1,0,0:0:0:0:
256,192,12713,1,8,0:0:0:0:
256,192,12826,1,8,0:0:0:0:
256,192,13167,1,0,0:0:0:0:
256,192,13622,1,8,0:0:0:0:
256,192,14076,1,0,0:0:0:0:
256,192,14531,1,8,0:0:0:0:
256,192,14758,1,8,0:0:0:0:
256,192,14985,1,0,0:0:0:0:
256,192,15440,1,8,0:0:0:0:
256,192,15895,1,0,0:0:0:0:
256,192,16349,1,8,0:0:0:0:
256,192,16463,1,8,0:0:0:0:
256,192,16576,1,8,0:0:0:0:
256,192,16804,1,0,0:0:0:0:
256,192,17258,1,8,0:0:0:0:
256,192,17713,1,0,0:0:0:0:
256,192,18167,1,8,0:0:0:0:
256,192,18395,1,8,0:0:0:0:
256,192,18622,1,0,0:0:0:0:
256,192,19076,1,0,0:0:0:0:
256,192,19304,1,0,0:0:0:0:
256,192,19531,1,8,0:0:0:0:
256,192,19872,1,8,0:0:0:0:
256,192,20213,1,8,0:0:0:0:
256,192,20440,5,4,0:0:0:0:
256,192,20895,1,8,0:0:0:0:
256,192,21349,1,0,0:0:0:0:
256,192,21804,1,8,0:0:0:0:
256,192,22031,1,0,0:0:0:0:
256,192,22258,1,0,0:0:0:0:
256,192,22713,1,8,0:0:0:0:
256,192,23167,1,0,0:0:0:0:
256,192,23622,1,8,0:0:0:0:
256,192,23735,1,8,0:0:0:0:
256,192,23849,1,8,0:0:0:0:
256,192,24076,1,0,0:0:0:0:
256,192,24304,1,0,0:0:0:0:
256,192,24531,1,8,0:0:0:0:
256,192,24985,1,0,0:0:0:0:
256,192,25440,1,8,0:0:0:0:
256,192,25667,1,8,0:0:0:0:
256,192,25895,1,0,0:0:0:0:
256,192,26008,1,0,0:0:0:0:
256,192,26349,1,8,0:0:0:0:
256,192,26804,1,0,0:0:0:0:
256,192,27031,1,0,0:0:0:0:
256,192,27258,1,8,0:0:0:0:
256,192,27372,1,8,0:0:0:0:
256,192,27713,1,0,0:0:0:0:
256,192,28167,1,8,0:0:0:0:
256,192,28622,1,0,0:0:0:0:
256,192,29076,1,8,0:0:0:0:
256,192,29304,1,8,0:0:0:0:
256,192,29531,1,0,0:0:0:0:
256,192,29985,1,8,0:0:0:0:
256,192,30440,1,0,0:0:0:0:
256,192,30895,1,8,0:0:0:0:
256,192,31008,1,8,0:0:0:0:
256,192,31122,1,8,0:0:0:0:
256,192,31349,1,0,0:0:0:0:
256,192,31576,1,0,0:0:0:0:
256,192,31804,1,8,0:0:0:0:
256,192,32258,1,0,0:0:0:0:
256,192,32713,1,8,0:0:0:0:
256,192,32940,1,8,0:0:0:0:
256,192,33167,1,0,0:0:0:0:
256,192,33622,1,0,0:0:0:0:
256,192,33849,1,0,0:0:0:0:
256,192,34076,1,8,0:0:0:0:
256,192,34417,1,8,0:0:0:0:
256,192,34758,1,8,0:0:0:0:
256,192,34985,1,4,0:0:0:0:
256,192,35440,1,8,0:0:0:0:
256,192,35895,1,8,0:0:0:0:
256,192,36576,1,8,0:0:0:0:
256,192,36804,1,8,0:0:0:0:
256,192,37258,1,8,0:0:0:0:
256,192,37713,1,8,0:0:0:0:
256,192,38395,1,8,0:0:0:0:
256,192,38622,1,8,0:0:0:0:
256,192,39076,1,0,0:0:0:0:
256,192,39531,1,0,0:0:0:0:
256,192,40213,1,0,0:0:0:0:
256,192,40440,1,0,0:0:0:0:
256,192,40895,1,0,0:0:0:0:
256,192,41349,1,0,0:0:0:0:
256,192,41576,1,0,0:0:0:0:
256,192,42258,1,0,0:0:0:0:
256,192,42713,1,8,0:0:0:0:
256,192,42940,1,8,0:0:0:0:
256,192,43167,1,0,0:0:0:0:
256,192,43622,1,8,0:0:0:0:
256,192,44076,1,0,0:0:0:0:
256,192,44531,1,8,0:0:0:0:
256,192,44758,1,8,0:0:0:0:
256,192,44985,1,0,0:0:0:0:
256,192,45440,1,8,0:0:0:0:
256,192,45895,1,0,0:0:0:0:
256,192,46349,1,8,0:0:0:0:
256,192,46576,1,8,0:0:0:0:
256,192,46804,1,0,0:0:0:0:
256,192,47258,1,8,0:0:0:0:
256,192,47713,1,0,0:0:0:0:
256,192,48167,1,8,0:0:0:0:
256,192,48395,1,8,0:0:0:0:
256,192,48622,1,0,0:0:0:0:
256,192,49076,1,8,0:0:0:0:
256,192,49531,1,4,0:0:0:0:
256,192,49985,1,8,0:0:0:0:
256,192,50213,1,0,0:0:0:0:
256,192,50440,1,8,0:0:0:0:
256,192,50895,1,0,0:0:0:0:
256,192,51122,1,8,0:0:0:0:
256,192,51235,1,8,0:0:0:0:
256,192,51349,1,8,0:0:0:0:
256,192,51804,1,8,0:0:0:0:
256,192,52031,1,8,0:0:0:0:
256,192,52258,1,0,0:0:0:0:
256,192,52599,1,0,0:0:0:0:
256,192,52940,1,8,0:0:0:0:
256,192,53167,1,4,0:0:0:0:
256,192,53622,1,8,0:0:0:0:
256,192,53849,1,0,0:0:0:0:
256,192,54076,1,8,0:0:0:0:
256,192,54531,1,0,0:0:0:0:
256,192,54758,1,8,0:0:0:0:
256,192,54872,1,8,0:0:0:0:
256,192,54985,1,8,0:0:0:0:
256,192,55440,1,8,0:0:0:0:
256,192,55667,1,8,0:0:0:0:
256,192,55895,1,0,0:0:0:0:
256,192,56122,1,0,0:0:0:0:
256,192,56349,1,8,0:0:0:0:
256,192,56804,5,4,0:0:0:0:
256,192,57258,1,8,0:0:0:0:
256,192,57485,1,8,0:0:0:0:
256,192,57713,1,4,0:0:0:0:
256,192,58167,1,8,0:0:0:0:
256,192,58395,1,8,0:0:0:0:
256,192,58622,1,4,0:0:0:0:
256,192,59076,1,8,0:0:0:0:
256,192,59304,1,8,0:0:0:0:
256,192,59531,1,4,0:0:0:0:
256,192,59985,1,4,0:0:0:0:
256,192,60440,1,4,0:0:0:0:
256,192,60895,1,4,0:0:0:0:
256,192,61349,1,0,0:0:0:0:
256,192,61576,1,0,0:0:0:0:
256,192,61804,1,8,0:0:0:0:
256,192,62031,1,8,0:0:0:0:
256,192,62258,1,4,0:0:0:0:
256,192,62485,2,0,L|224:160,6,35
256,192,64076,1,12,0:0:0:0:
256,192,64531,1,8,0:0:0:0:
256,192,64645,1,8,0:0:0:0:
256,192,64758,1,8,0:0:0:0:
256,192,64985,1,0,0:0:0:0:
256,192,65440,1,0,0:0:0:0:
256,192,65667,1,8,0:0:0:0:
256,192,65895,1,0,0:0:0:0:
256,192,66349,1,8,0:0:0:0:
256,192,66463,1,8,0:0:0:0:
256,192,66576,1,8,0:0:0:0:
256,192,66804,1,0,0:0:0:0:
256,192,67258,1,8,0:0:0:0:
256,192,67485,1,0,0:0:0:0:
256,192,67713,1,0,0:0:0:0:
256,192,68167,1,8,0:0:0:0:
256,192,68395,1,8,0:0:0:0:
256,192,68622,1,0,0:0:0:0:
256,192,68735,1,0,0:0:0:0:
256,192,68849,1,0,0:0:0:0:
256,192,69076,1,8,0:0:0:0:
256,192,69304,1,8,0:0:0:0:
256,192,69531,1,0,0:0:0:0:
256,192,69985,1,8,0:0:0:0:
256,192,70213,1,8,0:0:0:0:
256,192,70440,1,0,0:0:0:0:
256,192,70895,1,8,0:0:0:0:
256,192,71122,1,4,0:0:0:0:
256,192,71349,1,12,0:0:0:0:
256,192,71804,1,8,0:0:0:0:
256,192,71917,1,8,0:0:0:0:
256,192,72031,1,8,0:0:0:0:
256,192,72258,1,0,0:0:0:0:
256,192,72713,1,0,0:0:0:0:
256,192,72940,1,8,0:0:0:0:
256,192,73167,1,0,0:0:0:0:
256,192,73622,1,8,0:0:0:0:
256,192,73735,1,8,0:0:0:0:
256,192,73849,1,8,0:0:0:0:
256,192,74076,1,0,0:0:0:0:
256,192,74531,1,8,0:0:0:0:
256,192,74758,1,0,0:0:0:0:
256,192,74985,1,0,0:0:0:0:
256,192,75440,1,8,0:0:0:0:
256,192,75667,1,8,0:0:0:0:
256,192,75895,1,0,0:0:0:0:
256,192,76008,1,0,0:0:0:0:
256,192,76122,1,0,0:0:0:0:
256,192,76349,1,8,0:0:0:0:
256,192,76576,1,8,0:0:0:0:
256,192,76804,1,0,0:0:0:0:
256,192,77258,1,0,0:0:0:0:
256,192,77372,1,0,0:0:0:0:
256,192,77485,1,0,0:0:0:0:
256,192,77713,1,8,0:0:0:0:
256,192,77940,1,0,0:0:0:0:
256,192,78395,1,8,0:0:0:0:
256,192,78622,1,4,0:0:0:0:
256,192,79076,1,8,0:0:0:0:
256,192,79304,1,0,0:0:0:0:
256,192,79417,1,0,0:0:0:0:
256,192,79531,1,0,0:0:0:0:
256,192,79758,1,0,0:0:0:0:
256,192,79985,1,8,0:0:0:0:
256,192,80440,1,0,0:0:0:0:
256,192,80895,1,8,0:0:0:0:
256,192,81122,1,8,0:0:0:0:
256,192,81235,1,8,0:0:0:0:
256,192,81349,1,8,0:0:0:0:
256,192,81576,1,0,0:0:0:0:
256,192,81804,1,8,0:0:0:0:
256,192,82258,1,0,0:0:0:0:
256,192,82713,1,8,0:0:0:0:
256,192,82940,1,0,0:0:0:0:
256,192,83054,1,0,0:0:0:0:
256,192,83167,1,0,0:0:0:0:
256,192,83395,1,0,0:0:0:0:
256,192,83622,1,8,0:0:0:0:
256,192,84076,1,0,0:0:0:0:
256,192,84531,1,8,0:0:0:0:
256,192,84758,1,8,0:0:0:0:
256,192,84985,1,0,0:0:0:0:
256,192,85213,1,8,0:0:0:0:
256,192,85326,1,8,0:0:0:0:
256,192,85440,1,8,0:0:0:0:
256,192,85667,1,0,0:0:0:0:
256,192,85895,1,4,0:0:0:0:
256,192,86349,1,8,0:0:0:0:
256,192,86576,1,0,0:0:0:0:
256,192,86690,1,0,0:0:0:0:
256,192,86804,1,0,0:0:0:0:
256,192,87031,1,0,0:0:0:0:
256,192,87258,1,8,0:0:0:0:
256,192,87713,1,0,0:0:0:0:
256,192,88167,1,8,0:0:0:0:
256,192,88395,1,8,0:0:0:0:
256,192,88508,1,8,0:0:0:0:
256,192,88622,1,8,0:0:0:0:
256,192,88849,1,0,0:0:0:0:
256,192,89076,1,8,0:0:0:0:
256,192,89531,1,0,0:0:0:0:
256,192,89985,1,8,0:0:0:0:
256,192,90213,1,0,0:0:0:0:
256,192,90326,1,0,0:0:0:0:
256,192,90440,1,0,0:0:0:0:
256,192,90667,1,0,0:0:0:0:
256,192,90895,1,8,0:0:0:0:
256,192,91349,1,12,0:0:0:0:
256,192,91804,2,0,L|256:128,4,35
256,192,93167,5,12,0:0:0:0:
256,192,93622,1,8,0:0:0:0:
256,192,93735,1,8,0:0:0:0:
256,192,93849,1,8,0:0:0:0:
256,192,94076,1,0,0:0:0:0:
256,192,94531,1,0,0:0:0:0:
256,192,94758,1,8,0:0:0:0:
256,192,94985,1,0,0:0:0:0:
256,192,95440,1,8,0:0:0:0:
256,192,95554,1,8,0:0:0:0:
256,192,95667,1,8,0:0:0:0:
256,192,95895,1,0,0:0:0:0:
256,192,96349,1,8,0:0:0:0:
256,192,96576,1,0,0:0:0:0:
256,192,96804,1,0,0:0:0:0:
256,192,97258,1,8,0:0:0:0:
256,192,97485,1,8,0:0:0:0:
256,192,97713,1,0,0:0:0:0:
256,192,97826,1,0,0:0:0:0:
256,192,97940,1,0,0:0:0:0:
256,192,98167,1,8,0:0:0:0:
256,192,98395,1,8,0:0:0:0:
256,192,98622,1,0,0:0:0:0:
256,192,99076,1,8,0:0:0:0:
256,192,99304,1,8,0:0:0:0:
256,192,99531,1,0,0:0:0:0:
256,192,99985,1,8,0:0:0:0:
256,192,100213,1,4,0:0:0:0:
256,192,100440,1,12,0:0:0:0:
256,192,100895,1,8,0:0:0:0:
256,192,101008,1,8,0:0:0:0:
256,192,101122,1,8,0:0:0:0:
256,192,101349,1,0,0:0:0:0:
256,192,101804,1,0,0:0:0:0:
256,192,102031,1,8,0:0:0:0:
256,192,102258,1,0,0:0:0:0:
256,192,102713,1,8,0:0:0:0:
256,192,102826,1,8,0:0:0:0:
256,192,102940,1,8,0:0:0:0:
256,192,103167,1,0,0:0:0:0:
256,192,103622,1,8,0:0:0:0:
256,192,103849,1,0,0:0:0:0:
256,192,104076,1,0,0:0:0:0:
256,192,104531,1,8,0:0:0:0:
256,192,104758,1,8,0:0:0:0:
256,192,104985,1,0,0:0:0:0:
256,192,105099,1,0,0:0:0:0:
256,192,105213,1,0,0:0:0:0:
256,192,105440,1,8,0:0:0:0:
256,192,105667,1,8,0:0:0:0:
256,192,105895,1,0,0:0:0:0:
256,192,106349,2,0,L|256:256,4,35
256,192,107713,5,4,0:0:0:0:
256,192,108167,1,8,0:0:0:0:
256,192,108622,1,0,0:0:0:0:
256,192,109076,1,8,0:0:0:0:
256,192,109304,1,0,0:0:0:0:
256,192,109531,1,0,0:0:0:0:
256,192,109985,1,8,0:0:0:0:
256,192,110440,1,0,0:0:0:0:
256,192,110895,1,8,0:0:0:0:
256,192,111008,1,8,0:0:0:0:
256,192,111122,1,8,0:0:0:0:
256,192,111349,1,0,0:0:0:0:
256,192,111804,1,8,0:0:0:0:
256,192,112258,1,0,0:0:0:0:
256,192,112713,1,8,0:0:0:0:
256,192,112940,1,0,0:0:0:0:
256,192,113167,1,0,0:0:0:0:
256,192,113622,1,8,0:0:0:0:
256,192,114076,1,0,0:0:0:0:
256,192,114304,1,0,0:0:0:0:
256,192,114531,1,8,0:0:0:0:
256,192,114645,1,8,0:0:0:0:
256,192,114985,1,0,0:0:0:0:
256,192,115440,1,8,0:0:0:0:
256,192,115895,1,0,0:0:0:0:
256,192,116349,1,8,0:0:0:0:
256,192,116576,1,8,0:0:0:0:
256,192,116804,1,0,0:0:0:0:
256,192,117258,1,8,0:0:0:0:
256,192,117713,1,0,0:0:0:0:
256,192,118167,1,8,0:0:0:0:
256,192,118281,1,8,0:0:0:0:
256,192,118395,1,8,0:0:0:0:
256,192,118622,1,0,0:0:0:0:
256,192,119076,1,8,0:0:0:0:
256,192,119531,1,0,0:0:0:0:
256,192,119985,1,8,0:0:0:0:
256,192,120213,1,8,0:0:0:0:
256,192,120440,1,0,0:0:0:0:
256,192,120895,1,0,0:0:0:0:
256,192,121122,1,0,0:0:0:0:
256,192,121349,1,8,0:0:0:0:
256,192,121690,1,8,0:0:0:0:
256,192,122031,1,8,0:0:0:0:
256,192,122258,5,4,0:0:0:0:
256,192,122713,1,8,0:0:0:0:
256,192,123167,1,0,0:0:0:0:
256,192,123622,1,8,0:0:0:0:
256,192,123849,1,0,0:0:0:0:
256,192,124076,1,0,0:0:0:0:
256,192,124531,1,8,0:0:0:0:
256,192,124985,1,0,0:0:0:0:
256,192,125440,1,8,0:0:0:0:
256,192,125554,1,8,0:0:0:0:
256,192,125667,1,8,0:0:0:0:
256,192,125895,1,0,0:0:0:0:
256,192,126122,1,0,0:0:0:0:
256,192,126349,1,8,0:0:0:0:
256,192,126804,1,0,0:0:0:0:
256,192,127258,1,8,0:0:0:0:
256,192,127485,1,8,0:0:0:0:
256,192,127713,1,0,0:0:0:0:
256,192,127826,1,0,0:0:0:0:
256,192,128167,1,8,0:0:0:0:
256,192,128622,1,0,0:0:0:0:
256,192,128849,1,0,0:0:0:0:
256,192,129076,1,8,0:0:0:0:
256,192,129190,1,8,0:0:0:0:
256,192,129531,1,0,0:0:0:0:
256,192,129985,1,8,0:0:0:0:
256,192,130440,1,0,0:0:0:0:
256,192,130895,1,8,0:0:0:0:
256,192,131122,1,8,0:0:0:0:
256,192,131349,1,0,0:0:0:0:
256,192,131804,1,8,0:0:0:0:
256,192,132258,1,0,0:0:0:0:
256,192,132713,1,8,0:0:0:0:
256,192,132826,1,8,0:0:0:0:
256,192,132940,1,8,0:0:0:0:
256,192,133167,1,0,0:0:0:0:
256,192,133395,1,0,0:0:0:0:
256,192,133622,1,8,0:0:0:0:
256,192,134076,1,0,0:0:0:0:
256,192,134531,1,8,0:0:0:0:
256,192,134985,1,4,0:0:0:0:
256,192,135440,1,8,0:0:0:0:
256,192,135895,1,0,0:0:0:0:
256,192,136122,1,0,0:0:0:0:
256,192,136235,1,0,0:0:0:0:
256,192,136349,1,0,0:0:0:0:
256,192,136576,1,8,0:0:0:0:
256,192,136804,1,12,0:0:0:0:
