osu file format v14

[General]
AudioFilename: audio.mp3
AudioLeadIn: 0
PreviewTime: 74102
Countdown: 1
SampleSet: Normal
StackLeniency: 0.7
Mode: 0
LetterboxInBreaks: 0
WidescreenStoryboard: 0

[Editor]
Bookmarks: 2124,21069,31742,42416,53089,54173,63762,74435,90445,101118,111791,122465,133138,143811
DistanceSpacing: 1.6
BeatDivisor: 4
GridSize: 16
TimelineZoom: 2.1

[Metadata]
Title:Ismon Kirotut Lempikeksit - AIH-OIH Disco
TitleUnicode:Ismon Kirotut Lempikeksit - AIH-OIH Disco
Artist:RazQ & Urppis
ArtistUnicode:RazQ & Urppis
Creator:Maakkeli
Version:ISMON KIROUS
Source:
Tags:homo ismo owc suomi 2069 666 huono_tuuri
BeatmapID:1132428
BeatmapSetID:534607

[Difficulty]
HPDrainRate:5
CircleSize:4.1
OverallDifficulty:9
ApproachRate:9.5
SliderMultiplier:1.7
SliderTickRate:2

[Events]
//Background and Video events
0,0,"aihoih.jpg",0,0
//Break Periods
//Storyboard Layer 0 (Background)
//Storyboard Layer 1 (Fail)
//Storyboard Layer 2 (Pass)
//Storyboard Layer 3 (Foreground)
//Storyboard Sound Samples

[TimingPoints]
2124,366.97247706422,4,1,0,70,1,0
5060,333.537161598755,4,1,0,70,1,0
14732,-100,4,1,0,70,0,0
15066,-66.6666666666667,4,1,0,70,0,0
15399,-50,4,1,0,70,0,0
15733,-100,4,1,0,70,0,0
21069,-86.9565217391304,4,1,0,70,0,0
61761,-66.6666666666667,4,1,0,70,0,0
63762,-86.9565217391304,4,1,0,70,0,0
76436,-68.9655172413793,4,1,0,70,0,0
76770,-57.1428571428571,4,1,0,70,0,0
77104,-100,4,1,0,70,0,0
81773,-68.9655172413793,4,1,0,70,0,0
82107,-57.1428571428571,4,1,0,70,0,0
82440,-66.6666666666667,4,1,0,70,0,0
83774,-50,4,1,0,70,0,0
85108,-83.3333333333333,4,1,0,70,0,0
90779,-33.3333333333333,4,1,0,70,0,0
91112,-83.3333333333333,4,1,0,70,0,0
115794,-86.9565217391304,4,1,0,70,0,0
117128,-83.3333333333333,4,1,0,70,0,0

[HitObjects]
234,64,2123,6,0,B|282:112|282:112|378:112|378:112|378:208,1,255
298,202,2857,2,0,B|218:202|218:202|218:266|218:266|106:266,1,255
256,192,3591,12,0,4692,0:0:0:0:
97,80,5059,6,0,B|109:123|109:123|151:132,1,85
63,312,5393,1,0,0:0:0:0:
235,172,5560,1,0,0:0:0:0:
404,314,5727,1,0,0:0:0:0:
382,280,5893,2,0,B|416:246|416:246|364:206|386:131,1,170
251,230,6394,5,0,0:0:0:0:
255,259,6477,1,0,0:0:0:0:
259,288,6560,1,0,0:0:0:0:
117,187,6727,2,0,B|117:251|117:251|165:283|165:283|165:347,2,170
118,108,7561,1,0,0:0:0:0:
211,105,7728,6,0,L|325:101,1,85
226,179,8061,1,0,0:0:0:0:
412,197,8228,1,0,0:0:0:0:
241,253,8395,1,0,0:0:0:0:
455,320,8562,1,0,0:0:0:0:
379,58,8728,5,0,0:0:0:0:
340,61,8812,1,0,0:0:0:0:
302,64,8895,2,0,B|257:44|257:44|225:120|124:103,1,170
76,262,9395,2,0,P|110:232|179:236,1,85
402,48,9729,6,0,P|412:78|437:93,1,42.5
127,132,10063,1,0,0:0:0:0:
139,185,10146,1,0,0:0:0:0:
151,238,10229,1,0,0:0:0:0:
296,58,10396,5,0,0:0:0:0:
420,319,10563,1,0,0:0:0:0:
205,125,10730,1,0,0:0:0:0:
315,160,10896,1,0,0:0:0:0:
348,165,10980,1,0,0:0:0:0:
381,170,11063,2,0,P|373:222|325:271,1,85
150,189,11397,1,0,0:0:0:0:
177,231,11480,1,0,0:0:0:0:
204,273,11563,1,0,0:0:0:0:
283,147,11730,5,0,0:0:0:0:
377,327,11897,1,0,0:0:0:0:
304,120,12064,1,0,0:0:0:0:
81,112,12231,1,0,0:0:0:0:
325,93,12397,1,0,0:0:0:0:
377,327,12564,1,0,0:0:0:0:
346,66,12731,1,0,0:0:0:0:
81,112,12898,1,0,0:0:0:0:
367,39,13064,6,0,P|377:123|452:174,1,170
308,291,13565,1,0,0:0:0:0:
278,287,13648,1,0,0:0:0:0:
248,283,13731,2,0,P|201:237|151:228,1,85
263,60,14065,1,0,0:0:0:0:
300,87,14148,1,0,0:0:0:0:
338,114,14232,1,0,0:0:0:0:
399,286,14399,6,0,P|345:268|279:270,1,85
240,256,14732,6,0,L|144:288,1,85
224,224,15066,2,0,L|96:224,1,127.500004863739
208,192,15399,2,0,L|16:144,1,170
53,117,15649,1,0,0:0:0:0:
64,80,15733,2,0,P|144:64|256:80,1,170
384,256,16233,1,0,0:0:0:0:
358,252,16316,1,0,0:0:0:0:
334,262,16400,2,0,P|258:219|230:222,1,85
177,79,16733,1,0,0:0:0:0:
177,79,16900,1,0,0:0:0:0:
382,54,17067,5,0,0:0:0:0:
90,138,17234,1,0,0:0:0:0:
448,323,17400,1,0,0:0:0:0:
382,54,17567,1,0,0:0:0:0:
297,59,17734,2,0,B|252:62|252:62|268:129|250:200,1,170
223,258,18234,1,0,0:0:0:0:
102,321,18401,5,0,0:0:0:0:
161,91,18568,1,0,0:0:0:0:
102,321,18735,1,0,0:0:0:0:
262,57,18901,1,0,0:0:0:0:
311,198,19068,5,0,0:0:0:0:
381,184,19235,5,0,0:0:0:0:
452,171,19402,5,0,0:0:0:0:
376,76,19568,6,0,P|319:93|202:71,1,170
184,103,19985,1,0,0:0:0:0:
162,135,20069,1,0,0:0:0:0:
152,171,20152,1,0,0:0:0:0:
150,209,20235,1,0,0:0:0:0:
161,245,20319,1,0,0:0:0:0:
183,275,20402,1,0,0:0:0:0:
218,290,20486,1,0,0:0:0:0:
256,290,20569,1,0,0:0:0:0:
292,279,20652,1,0,0:0:0:0:
326,261,20736,1,0,0:0:0:0:
354,235,20819,1,0,0:0:0:0:
375,203,20903,1,0,0:0:0:0:
389,167,20986,1,0,0:0:0:0:
394,129,21069,6,0,L|497:121,1,97.7500018644333
270,13,21403,1,0,0:0:0:0:
156,172,21570,1,0,0:0:0:0:
107,177,21653,1,0,0:0:0:0:
58,182,21736,5,0,0:0:0:0:
246,123,21903,1,0,0:0:0:0:
0,91,22070,5,0,0:0:0:0:
0,91,22237,1,0,0:0:0:0:
359,122,22403,5,0,0:0:0:0:
172,184,22570,1,0,0:0:0:0:
455,155,22737,6,0,P|455:109|438:56,1,97.7500018644333
431,55,22987,1,0,0:0:0:0:
422,50,23071,1,0,0:0:0:0:
258,22,23237,1,0,0:0:0:0:
415,261,23404,2,0,L|538:251,1,97.7500018644333
182,197,23738,6,0,P|165:247|165:312,1,97.7500018644333
321,174,24071,1,0,0:0:0:0:
133,116,24238,1,0,0:0:0:0:
130,67,24321,1,0,0:0:0:0:
127,17,24405,5,0,0:0:0:0:
169,206,24571,1,0,0:0:0:0:
21,108,24738,1,0,0:0:0:0:
21,108,24822,1,0,0:0:0:0:
21,108,24905,1,0,0:0:0:0:
162,291,25072,6,0,L|284:281,1,97.7500018644333
365,62,25405,1,0,0:0:0:0:
469,207,25572,1,0,0:0:0:0:
469,207,25655,1,0,0:0:0:0:
469,207,25739,5,0,0:0:0:0:
366,40,25906,1,0,0:0:0:0:
259,283,26072,1,0,0:0:0:0:
157,115,26239,5,0,0:0:0:0:
84,111,26322,1,0,0:0:0:0:
10,107,26406,2,0,B|45:91|45:91|223:100,1,195.500003728867
361,342,26906,5,0,0:0:0:0:
434,345,26990,1,0,0:0:0:0:
506,349,27073,1,0,0:0:0:0:
344,127,27240,1,0,0:0:0:0:
233,263,27406,1,0,0:0:0:0:
454,187,27573,1,0,0:0:0:0:
454,187,27657,1,0,0:0:0:0:
454,187,27740,6,0,B|472:143|472:143|463:80,1,97.7500018644333
214,278,28074,2,0,P|268:273|330:271,1,97.7500018644333
319,277,28324,1,0,0:0:0:0:
326,282,28407,2,0,B|276:158|276:158|296:68,1,195.500003728867
147,342,28907,5,0,0:0:0:0:
73,348,28991,1,0,0:0:0:0:
0,355,29074,2,0,B|26:368|26:368|121:361,1,97.7500018644333
217,90,29408,5,0,0:0:0:0:
272,308,29574,1,0,0:0:0:0:
307,5,29741,5,0,0:0:0:0:
210,208,29908,1,0,0:0:0:0:
372,98,30075,1,0,0:0:0:0:
252,323,30242,6,0,B|124:349|191:276|41:310,1,195.500003728867
60,314,30658,1,0,0:0:0:0:
57,323,30742,1,0,0:0:0:0:
191,185,30909,1,0,0:0:0:0:
194,194,30993,1,0,0:0:0:0:
197,203,31076,5,0,0:0:0:0:
217,158,31159,1,0,0:0:0:0:
260,136,31242,1,0,0:0:0:0:
308,146,31326,1,0,0:0:0:0:
355,201,31409,5,0,0:0:0:0:
325,161,31492,1,0,0:0:0:0:
334,112,31576,1,0,0:0:0:0:
375,86,31659,1,0,0:0:0:0:
422,97,31742,6,0,P|365:48|300:43,1,97.7500018644333
130,142,32076,1,0,0:0:0:0:
138,62,32243,1,0,0:0:0:0:
327,200,32410,6,0,P|289:226|207:228,1,97.7500018644333
223,98,32743,1,0,0:0:0:0:
103,164,32910,1,0,0:0:0:0:
156,324,33077,5,0,0:0:0:0:
414,234,33243,1,0,0:0:0:0:
195,82,33410,1,0,0:0:0:0:
156,324,33577,1,0,0:0:0:0:
414,234,33744,1,0,0:0:0:0:
195,82,33910,1,0,0:0:0:0:
294,56,34077,6,0,B|286:91|286:91|355:135,1,97.7500018644333
419,170,34411,1,0,0:0:0:0:
318,290,34578,1,0,0:0:0:0:
243,153,34744,1,0,0:0:0:0:
110,236,34911,1,0,0:0:0:0:
116,62,35078,6,0,L|226:63,1,97.7500018644333
240,98,35328,1,0,0:0:0:0:
266,133,35411,2,0,L|164:190,1,97.7500018644333
184,225,35662,1,0,0:0:0:0:
188,268,35745,2,0,L|300:271,1,97.7500018644333
329,273,35995,1,0,0:0:0:0:
372,275,36078,2,0,P|358:212|372:146,1,97.7500018644333
358,54,36412,1,0,0:0:0:0:
389,77,36579,1,0,0:0:0:0:
112,64,36746,6,0,P|131:113|131:172,1,97.7500018644333
391,189,37079,1,0,0:0:0:0:
110,260,37246,1,0,0:0:0:0:
426,269,37413,1,0,0:0:0:0:
395,293,37579,1,0,0:0:0:0:
358,56,37746,6,0,P|288:81|233:83,1,97.7500018644333
168,96,38080,1,0,0:0:0:0:
323,296,38246,1,0,0:0:0:0:
78,226,38413,5,0,0:0:0:0:
120,215,38497,1,0,0:0:0:0:
162,204,38580,1,0,0:0:0:0:
348,63,38747,1,0,0:0:0:0:
430,68,38914,2,0,P|398:130|349:143,1,97.7500018644333
293,195,39247,1,0,0:0:0:0:
247,281,39414,1,0,0:0:0:0:
154,311,39581,1,0,0:0:0:0:
160,160,39747,5,0,0:0:0:0:
352,224,39914,1,0,0:0:0:0:
192,64,40081,1,0,0:0:0:0:
320,320,40248,1,0,0:0:0:0:
384,160,40414,5,0,0:0:0:0:
128,224,40581,1,0,0:0:0:0:
416,64,40748,1,0,0:0:0:0:
96,320,40915,1,0,0:0:0:0:
96,128,41082,5,0,0:0:0:0:
416,256,41248,1,0,0:0:0:0:
64,32,41415,1,0,0:0:0:0:
448,352,41582,1,0,0:0:0:0:
240,64,41749,5,0,0:0:0:0:
256,80,41832,1,0,0:0:0:0:
272,96,41915,1,0,0:0:0:0:
256,304,42082,2,0,P|240:240|256:176,1,97.7500018644333
130,352,42416,6,0,L|15:359,1,97.7500018644333
243,209,42749,1,0,0:0:0:0:
50,173,42916,1,0,0:0:0:0:
50,173,42999,1,0,0:0:0:0:
50,173,43083,2,0,P|36:130|35:75,1,97.7500018644333
221,214,43416,1,0,0:0:0:0:
9,267,43583,1,0,0:0:0:0:
193,103,43750,5,0,0:0:0:0:
283,296,43917,1,0,0:0:0:0:
379,171,44083,2,0,B|427:154|427:154|491:162,1,97.7500018644333
479,167,44334,1,0,0:0:0:0:
484,174,44417,1,0,0:0:0:0:
512,318,44584,1,0,0:0:0:0:
289,220,44750,2,0,L|276:102,1,97.7500018644333
197,308,45084,6,0,B|124:311|124:311|82:285|82:285|-6:289,1,195.500003728867
199,151,45584,1,0,0:0:0:0:
342,356,45751,2,0,P|385:351|445:348,1,97.7500018644333
210,319,46085,1,0,0:0:0:0:
402,260,46251,1,0,0:0:0:0:
137,237,46418,5,0,0:0:0:0:
124,216,46501,1,0,0:0:0:0:
119,191,46585,1,0,0:0:0:0:
120,166,46668,1,0,0:0:0:0:
82,134,46752,5,0,0:0:0:0:
95,113,46835,1,0,0:0:0:0:
100,88,46919,1,0,0:0:0:0:
99,63,47002,1,0,0:0:0:0:
59,1,47085,5,0,0:0:0:0:
86,41,47169,1,0,0:0:0:0:
131,56,47252,1,0,0:0:0:0:
177,40,47335,1,0,0:0:0:0:
240,77,47419,5,0,0:0:0:0:
267,37,47503,1,0,0:0:0:0:
312,22,47586,1,0,0:0:0:0:
358,38,47669,1,0,0:0:0:0:
401,96,47752,6,0,L|404:-15,1,97.7500018644333
233,156,48086,1,0,0:0:0:0:
387,220,48253,1,0,0:0:0:0:
387,220,48336,1,0,0:0:0:0:
387,220,48419,1,0,0:0:0:0:
130,250,48586,1,0,0:0:0:0:
130,250,48753,2,0,L|18:254,1,97.7500018644333
298,214,49086,6,0,P|312:171|309:99,1,97.7500018644333
166,59,49420,1,0,0:0:0:0:
231,274,49587,1,0,0:0:0:0:
231,274,49670,1,0,0:0:0:0:
231,274,49753,1,0,0:0:0:0:
97,163,49920,1,0,0:0:0:0:
316,231,50087,1,0,0:0:0:0:
133,319,50254,1,0,0:0:0:0:
133,319,50337,1,0,0:0:0:0:
133,319,50421,6,0,L|13:324,1,97.7500018644333
207,135,50754,1,0,0:0:0:0:
311,346,50921,1,0,0:0:0:0:
359,349,51004,1,0,0:0:0:0:
408,352,51088,5,0,0:0:0:0:
75,219,51338,1,0,0:0:0:0:
424,132,51588,1,0,0:0:0:0:
213,229,51755,5,0,0:0:0:0:
377,277,51921,1,0,0:0:0:0:
377,277,52005,1,0,0:0:0:0:
377,277,52088,1,0,0:0:0:0:
285,105,52255,1,0,0:0:0:0:
285,105,52338,1,0,0:0:0:0:
285,105,52422,5,0,0:0:0:0:
257,145,52505,1,0,0:0:0:0:
209,158,52589,1,0,0:0:0:0:
165,135,52672,1,0,0:0:0:0:
217,85,52755,5,0,0:0:0:0:
237,129,52839,1,0,0:0:0:0:
226,176,52922,1,0,0:0:0:0:
186,204,53005,1,0,0:0:0:0:
165,135,53089,2,0,P|116:108|46:108,1,97.7500018644333
83,238,53422,1,0,0:0:0:0:
83,238,53589,1,0,0:0:0:0:
221,329,53756,2,0,P|262:265|312:243,1,97.7500018644333
392,132,54089,1,0,0:0:0:0:
392,132,54256,1,0,0:0:0:0:
263,47,54423,5,0,0:0:0:0:
271,89,54506,1,0,0:0:0:0:
279,132,54590,1,0,0:0:0:0:
133,117,54757,1,0,0:0:0:0:
118,158,54840,1,0,0:0:0:0:
104,199,54923,1,0,0:0:0:0:
245,253,55090,1,0,0:0:0:0:
270,288,55173,1,0,0:0:0:0:
295,324,55257,1,0,0:0:0:0:
418,140,55424,1,0,0:0:0:0:
375,129,55507,1,0,0:0:0:0:
332,118,55590,1,0,0:0:0:0:
121,52,55757,5,0,0:0:0:0:
94,201,55924,1,0,0:0:0:0:
202,99,56091,1,0,0:0:0:0:
211,291,56257,1,0,0:0:0:0:
292,102,56424,1,0,0:0:0:0:
368,321,56591,1,0,0:0:0:0:
374,68,56758,1,0,0:0:0:0:
374,68,56925,1,0,0:0:0:0:
73,90,57091,5,0,0:0:0:0:
81,138,57175,1,0,0:0:0:0:
89,185,57258,1,0,0:0:0:0:
212,138,57425,1,0,0:0:0:0:
205,186,57508,1,0,0:0:0:0:
199,234,57592,1,0,0:0:0:0:
326,199,57758,1,0,0:0:0:0:
340,246,57842,1,0,0:0:0:0:
354,292,57925,1,0,0:0:0:0:
402,296,58009,1,0,0:0:0:0:
445,274,58092,1,0,0:0:0:0:
466,230,58175,1,0,0:0:0:0:
471,181,58259,1,0,0:0:0:0:
454,135,58342,1,0,0:0:0:0:
421,98,58425,6,0,P|353:107|278:98,1,97.7500018644333
100,87,58759,1,0,0:0:0:0:
157,248,58926,1,0,0:0:0:0:
231,87,59093,2,0,P|297:80|345:92,1,97.7500018644333
326,221,59426,1,0,0:0:0:0:
437,295,59593,1,0,0:0:0:0:
266,339,59760,5,0,0:0:0:0:
252,252,59926,1,0,0:0:0:0:
67,252,60093,1,0,0:0:0:0:
83,165,60260,1,0,0:0:0:0:
251,149,60427,1,0,0:0:0:0:
228,64,60593,1,0,0:0:0:0:
407,141,60760,1,0,0:0:0:0:
444,61,60927,1,0,0:0:0:0:
73,32,61094,6,0,P|79:97|71:137,1,97.7500018644333
166,183,61427,1,0,0:0:0:0:
166,183,61594,1,0,0:0:0:0:
210,282,61761,2,0,P|298:232|378:227,2,127.500004863739
71,258,62261,1,0,0:0:0:0:
71,93,62428,5,0,0:0:0:0:
90,125,62511,1,0,0:0:0:0:
121,146,62595,1,0,0:0:0:0:
157,155,62678,1,0,0:0:0:0:
191,140,62761,1,0,0:0:0:0:
229,136,62845,1,0,0:0:0:0:
265,148,62928,1,0,0:0:0:0:
292,175,63012,1,0,0:0:0:0:
329,167,63095,1,0,0:0:0:0:
358,143,63178,1,0,0:0:0:0:
376,109,63262,1,0,0:0:0:0:
387,72,63345,1,0,0:0:0:0:
414,98,63429,1,0,0:0:0:0:
427,133,63512,1,0,0:0:0:0:
432,170,63595,1,0,0:0:0:0:
429,208,63679,1,0,0:0:0:0:
414,243,63762,5,0,0:0:0:0:
215,314,63929,1,0,0:0:0:0:
480,349,64096,1,0,0:0:0:0:
329,167,64262,1,0,0:0:0:0:
329,167,64346,1,0,0:0:0:0:
329,167,64429,2,0,L|323:282,1,97.7500018644333
511,120,64763,2,0,P|465:102|389:98,1,97.7500018644333
196,330,65096,6,0,L|84:335,1,97.7500018644333
377,191,65430,2,0,P|397:245|402:299,1,97.7500018644333
175,128,65763,2,0,P|179:82|196:30,1,97.7500018644333
287,223,66097,1,0,0:0:0:0:
257,289,66180,1,0,0:0:0:0:
196,330,66264,1,0,0:0:0:0:
123,336,66347,1,0,0:0:0:0:
58,302,66430,6,0,L|49:193,1,97.7500018644333
212,113,66764,1,0,0:0:0:0:
196,330,66931,1,0,0:0:0:0:
196,330,67014,1,0,0:0:0:0:
196,330,67097,1,0,0:0:0:0:
287,223,67264,1,0,0:0:0:0:
36,313,67431,1,0,0:0:0:0:
264,384,67598,1,0,0:0:0:0:
95,152,67764,6,0,P|44:156|-21:180,1,97.7500018644333
297,309,68098,2,0,L|308:205,1,97.7500018644333
118,281,68432,2,0,L|125:378,1,97.7500018644333
369,148,68765,2,0,B|323:126|323:126|261:130,1,97.7500018644333
125,378,69099,5,0,0:0:0:0:
282,291,69265,1,0,0:0:0:0:
24,232,69432,1,0,0:0:0:0:
219,171,69599,1,0,0:0:0:0:
219,171,69682,1,0,0:0:0:0:
219,171,69766,2,0,P|231:123|230:62,1,97.7500018644333
270,280,70099,1,0,0:0:0:0:
110,203,70266,1,0,0:0:0:0:
353,164,70433,6,0,L|471:159,1,97.7500018644333
195,333,70766,2,0,P|181:291|180:223,1,97.7500018644333
461,289,71100,2,0,P|461:344|446:392,1,97.7500018644333
258,265,71433,1,0,0:0:0:0:
466,177,71600,1,0,0:0:0:0:
471,103,71684,1,0,0:0:0:0:
476,30,71767,5,0,0:0:0:0:
247,108,71934,1,0,0:0:0:0:
488,190,72100,1,0,0:0:0:0:
386,48,72267,1,0,0:0:0:0:
305,330,72434,5,0,0:0:0:0:
255,127,72601,1,0,0:0:0:0:
508,201,72768,1,0,0:0:0:0:
400,64,72934,1,0,0:0:0:0:
292,350,73101,5,0,0:0:0:0:
263,310,73184,1,0,0:0:0:0:
215,296,73268,1,0,0:0:0:0:
169,314,73351,1,0,0:0:0:0:
220,370,73435,5,0,0:0:0:0:
243,327,73518,1,0,0:0:0:0:
235,278,73601,1,0,0:0:0:0:
197,245,73685,1,0,0:0:0:0:
124,238,73768,5,0,0:0:0:0:
80,214,73852,1,0,0:0:0:0:
62,168,73935,1,0,0:0:0:0:
77,121,74018,1,0,0:0:0:0:
138,165,74102,5,0,0:0:0:0:
72,196,74185,1,0,0:0:0:0:
10,157,74268,1,0,0:0:0:0:
12,83,74352,1,0,0:0:0:0:
74,45,74435,5,0,0:0:0:0:
226,133,74602,1,0,0:0:0:0:
381,51,74769,2,0,P|387:128|415:179,1,97.7500018644333
262,263,75102,1,0,0:0:0:0:
158,85,75269,1,0,0:0:0:0:
41,254,75436,1,0,0:0:0:0:
262,263,75603,2,0,P|351:245|402:251,1,97.7500018644333
155,207,75936,1,0,0:0:0:0:
96,48,76103,6,0,L|224:48,1,97.7500018644333
416,160,76436,2,0,L|240:160,1,123.250003761292
96,272,76770,2,0,L|304:272,1,148.750001418591
89,89,77104,5,0,0:0:0:0:
141,165,77270,1,0,0:0:0:0:
301,125,77437,1,0,0:0:0:0:
391,101,77604,1,0,0:0:0:0:
385,263,77771,5,0,0:0:0:0:
155,66,77937,1,0,0:0:0:0:
333,317,78104,1,0,0:0:0:0:
226,52,78271,2,0,P|225:127|203:162,1,85
96,185,78604,1,0,0:0:0:0:
96,185,78771,2,0,P|101:240|136:275,1,85
341,267,79105,6,0,P|346:289|343:314,1,42.5
438,97,79438,6,0,P|411:79|397:42,1,42.5
102,271,79772,5,0,0:0:0:0:
161,39,79939,1,0,0:0:0:0:
197,294,80105,1,0,0:0:0:0:
292,286,80272,1,0,0:0:0:0:
334,264,80356,1,0,0:0:0:0:
375,243,80439,2,0,P|326:193|308:152,1,85
121,65,80772,5,0,0:0:0:0:
104,109,80856,1,0,0:0:0:0:
87,152,80939,1,0,0:0:0:0:
396,103,81106,1,0,0:0:0:0:
396,103,81273,1,0,0:0:0:0:
224,48,81440,6,0,L|320:48,1,85
192,192,81773,2,0,L|336:192,1,123.250003761292
176,336,82107,2,0,L|384:336,1,148.750001418591
348,309,82357,1,0,0:0:0:0:
374,276,82440,2,0,P|305:146|370:34,1,255.000009727478
105,86,82940,5,0,0:0:0:0:
109,143,83024,1,0,0:0:0:0:
117,199,83107,2,0,L|254:210,1,127.500004863739
376,54,83441,1,0,0:0:0:0:
404,124,83524,1,0,0:0:0:0:
432,195,83608,1,0,0:0:0:0:
236,136,83774,6,0,P|254:69|279:138,1,170
96,144,84108,5,0,0:0:0:0:
304,320,84275,1,0,0:0:0:0:
128,128,84441,1,0,0:0:0:0:
384,320,84608,1,0,0:0:0:0:
160,112,84775,1,0,0:0:0:0:
464,320,84942,1,0,0:0:0:0:
424,137,85108,6,0,P|365:175|213:174,1,203.999993774414
167,48,85609,5,0,0:0:0:0:
141,85,85692,1,0,0:0:0:0:
115,122,85775,2,0,P|173:173|187:218,1,101.999996887207
317,95,86109,2,0,L|338:202,1,101.999996887207
162,258,86443,5,0,0:0:0:0:
431,318,86609,1,0,0:0:0:0:
417,93,86776,1,0,0:0:0:0:
162,258,86943,1,0,0:0:0:0:
306,210,87110,2,0,B|282:156|282:156|185:168|168:81,1,203.999993774414
257,71,87610,1,0,0:0:0:0:
73,174,87777,6,0,P|133:234|137:267,1,101.999996887207
139,60,88110,1,0,0:0:0:0:
139,60,88277,1,0,0:0:0:0:
208,174,88444,1,0,0:0:0:0:
282,70,88611,1,0,0:0:0:0:
333,225,88777,1,0,0:0:0:0:
439,60,88944,1,0,0:0:0:0:
458,187,89111,5,0,0:0:0:0:
420,160,89194,1,0,0:0:0:0:
378,139,89278,1,0,0:0:0:0:
332,133,89361,1,0,0:0:0:0:
287,143,89444,1,0,0:0:0:0:
245,163,89528,1,0,0:0:0:0:
213,195,89611,1,0,0:0:0:0:
191,235,89695,1,0,0:0:0:0:
168,274,89778,1,0,0:0:0:0:
130,300,89861,1,0,0:0:0:0:
84,310,89945,1,0,0:0:0:0:
42,291,90028,1,0,0:0:0:0:
28,247,90111,2,0,L|70:206,2,50.9999984436036
235,129,90445,6,0,P|250:82|248:23,1,101.999996887207
297,220,90779,2,0,B|387:172|462:193|462:193|416:199|366:259,1,255.000009727478
383,257,91029,1,0,0:0:0:0:
385,282,91112,1,0,0:0:0:0:
320,107,91279,1,0,0:0:0:0:
236,333,91446,5,0,0:0:0:0:
492,245,91612,1,0,0:0:0:0:
163,168,91779,5,0,0:0:0:0:
341,109,91946,1,0,0:0:0:0:
101,69,92113,2,0,L|-14:63,1,101.999996887207
0,64,92363,1,0,0:0:0:0:
0,64,92446,1,0,0:0:0:0:
184,1,92613,1,0,0:0:0:0:
311,197,92780,2,0,L|434:191,1,101.999996887207
412,192,93030,1,0,0:0:0:0:
412,192,93113,6,0,L|278:198,1,101.999996887207
212,332,93447,1,0,0:0:0:0:
102,138,93614,1,0,0:0:0:0:
51,135,93697,1,0,0:0:0:0:
0,132,93780,1,0,0:0:0:0:
149,243,93947,1,0,0:0:0:0:
281,64,94114,1,0,0:0:0:0:
357,59,94197,1,0,0:0:0:0:
433,55,94281,1,0,0:0:0:0:
209,187,94447,6,0,P|191:139|188:72,1,101.999996887207
392,237,94781,2,0,P|388:295|369:342,1,101.999996887207
281,64,95115,2,0,L|402:57,1,101.999996887207
464,217,95448,1,0,0:0:0:0:
192,153,95615,1,0,0:0:0:0:
185,77,95698,1,0,0:0:0:0:
179,0,95782,6,0,B|202:33|202:33|218:213,1,203.999993774414
361,334,96282,1,0,0:0:0:0:
436,339,96365,1,0,0:0:0:0:
512,344,96449,1,0,0:0:0:0:
351,150,96615,1,0,0:0:0:0:
192,352,96782,1,0,0:0:0:0:
351,130,96949,1,0,0:0:0:0:
100,223,97116,6,0,P|44:223|-20:206,1,101.999996887207
415,62,97449,2,0,B|444:109|444:109|444:175,1,101.999996887207
122,43,97783,2,0,P|168:27|229:22,1,101.999996887207
307,184,98116,1,0,0:0:0:0:
39,106,98283,1,0,0:0:0:0:
39,106,98367,1,0,0:0:0:0:
39,106,98450,6,0,L|30:-18,1,101.999996887207
200,132,98783,1,0,0:0:0:0:
38,211,98950,1,0,0:0:0:0:
220,21,99117,5,0,0:0:0:0:
325,203,99284,1,0,0:0:0:0:
179,134,99451,1,0,0:0:0:0:
296,336,99617,6,0,B|435:360|355:284|512:309,1,203.999993774414
166,149,100118,2,0,P|145:201|147:279,1,101.999996887207
371,321,100451,5,0,0:0:0:0:
343,277,100535,1,0,0:0:0:0:
294,260,100618,1,0,0:0:0:0:
246,277,100701,1,0,0:0:0:0:
296,336,100785,5,0,0:0:0:0:
298,285,100868,1,0,0:0:0:0:
300,234,100951,1,0,0:0:0:0:
302,182,101035,1,0,0:0:0:0:
305,131,101118,6,0,L|196:137,1,101.999996887207
98,71,101452,1,0,0:0:0:0:
73,191,101619,1,0,0:0:0:0:
304,323,101785,1,0,0:0:0:0:
282,202,101952,1,0,0:0:0:0:
411,33,102119,1,0,0:0:0:0:
463,143,102286,1,0,0:0:0:0:
96,64,102452,5,0,0:0:0:0:
96,304,102619,1,0,0:0:0:0:
368,304,102786,1,0,0:0:0:0:
368,64,102953,1,0,0:0:0:0:
160,192,103119,6,0,B|176:144|176:144|192:192|192:192|192:144|192:144|208:192|208:192|208:144|208:144,1,203.999993774414
326,151,103620,1,0,0:0:0:0:
435,47,103786,5,0,0:0:0:0:
403,165,103953,1,0,0:0:0:0:
177,93,104120,1,0,0:0:0:0:
60,53,104287,1,0,0:0:0:0:
121,307,104454,5,0,0:0:0:0:
169,195,104620,1,0,0:0:0:0:
381,56,104787,1,0,0:0:0:0:
437,164,104954,1,0,0:0:0:0:
380,272,105121,1,0,0:0:0:0:
345,262,105204,1,0,0:0:0:0:
310,252,105287,1,0,0:0:0:0:
275,242,105371,1,0,0:0:0:0:
240,232,105454,2,0,P|174:250|48:166,1,203.999993774414
171,120,105954,5,0,0:0:0:0:
272,109,106121,1,0,0:0:0:0:
373,98,106288,1,0,0:0:0:0:
302,252,106455,5,0,0:0:0:0:
193,195,106622,1,0,0:0:0:0:
271,76,106788,1,0,0:0:0:0:
117,132,106955,1,0,0:0:0:0:
299,156,107122,1,0,0:0:0:0:
153,299,107289,1,0,0:0:0:0:
376,301,107455,1,0,0:0:0:0:
196,133,107622,1,0,0:0:0:0:
457,85,107789,5,0,0:0:0:0:
277,307,107956,1,0,0:0:0:0:
101,57,108122,1,0,0:0:0:0:
411,157,108289,1,0,0:0:0:0:
110,331,108456,1,0,0:0:0:0:
463,229,108623,1,0,0:0:0:0:
134,21,108790,1,0,0:0:0:0:
406,322,108956,1,0,0:0:0:0:
115,186,109123,6,0,P|190:154|323:196,1,203.999993774414
364,107,109623,1,0,0:0:0:0:
416,192,109790,2,0,P|389:254|256:301,2,203.999993774414
420,95,110624,5,0,0:0:0:0:
331,68,110791,1,0,0:0:0:0:
160,168,110958,1,0,0:0:0:0:
103,95,111124,1,0,0:0:0:0:
146,80,111208,1,0,0:0:0:0:
191,81,111291,1,0,0:0:0:0:
232,99,111374,1,0,0:0:0:0:
268,127,111458,1,0,0:0:0:0:
310,144,111541,1,0,0:0:0:0:
356,146,111625,1,0,0:0:0:0:
397,127,111708,1,0,0:0:0:0:
426,92,111791,6,0,L|420:197,1,101.999996887207
174,245,112125,1,0,0:0:0:0:
332,290,112292,1,0,0:0:0:0:
121,311,112458,2,0,L|1:314,1,101.999996887207
19,313,112709,1,0,0:0:0:0:
19,313,112792,1,0,0:0:0:0:
188,376,112959,1,0,0:0:0:0:
268,138,113126,5,0,0:0:0:0:
332,290,113292,1,0,0:0:0:0:
332,290,113376,1,0,0:0:0:0:
332,290,113459,1,0,0:0:0:0:
177,211,113626,1,0,0:0:0:0:
415,159,113793,2,0,B|438:112|438:112|424:54,1,101.999996887207
230,296,114126,2,0,P|287:292|345:289,1,101.999996887207
332,290,114376,1,0,0:0:0:0:
332,290,114460,6,0,P|287:213|300:83,1,203.999993774414
429,62,114960,1,0,0:0:0:0:
253,204,115127,2,0,L|124:196,1,101.999996887207
138,207,115377,1,0,0:0:0:0:
125,216,115460,1,0,0:0:0:0:
291,101,115627,1,0,0:0:0:0:
141,17,115794,5,0,0:0:0:0:
132,39,115877,1,0,0:0:0:0:
128,63,115961,1,0,0:0:0:0:
131,87,116044,1,0,0:0:0:0:
95,120,116127,5,0,0:0:0:0:
104,142,116210,1,0,0:0:0:0:
108,166,116294,1,0,0:0:0:0:
105,190,116377,1,0,0:0:0:0:
55,245,116461,5,0,0:0:0:0:
91,212,116544,1,0,0:0:0:0:
139,206,116628,1,0,0:0:0:0:
179,232,116711,1,0,0:0:0:0:
237,187,116794,5,0,0:0:0:0:
273,220,116877,1,0,0:0:0:0:
321,226,116961,1,0,0:0:0:0:
361,200,117044,1,0,0:0:0:0:
413,256,117128,6,0,P|466:241|522:236,1,101.999996887207
343,382,117462,1,0,0:0:0:0:
237,187,117628,1,0,0:0:0:0:
237,187,117712,1,0,0:0:0:0:
237,187,117795,1,0,0:0:0:0:
165,302,117962,1,0,0:0:0:0:
361,200,118129,2,0,P|358:154|335:92,1,101.999996887207
152,310,118462,6,0,P|213:305|269:301,1,101.999996887207
363,369,118796,1,0,0:0:0:0:
244,190,118962,1,0,0:0:0:0:
244,190,119046,1,0,0:0:0:0:
244,190,119129,1,0,0:0:0:0:
152,310,119296,1,0,0:0:0:0:
374,214,119463,1,0,0:0:0:0:
99,174,119630,1,0,0:0:0:0:
94,97,119713,1,0,0:0:0:0:
90,20,119796,6,0,B|112:54|112:54|123:245,1,203.999993774414
321,52,120297,1,0,0:0:0:0:
396,43,120380,1,0,0:0:0:0:
471,35,120463,2,0,B|449:23|449:23|343:33,1,101.999996887207
208,252,120797,1,0,0:0:0:0:
129,139,120964,1,0,0:0:0:0:
129,139,121047,1,0,0:0:0:0:
129,139,121130,6,0,B|78:120|78:120|15:130,1,101.999996887207
209,271,121464,1,0,0:0:0:0:
276,94,121631,1,0,0:0:0:0:
278,84,121714,1,0,0:0:0:0:
280,73,121798,5,0,0:0:0:0:
321,102,121881,1,0,0:0:0:0:
338,149,121964,1,0,0:0:0:0:
319,196,122048,1,0,0:0:0:0:
262,146,122131,5,0,0:0:0:0:
334,122,122214,1,0,0:0:0:0:
391,172,122298,1,0,0:0:0:0:
376,246,122381,1,0,0:0:0:0:
302,270,122465,5,0,0:0:0:0:
186,230,122631,1,0,0:0:0:0:
248,124,122798,1,0,0:0:0:0:
126,110,122965,1,0,0:0:0:0:
67,217,123132,1,0,0:0:0:0:
131,320,123298,1,0,0:0:0:0:
202,220,123465,1,0,0:0:0:0:
307,282,123632,1,0,0:0:0:0:
406,67,123799,5,0,0:0:0:0:
444,342,123965,1,0,0:0:0:0:
320,65,124132,1,0,0:0:0:0:
299,345,124299,1,0,0:0:0:0:
236,54,124466,1,0,0:0:0:0:
163,325,124633,1,0,0:0:0:0:
159,28,124799,1,0,0:0:0:0:
40,280,124966,1,0,0:0:0:0:
150,167,125133,6,0,B|170:151|170:151|272:150,1,101.999996887207
341,72,125466,1,0,0:0:0:0:
408,174,125633,1,0,0:0:0:0:
259,294,125800,2,0,P|310:288|359:303,2,101.999996887207,0|0|0,0:3|0:3|0:3,0:3:0:0:
186,171,126300,1,0,0:0:0:0:
73,82,126467,5,0,0:0:0:0:
112,74,126550,1,0,0:0:0:0:
152,66,126634,1,0,0:0:0:0:
191,58,126717,1,0,0:0:0:0:
220,83,126801,5,0,0:0:0:0:
260,81,126884,1,0,0:0:0:0:
300,79,126967,1,0,0:0:0:0:
341,77,127051,1,0,0:0:0:0:
367,107,127134,5,0,0:0:0:0:
384,149,127217,1,0,0:0:0:0:
387,195,127301,1,0,0:0:0:0:
374,239,127384,1,0,0:0:0:0:
352,279,127468,1,0,0:0:0:0:
315,306,127551,1,0,0:0:0:0:
271,319,127634,1,0,0:0:0:0:
224,322,127718,1,0,0:0:0:0:
178,315,127801,2,0,P|191:233|167:193,1,101.999996887207
56,69,128135,5,0,0:0:0:0:
70,106,128301,1,0,0:0:0:0:
388,95,128468,1,0,0:0:0:0:
377,134,128635,1,0,0:0:0:0:
138,281,128802,1,0,0:0:0:0:
176,266,128969,1,0,0:0:0:0:
405,266,129135,5,0,0:0:0:0:
365,276,129219,1,0,0:0:0:0:
325,286,129302,1,0,0:0:0:0:
104,165,129469,5,0,0:0:0:0:
142,176,129552,1,0,0:0:0:0:
181,187,129636,1,0,0:0:0:0:
359,63,129802,5,0,0:0:0:0:
319,53,129886,1,0,0:0:0:0:
278,47,129969,1,0,0:0:0:0:
236,48,130053,1,0,0:0:0:0:
196,55,130136,1,0,0:0:0:0:
159,71,130219,1,0,0:0:0:0:
124,93,130303,1,0,0:0:0:0:
99,125,130386,1,0,0:0:0:0:
83,162,130469,2,0,P|152:192|186:239,1,101.999996887207
280,156,130803,5,0,0:0:0:0:
201,287,130970,1,0,0:0:0:0:
383,260,131137,1,0,0:0:0:0:
195,158,131303,1,0,0:0:0:0:
408,36,131470,1,0,0:0:0:0:
313,295,131637,1,0,0:0:0:0:
107,67,131804,5,0,0:0:0:0:
151,75,131887,1,0,0:0:0:0:
195,83,131970,1,0,0:0:0:0:
362,51,132137,1,0,0:0:0:0:
354,96,132221,1,0,0:0:0:0:
346,141,132304,1,0,0:0:0:0:
112,152,132471,5,0,0:0:0:0:
148,187,132554,1,0,0:0:0:0:
198,194,132637,1,0,0:0:0:0:
234,229,132721,1,0,0:0:0:0:
284,236,132804,1,0,0:0:0:0:
320,271,132888,1,0,0:0:0:0:
370,278,132971,1,0,0:0:0:0:
406,313,133054,1,0,0:0:0:0:
457,320,133138,5,0,0:0:0:0:
346,141,133305,1,0,0:0:0:0:
215,372,133471,1,0,0:0:0:0:
146,237,133638,1,0,0:0:0:0:
146,237,133721,1,0,0:0:0:0:
146,237,133805,2,0,P|71:221|15:224,1,101.999996887207
21,351,134138,1,0,0:0:0:0:
231,187,134305,1,0,0:0:0:0:
231,187,134389,1,0,0:0:0:0:
231,187,134472,6,0,P|288:182|353:179,1,101.999996887207
80,277,134805,1,0,0:0:0:0:
126,255,134889,1,0,0:0:0:0:
152,211,134972,1,0,0:0:0:0:
148,159,135056,1,0,0:0:0:0:
117,118,135139,6,0,P|100:82|92:15,1,101.999996887207
226,267,135473,1,0,0:0:0:0:
252,223,135556,1,0,0:0:0:0:
296,198,135639,1,0,0:0:0:0:
347,196,135723,1,0,0:0:0:0:
392,218,135806,6,0,L|396:103,1,101.999996887207
325,297,136140,1,0,0:0:0:0:
483,220,136306,1,0,0:0:0:0:
201,148,136473,2,0,B|176:104|176:104|188:37,1,101.999996887207
185,53,136723,1,0,0:0:0:0:
185,53,136807,1,0,0:0:0:0:
342,11,136973,1,0,0:0:0:0:
217,239,137140,6,0,P|165:233|92:228,1,101.999996887207
472,87,137474,2,0,P|495:140|496:194,1,101.999996887207
86,106,137807,2,0,P|90:55|111:9,1,101.999996887207
344,355,138141,2,0,P|292:349|219:344,1,101.999996887207
80,207,138474,5,0,0:0:0:0:
0,384,138641,1,0,0:0:0:0:
223,221,138808,1,0,0:0:0:0:
56,105,138975,1,0,0:0:0:0:
56,105,139058,1,0,0:0:0:0:
56,105,139141,2,0,L|161:98,1,101.999996887207
297,318,139475,1,0,0:0:0:0:
318,271,139558,1,0,0:0:0:0:
362,244,139642,1,0,0:0:0:0:
412,239,139725,1,0,0:0:0:0:
460,257,139809,6,0,L|469:143,1,101.999996887207
100,264,140142,2,0,L|115:388,1,101.999996887207
333,63,140476,2,0,P|283:42|206:41,1,101.999996887207
120,247,140809,1,0,0:0:0:0:
412,153,140976,1,0,0:0:0:0:
414,76,141059,1,0,0:0:0:0:
415,0,141143,5,0,0:0:0:0:
499,185,141309,1,0,0:0:0:0:
210,119,141476,1,0,0:0:0:0:
414,76,141643,1,0,0:0:0:0:
109,43,141810,5,0,0:0:0:0:
393,76,141977,1,0,0:0:0:0:
116,205,142143,1,0,0:0:0:0:
217,95,142310,1,0,0:0:0:0:
278,321,142477,5,0,0:0:0:0:
312,283,142560,1,0,0:0:0:0:
361,269,142644,1,0,0:0:0:0:
409,285,142727,1,0,0:0:0:0:
359,357,142810,5,0,0:0:0:0:
324,305,142894,1,0,0:0:0:0:
330,244,142977,1,0,0:0:0:0:
376,203,143061,1,0,0:0:0:0:
409,285,143144,5,0,0:0:0:0:
337,282,143227,1,0,0:0:0:0:
292,225,143311,1,0,0:0:0:0:
300,154,143394,1,0,0:0:0:0:
376,203,143477,5,0,0:0:0:0:
304,244,143561,1,0,0:0:0:0:
230,210,143644,1,0,0:0:0:0:
215,129,143728,1,0,0:0:0:0:
271,70,143811,5,0,0:0:0:0:
