osu file format v14

[General]
AudioFilename: Back To You ~Raytoly's Together Remix~ 192.ogg
AudioLeadIn: 0
PreviewTime: 57805
Countdown: 0
SampleSet: Normal
StackLeniency: 0.7
Mode: 1
LetterboxInBreaks: 0
WidescreenStoryboard: 1

[Editor]
DistanceSpacing: 0.1
BeatDivisor: 4
GridSize: 8
TimelineZoom: 3.199999

[Metadata]
Title:Back To You ~Raytoly's Together Remix~
TitleUnicode:Back To You ~Raytoly's Together Remix~
Artist:Raytoly
ArtistUnicode:Raytoly
Creator:Raytoly
Version:Kantan
Source:
Tags:Rhytoly and Core & Ai ~The Delicate Girl~ Crystal Stars World Remix UK Happy Hardcore House Classic Electronic Instrumental
BeatmapID:2935272
BeatmapSetID:1425359

[Difficulty]
HPDrainRate:7.5
CircleSize:5
OverallDifficulty:3
ApproachRate:10
SliderMultiplier:1
SliderTickRate:1

[Events]
//Background and Video events
0,0,"Back to you.jpeg",0,25
//Break Periods
//Storyboard Layer 0 (Background)
//Storyboard Layer 1 (Fail)
//Storyboard Layer 2 (Pass)
//Storyboard Layer 3 (Foreground)
//Storyboard Layer 4 (Overlay)
//Storyboard Sound Samples

[TimingPoints]
280,300,4,1,0,75,1,0
57880,-100,4,1,0,100,0,1
96280,-100,4,1,0,100,0,0
98680,-100,4,1,0,5,0,0

[HitObjects]
287,157,280,5,4,0:0:0:0:
269,208,1480,1,0,0:0:0:0:
268,200,2680,1,8,0:0:0:0:
269,200,3280,1,0,0:0:0:0:
256,206,3880,1,8,0:0:0:0:
261,197,5080,1,0,0:0:0:0:
261,197,6280,1,0,0:0:0:0:
264,204,7480,1,0,0:0:0:0:
264,202,8680,1,0,0:0:0:0:
264,202,9880,1,4,0:0:0:0:
264,204,11080,1,0,0:0:0:0:
244,220,12280,1,8,0:0:0:0:
226,234,12880,1,0,0:0:0:0:
226,234,13480,1,8,0:0:0:0:
238,246,14680,1,4,0:0:0:0:
238,246,15880,1,8,0:0:0:0:
234,243,17080,1,0,0:0:0:0:
179,136,17380,1,0,0:0:0:0:
323,195,17680,1,0,0:0:0:0:
323,195,17980,1,0,0:0:0:0:
320,200,18280,1,8,0:0:0:0:
308,191,18880,1,8,0:0:0:0:
296,187,19480,1,4,0:0:0:0:
270,200,20680,1,0,0:0:0:0:
270,200,21880,1,0,0:0:0:0:
270,200,23080,1,8,0:0:0:0:
270,200,24280,1,0,0:0:0:0:
270,200,25480,1,0,0:0:0:0:
270,200,26680,1,8,0:0:0:0:
270,200,27880,1,8,0:0:0:0:
270,200,29080,1,0,0:0:0:0:
270,200,30280,1,0,0:0:0:0:
270,200,31480,1,0,0:0:0:0:
270,200,32680,1,8,0:0:0:0:
270,200,33880,1,0,0:0:0:0:
270,200,35080,1,0,0:0:0:0:
270,200,36280,1,8,0:0:0:0:
270,200,37480,1,8,0:0:0:0:
272,195,38680,1,4,0:0:0:0:
286,134,39280,1,8,0:0:0:0:
248,189,39880,1,0,0:0:0:0:
172,139,40480,1,8,0:0:0:0:
248,189,41080,1,0,0:0:0:0:
248,189,41380,1,0,0:0:0:0:
251,191,41680,1,8,0:0:0:0:
233,132,42280,1,8,0:0:0:0:
230,168,43480,1,0,0:0:0:0:
230,168,44080,1,8,0:0:0:0:
230,168,44680,1,8,0:0:0:0:
230,168,45280,1,0,0:0:0:0:
230,168,45880,1,8,0:0:0:0:
230,168,46180,1,8,0:0:0:0:
230,168,46480,1,0,0:0:0:0:
230,168,47080,1,8,0:0:0:0:
230,168,48280,1,4,0:0:0:0:
291,218,48880,1,8,0:0:0:0:
291,218,49480,1,0,0:0:0:0:
291,218,50080,1,8,0:0:0:0:
291,218,50680,1,8,0:0:0:0:
291,218,50980,1,0,0:0:0:0:
291,218,51280,1,8,0:0:0:0:
291,218,51880,1,8,0:0:0:0:
240,201,53080,1,4,0:0:0:0:
240,201,53680,1,8,0:0:0:0:
240,201,54280,1,8,0:0:0:0:
240,201,54880,1,8,0:0:0:0:
266,202,55480,1,0,0:0:0:0:
266,202,55780,1,0,0:0:0:0:
266,202,56080,1,0,0:0:0:0:
266,202,56380,1,0,0:0:0:0:
234,116,56680,1,8,0:0:0:0:
267,170,57880,5,0,0:0:0:0:
269,179,58480,1,8,0:0:0:0:
270,178,58780,1,8,0:0:0:0:
269,177,59080,1,0,0:0:0:0:
270,178,59680,1,0,0:0:0:0:
244,188,59980,1,0,0:0:0:0:
248,188,60280,1,8,0:0:0:0:
248,187,60580,1,8,0:0:0:0:
311,74,60880,1,0,0:0:0:0:
213,140,61180,1,0,0:0:0:0:
269,145,61480,1,8,0:0:0:0:
267,170,62680,5,0,0:0:0:0:
269,179,63280,1,0,0:0:0:0:
270,178,63580,1,0,0:0:0:0:
269,177,63880,1,8,0:0:0:0:
270,178,64480,1,0,0:0:0:0:
244,188,64780,1,0,0:0:0:0:
248,188,65080,1,8,0:0:0:0:
248,187,65380,1,8,0:0:0:0:
277,189,65680,1,8,0:0:0:0:
248,188,65980,1,8,0:0:0:0:
248,188,66280,1,0,0:0:0:0:
267,170,67480,5,0,0:0:0:0:
269,179,68080,1,8,0:0:0:0:
270,178,68380,1,8,0:0:0:0:
241,152,68680,1,0,0:0:0:0:
270,178,69280,1,0,0:0:0:0:
241,152,69580,1,0,0:0:0:0:
241,152,69880,1,8,0:0:0:0:
241,152,70180,1,8,0:0:0:0:
241,152,70480,1,0,0:0:0:0:
241,152,70780,1,0,0:0:0:0:
241,152,71080,1,8,0:0:0:0:
267,170,72280,5,0,0:0:0:0:
269,179,72880,1,0,0:0:0:0:
270,178,73180,1,0,0:0:0:0:
269,177,73480,1,8,0:0:0:0:
270,178,74080,1,0,0:0:0:0:
244,188,74380,1,0,0:0:0:0:
248,188,74680,1,8,0:0:0:0:
248,187,74980,1,8,0:0:0:0:
248,187,75280,1,8,0:0:0:0:
248,188,75580,1,8,0:0:0:0:
248,188,75880,1,8,0:0:0:0:
267,170,77080,5,0,0:0:0:0:
269,179,77680,1,8,0:0:0:0:
270,179,77980,1,8,0:0:0:0:
269,177,78280,1,0,0:0:0:0:
270,178,78880,1,8,0:0:0:0:
244,188,79180,1,8,0:0:0:0:
248,188,79480,1,0,0:0:0:0:
248,187,79780,1,0,0:0:0:0:
250,190,80080,1,8,0:0:0:0:
248,188,80380,1,8,0:0:0:0:
248,188,80680,1,0,0:0:0:0:
267,170,81880,5,0,0:0:0:0:
277,229,82480,1,0,0:0:0:0:
270,178,82780,1,0,0:0:0:0:
269,177,83080,1,8,0:0:0:0:
270,178,83680,1,0,0:0:0:0:
244,188,83980,1,0,0:0:0:0:
248,188,84280,1,8,0:0:0:0:
248,187,84580,1,8,0:0:0:0:
248,187,84880,1,0,0:0:0:0:
248,188,85180,1,0,0:0:0:0:
248,187,85480,1,8,0:0:0:0:
267,170,86680,5,0,0:0:0:0:
269,179,87280,1,8,0:0:0:0:
270,178,87580,1,8,0:0:0:0:
269,177,87880,1,0,0:0:0:0:
270,178,88480,1,8,0:0:0:0:
244,188,88780,1,8,0:0:0:0:
248,188,89080,1,0,0:0:0:0:
248,187,89380,1,0,0:0:0:0:
220,174,89680,1,8,0:0:0:0:
248,188,89980,1,8,0:0:0:0:
248,187,90280,1,0,0:0:0:0:
229,148,91480,1,0,0:0:0:0:
236,96,92080,1,0,0:0:0:0:
270,178,92380,1,0,0:0:0:0:
269,177,92680,1,8,0:0:0:0:
270,178,93280,1,0,0:0:0:0:
244,188,93580,1,0,0:0:0:0:
248,188,93880,1,8,0:0:0:0:
248,187,94180,1,8,0:0:0:0:
248,187,94480,1,8,0:0:0:0:
248,188,94780,1,8,0:0:0:0:
262,158,95080,1,8,0:0:0:0:
249,181,96280,1,4,0:0:0:0:
