osu file format v14

[General]
AudioFilename: audio.mp3
AudioLeadIn: 0
PreviewTime: 21831
Countdown: 0
SampleSet: Normal
StackLeniency: 0.7
Mode: 3
LetterboxInBreaks: 0
SpecialStyle: 0
WidescreenStoryboard: 1

[Editor]
Bookmarks: 140442,141859,143192,148525,151192,153775
DistanceSpacing: 0.6
BeatDivisor: 12
GridSize: 16
TimelineZoom: 2.399999

[Metadata]
Title:springtime of life (2019 Rework)
TitleUnicode:springtime of life (2019 Rework)
Artist:Ray_Oh
ArtistUnicode:れいおう
Creator:Dubstek
Version:Insane
Source:
Tags:happy hardcore electronic pop instrumental hoto_cocoa hoto cocoa lude Interlude-
BeatmapID:2805183
BeatmapSetID:1343389

[Difficulty]
HPDrainRate:8
CircleSize:4
OverallDifficulty:7.3
ApproachRate:5
SliderMultiplier:1.4
SliderTickRate:1

[Events]
//Background and Video events
0,0,"BG3.jpg",0,0
//Break Periods
//Storyboard Layer 0 (Background)
//Storyboard Layer 1 (Fail)
//Storyboard Layer 2 (Pass)
//Storyboard Layer 3 (Foreground)
//Storyboard Layer 4 (Overlay)
//Storyboard Sound Samples
Sample,19192,0,"Clap 4.wav",40
Sample,19525,0,"Clap 4.wav",40
Sample,19859,0,"Small kick 3.wav",70
Sample,20192,0,"Small kick 4.wav",70
Sample,20525,0,"Small kick 5.wav",70
Sample,20692,0,"Small kick 6.wav",70
Sample,20859,0,"Clap 4.wav",40
Sample,20859,0,"Small kick 8.wav",70
Sample,21025,0,"Small kick 9.wav",70
Sample,42859,0,"Snare 2.wav",70
Sample,61859,0,"Clap 4.wav",40
Sample,62192,0,"Clap 4.wav",40
Sample,62525,0,"Small kick 3.wav",70
Sample,62859,0,"Small kick 4.wav",70
Sample,63192,0,"Small kick 5.wav",70
Sample,63359,0,"Small kick 6.wav",70
Sample,63525,0,"Clap 4.wav",40
Sample,63525,0,"Small kick 8.wav",70
Sample,63692,0,"Small kick 9.wav",70
Sample,72525,0,"Clap 4.wav",40
Sample,72692,0,"Clap 4.wav",40
Sample,72859,0,"Clap 4.wav",40
Sample,73025,0,"Clap 4.wav",40
Sample,73192,0,"Small kick 3.wav",70
Sample,73359,0,"Small kick 3.wav",70
Sample,73525,0,"Small kick 4.wav",70
Sample,73692,0,"Small kick 4.wav",70
Sample,73859,0,"Small kick 5.wav",70
Sample,74025,0,"Small kick 6.wav",70
Sample,74192,0,"Small kick 7.wav",70
Sample,74359,0,"Small kick 8.wav",70
Sample,74525,0,"Clap 4.wav",40
Sample,79525,0,"Tok.wav",70
Sample,83025,0,"Tok.wav",70
Sample,88359,0,"Tok.wav",70
Sample,90192,0,"Tok.wav",70
Sample,108525,0,"Clap 5.wav",40
Sample,108859,0,"Clap 6.wav",40
Sample,120192,0,"Small kick.wav",70
Sample,135192,0,"Small kick.wav",70
Sample,135192,0,"Clap 4.wav",40
Sample,135275,0,"Clap 4.wav",40
Sample,135692,0,"Small kick 4.wav",70
Sample,135692,0,"Clap 4.wav",40
Sample,135775,0,"Clap 4.wav",40
Sample,136025,0,"Clap 4.wav",40
Sample,136025,0,"Small kick 6.wav",70
Sample,136109,0,"Small kick 6.wav",70
Sample,136359,0,"Clap 4.wav",40
Sample,136359,0,"Small kick 8.wav",70
Sample,136442,0,"Small kick 8.wav",70
Sample,136525,0,"Small kick.wav",70
Sample,136692,0,"Small kick 4.wav",70
Sample,136859,0,"Small kick 6.wav",70
Sample,137025,0,"Small kick 8.wav",70
Sample,167192,0,"Clap 4.wav",40
Sample,167525,0,"Clap 4.wav",40
Sample,167859,0,"Small kick 3.wav",70
Sample,168192,0,"Small kick 4.wav",70
Sample,168525,0,"Small kick 5.wav",70
Sample,168692,0,"Small kick 6.wav",70
Sample,168859,0,"Clap 4.wav",40
Sample,168859,0,"Small kick 8.wav",70
Sample,169025,0,"Small kick 9.wav",70

[TimingPoints]
526,333.333333333333,4,1,1,70,1,0
32525,-100,4,1,1,70,0,1
43192,-100,4,1,1,70,0,0
75192,-100,4,1,2,70,0,1
96525,-100,4,1,1,70,0,0
137859,-100,4,1,2,70,0,1
147859,-100,4,1,2,70,0,0
148525,-100,4,1,2,70,0,1
159192,-100,4,1,2,70,0,0
169859,-100,4,1,1,70,0,0

[HitObjects]
64,192,526,5,4,0:0:0:0:
320,192,526,128,0,692:0:0:0:70:Small kick.wav
448,192,526,1,0,0:0:0:0:
192,192,692,1,0,0:0:0:0:
448,192,859,1,0,0:0:0:70:Small kick.wav
320,192,1025,128,0,1192:0:0:0:0:
64,192,1192,1,0,0:0:0:70:Small kick.wav
448,192,1359,1,0,0:0:0:0:
192,192,1525,1,0,0:0:0:70:Small kick.wav
320,192,1692,1,0,0:0:0:0:
192,192,1859,128,0,2025:0:0:0:70:Small kick.wav
64,192,2025,1,0,0:0:0:0:
448,192,2192,1,0,0:0:0:70:Small kick.wav
192,192,2359,128,0,2525:0:0:0:0:
64,192,2525,1,0,0:0:0:70:Small kick.wav
320,192,2692,1,0,0:0:0:0:
192,192,2859,1,0,0:0:0:70:Small kick.wav
448,192,3025,1,0,0:0:0:0:
320,192,3192,128,0,3359:0:0:0:70:Small kick.wav
64,192,3220,128,0,4525:0:0:0:0:
192,192,3359,1,0,0:0:0:0:
448,192,3525,1,0,0:0:0:70:Small kick.wav
320,192,3692,128,0,3859:0:0:0:0:
192,192,3859,1,0,0:0:0:70:Small kick.wav
320,192,4025,1,0,0:0:0:0:
192,192,4192,1,0,0:0:0:70:Small kick.wav
448,192,4359,1,0,0:0:0:0:
448,192,4525,128,0,5067:0:0:0:70:Small kick.wav
192,192,4692,1,0,0:0:0:0:
320,192,4859,1,0,0:0:0:70:Small kick.wav
192,192,5025,1,0,0:0:0:0:
64,192,5192,128,0,5734:0:0:0:70:Small kick.wav
320,192,5359,1,0,0:0:0:0:
192,192,5525,1,0,0:0:0:70:Small kick.wav
320,192,5692,1,0,0:0:0:0:
64,192,5859,1,0,0:0:0:70:Small kick.wav
448,192,5859,1,0,0:0:0:0:
192,192,5942,1,0,0:0:0:0:
320,192,6025,1,0,0:0:0:0:
192,192,6109,1,0,0:0:0:0:
448,192,6192,1,0,0:0:0:70:Small kick.wav
64,192,6275,1,0,0:0:0:0:
448,192,6359,1,0,0:0:0:0:
320,192,6442,1,0,0:0:0:0:
192,192,6525,1,0,0:0:0:70:Small kick.wav
448,192,6609,1,0,0:0:0:0:
64,192,6692,1,0,0:0:0:0:
192,192,6775,1,0,0:0:0:0:
64,192,6859,1,0,0:0:0:70:Small kick.wav
448,192,6942,1,0,0:0:0:0:
320,192,7025,1,0,0:0:0:0:
192,192,7109,1,0,0:0:0:0:
320,192,7192,1,0,0:0:0:70:Small kick.wav
64,192,7275,1,0,0:0:0:0:
192,192,7359,1,0,0:0:0:0:
448,192,7442,1,0,0:0:0:0:
320,192,7525,1,0,0:0:0:70:Small kick.wav
448,192,7609,1,0,0:0:0:0:
192,192,7692,1,0,0:0:0:0:
320,192,7775,1,0,0:0:0:0:
64,192,7859,1,0,0:0:0:70:Small kick.wav
192,192,7942,1,0,0:0:0:0:
320,192,8025,1,0,0:0:0:0:
64,192,8109,1,0,0:0:0:0:
448,192,8192,1,0,0:0:0:70:Small kick.wav
192,192,8275,1,0,0:0:0:0:
64,192,8359,1,0,0:0:0:0:
320,192,8442,1,0,0:0:0:0:
192,192,8525,1,0,0:0:0:70:Small kick.wav
64,192,8581,1,0,0:0:0:0:
448,192,8637,1,0,0:0:0:0:
320,192,8692,1,0,0:0:0:0:
64,192,8748,1,0,0:0:0:0:
192,192,8803,1,0,0:0:0:0:
448,192,8859,1,0,0:0:0:70:Small kick.wav
320,192,8914,1,0,0:0:0:0:
192,192,8970,1,0,0:0:0:0:
64,192,9025,1,0,0:0:0:0:
448,192,9081,1,0,0:0:0:0:
320,192,9137,1,0,0:0:0:0:
64,192,9192,1,0,0:0:0:70:Small kick.wav
192,192,9248,1,0,0:0:0:0:
320,192,9303,1,0,0:0:0:0:
448,192,9359,1,0,0:0:0:0:
64,192,9414,1,0,0:0:0:0:
192,192,9470,1,0,0:0:0:0:
448,192,9525,1,0,0:0:0:70:Small kick.wav
320,192,9581,1,0,0:0:0:0:
64,192,9637,1,0,0:0:0:0:
192,192,9692,1,0,0:0:0:0:
448,192,9748,1,0,0:0:0:0:
320,192,9803,1,0,0:0:0:0:
64,192,9859,128,2,9970:0:0:0:0:
192,192,9859,128,0,10025:0:0:0:0:
320,192,10025,1,0,0:0:0:0:
64,192,10192,128,2,10303:0:0:0:0:
448,192,10192,128,0,10359:0:0:0:0:
320,192,10359,1,0,0:0:0:0:
64,192,10525,128,2,10650:0:0:0:0:
448,192,10525,128,4,10609:0:0:0:0:
320,192,10692,1,0,0:0:0:0:
192,192,10775,1,0,0:0:0:0:
64,192,10831,128,0,10942:0:0:0:0:
320,192,10859,1,2,0:0:0:0:
448,192,10859,128,4,10984:0:0:0:0:
192,192,11025,1,0,0:0:0:0:
320,192,11109,1,0,0:0:0:0:
64,192,11192,1,2,0:0:0:0:
448,192,11192,1,4,0:0:0:0:
320,192,11234,1,0,0:0:0:0:
64,192,11359,1,0,0:0:0:0:
192,192,11414,1,0,0:0:0:0:
320,192,11470,1,0,0:0:0:0:
64,192,11525,128,8,11692:0:0:0:0:
448,192,11525,1,0,0:0:0:0:
320,192,11692,1,0,0:0:0:0:
448,192,11734,1,0,0:0:0:0:
64,192,11859,1,2,0:0:0:0:
192,192,11859,1,0,0:0:0:0:
320,192,11914,1,0,0:0:0:0:
448,192,11970,1,0,0:0:0:0:
192,192,12025,128,0,12192:0:0:0:0:
64,192,12067,128,0,12192:0:0:0:0:
320,192,12192,1,8,0:0:0:0:
448,192,12192,1,0,0:0:0:0:
448,192,12275,1,0,0:0:0:0:
192,192,12359,1,0,0:0:0:0:
320,192,12442,1,0,0:0:0:0:
64,192,12525,1,2,0:0:0:0:
448,192,12525,1,0,0:0:0:0:
320,192,12567,1,0,0:0:0:0:
64,192,12692,1,0,0:0:0:0:
192,192,12748,1,0,0:0:0:0:
320,192,12803,1,0,0:0:0:0:
64,192,12859,128,8,13025:0:0:0:0:
448,192,12859,1,0,0:0:0:0:
320,192,13025,1,0,0:0:0:0:
448,192,13067,1,0,0:0:0:0:
64,192,13192,1,2,0:0:0:0:
192,192,13192,1,0,0:0:0:0:
320,192,13248,1,0,0:0:0:0:
448,192,13303,1,0,0:0:0:0:
192,192,13359,128,0,13525:0:0:0:0:
64,192,13400,128,0,13525:0:0:0:0:
320,192,13525,1,8,0:0:0:0:
448,192,13525,1,0,0:0:0:0:
448,192,13609,1,0,0:0:0:0:
192,192,13692,1,0,0:0:0:0:
320,192,13775,1,0,0:0:0:0:
64,192,13859,1,2,0:0:0:0:
448,192,13859,1,0,0:0:0:0:
320,192,13900,1,0,0:0:0:0:
64,192,14025,1,0,0:0:0:0:
192,192,14081,1,0,0:0:0:0:
320,192,14137,1,0,0:0:0:0:
64,192,14192,128,8,14359:0:0:0:0:
448,192,14192,1,0,0:0:0:0:
320,192,14359,1,0,0:0:0:0:
448,192,14400,1,0,0:0:0:0:
64,192,14525,1,2,0:0:0:0:
192,192,14525,1,0,0:0:0:0:
448,192,14581,1,0,0:0:0:0:
320,192,14637,1,0,0:0:0:0:
192,192,14692,128,0,14859:0:0:0:0:
64,192,14734,128,0,14859:0:0:0:0:
320,192,14859,1,8,0:0:0:0:
448,192,14859,1,0,0:0:0:0:
192,192,14942,1,0,0:0:0:0:
320,192,14984,1,0,0:0:0:0:
64,192,15025,1,0,0:0:0:0:
192,192,15109,1,0,0:0:0:0:
320,192,15192,1,2,0:0:0:0:
448,192,15192,1,0,0:0:0:0:
64,192,15275,1,0,0:0:0:0:
448,192,15359,1,0,0:0:0:0:
320,192,15414,1,0,0:0:0:0:
192,192,15470,1,0,0:0:0:0:
64,192,15525,1,8,0:0:0:0:
448,192,15525,128,0,15692:0:0:0:0:
192,192,15692,1,0,0:0:0:0:
320,192,15734,1,0,0:0:0:0:
64,192,15859,1,2,0:0:0:0:
448,192,15859,1,0,0:0:0:0:
320,192,15914,1,0,0:0:0:0:
192,192,15970,1,0,0:0:0:0:
448,192,16025,1,0,0:0:0:0:
448,192,16109,1,0,0:0:0:0:
64,192,16192,1,8,0:0:0:0:
192,192,16192,1,0,0:0:0:0:
448,192,16275,1,0,0:0:0:0:
320,192,16317,1,0,0:0:0:0:
192,192,16359,1,0,0:0:0:0:
320,192,16442,1,0,0:0:0:0:
64,192,16525,1,2,0:0:0:0:
448,192,16525,1,0,0:0:0:40:Clap 4.wav
192,192,16609,1,0,0:0:0:0:
320,192,16692,1,0,0:0:0:70:Small kick.wav
448,192,16775,1,0,0:0:0:0:
64,192,16859,128,2,17025:0:0:0:0:
192,192,16859,1,0,0:0:0:40:Clap 4.wav
320,192,17025,1,0,0:0:0:70:Small kick.wav
192,192,17067,1,0,0:0:0:0:
64,192,17192,1,2,0:0:0:0:
448,192,17192,1,0,0:0:0:40:Clap 4.wav
192,192,17248,1,0,0:0:0:0:
320,192,17303,1,0,0:0:0:0:
448,192,17359,128,0,17525:0:0:0:70:Small kick.wav
64,192,17525,1,2,0:0:0:0:
192,192,17525,1,0,0:0:0:40:Clap 4.wav
64,192,17609,1,0,0:0:0:0:
320,192,17692,1,0,0:0:0:70:Small kick.wav
192,192,17775,1,0,0:0:0:70:Small kick.wav
64,192,17859,1,2,0:0:0:0:
448,192,17859,1,0,0:0:0:40:Clap 4.wav
192,192,17942,1,0,0:0:0:0:
320,192,18025,1,0,0:0:0:70:Small kick.wav
448,192,18109,1,0,0:0:0:0:
64,192,18192,128,2,18359:0:0:0:0:
192,192,18192,1,0,0:0:0:40:Clap 4.wav
320,192,18359,1,0,0:0:0:70:Small kick.wav
192,192,18400,1,0,0:0:0:0:
64,192,18525,1,2,0:0:0:0:
448,192,18525,1,0,0:0:0:40:Clap 4.wav
192,192,18581,1,0,0:0:0:0:
320,192,18637,1,0,0:0:0:0:
448,192,18692,128,0,18859:0:0:0:70:Small kick.wav
64,192,18859,1,2,0:0:0:0:
192,192,18859,1,0,0:0:0:40:Clap 4.wav
64,192,18942,1,0,0:0:0:0:
320,192,19025,1,0,0:0:0:70:Small kick.wav
192,192,19109,1,0,0:0:0:70:Small kick.wav
64,192,19192,1,2,0:0:0:0:
448,192,19192,1,0,0:0:0:70:Small kick.wav
192,192,19275,1,0,0:0:0:70:Small kick.wav
320,192,19275,1,0,0:0:0:0:
64,192,19359,1,0,0:0:0:70:Small kick.wav
448,192,19359,1,0,0:0:0:0:
320,192,19442,1,0,0:0:0:70:Small kick.wav
64,192,19525,1,2,0:0:0:0:
192,192,19525,1,0,0:0:0:70:Small kick 2.wav
320,192,19609,1,0,0:0:0:70:Small kick 2.wav
448,192,19609,1,0,0:0:0:0:
64,192,19692,1,0,0:0:0:70:Small kick 2.wav
192,192,19692,1,0,0:0:0:0:
448,192,19775,1,0,0:0:0:70:Small kick 2.wav
192,192,19859,1,2,0:0:0:0:
320,192,19859,1,0,0:0:0:40:Clap 4.wav
64,192,19942,1,0,0:0:0:70:Small kick 3.wav
448,192,19942,1,0,0:0:0:0:
192,192,20025,1,0,0:0:0:70:Small kick 3.wav
320,192,20025,1,0,0:0:0:0:
64,192,20109,1,0,0:0:0:70:Small kick 3.wav
320,192,20192,1,2,0:0:0:0:
448,192,20192,1,0,0:0:0:40:Clap 4.wav
64,192,20275,1,0,0:0:0:70:Small kick 4.wav
192,192,20275,1,0,0:0:0:0:
320,192,20359,1,0,0:0:0:70:Small kick 4.wav
448,192,20359,1,0,0:0:0:0:
192,192,20442,1,0,0:0:0:70:Small kick 4.wav
64,192,20525,1,2,0:0:0:0:
448,192,20525,1,0,0:0:0:40:Clap 4.wav
320,192,20581,1,0,0:0:0:70:Small kick 5.wav
192,192,20637,1,0,0:0:0:70:Small kick 6.wav
448,192,20692,1,2,0:0:0:0:
64,192,20748,1,0,0:0:0:70:Small kick 7.wav
320,192,20803,1,0,0:0:0:70:Small kick 7.wav
192,192,20859,1,2,0:0:0:0:
64,192,20914,1,0,0:0:0:70:Small kick 8.wav
320,192,20970,1,0,0:0:0:70:Small kick 8.wav
448,192,21025,1,2,0:0:0:0:
192,192,21081,1,0,0:0:0:70:Small kick 9.wav
320,192,21137,1,0,0:0:0:70:Small kick 9.wav
64,192,21192,128,8,21359:0:0:0:0:
448,192,21192,128,2,21414:0:0:0:0:
192,192,21359,1,2,0:0:0:0:
320,192,21414,1,0,0:0:0:0:
192,192,21470,1,0,0:0:0:0:
64,192,21525,1,2,0:0:0:0:
448,192,21525,128,0,21692:0:0:0:70:Snare 2.wav
192,192,21692,1,8,0:0:0:0:
320,192,21775,1,8,0:0:0:0:
64,192,21859,1,4,0:0:0:0:
448,192,21859,128,2,22025:0:0:0:0:
320,192,22025,1,0,0:0:0:0:
192,192,22053,1,0,0:0:0:0:
64,192,22081,1,0,0:0:0:0:
320,192,22192,128,2,22275:0:0:0:0:
448,192,22192,1,0,0:0:0:0:
192,192,22275,1,0,0:0:0:0:
320,192,22359,1,0,0:0:0:0:
448,192,22414,128,0,22525:0:0:0:0:
64,192,22525,1,2,0:0:0:0:
192,192,22525,128,0,22692:0:0:0:0:
320,192,22692,128,0,22775:0:0:0:0:
192,192,22775,1,0,0:0:0:0:
64,192,22859,128,2,22942:0:0:0:0:
448,192,22859,1,0,0:0:0:0:
320,192,22942,1,0,0:0:0:0:
64,192,23025,128,0,23109:0:0:0:0:
192,192,23025,128,0,23109:0:0:0:0:
64,192,23192,128,2,23359:0:0:0:0:
192,192,23192,1,0,0:0:0:0:
320,192,23359,1,0,0:0:0:0:
448,192,23387,1,0,0:0:0:0:
64,192,23525,1,2,0:0:0:0:
448,192,23525,128,0,23692:0:0:0:0:
320,192,23581,128,0,23692:0:0:0:0:
64,192,23692,128,0,23775:0:0:0:0:
192,192,23692,128,0,23775:0:0:0:0:
64,192,23859,1,2,0:0:0:0:
192,192,23859,128,0,24025:0:0:0:0:
320,192,24025,1,0,0:0:0:0:
448,192,24109,1,0,0:0:0:0:
64,192,24192,1,2,0:0:0:0:
192,192,24192,1,0,0:0:0:0:
320,192,24275,1,0,0:0:0:0:
192,192,24359,1,0,0:0:0:0:
448,192,24442,1,0,0:0:0:0:
64,192,24525,128,2,24692:0:0:0:0:
320,192,24525,1,0,0:0:0:0:
448,192,24692,1,0,0:0:0:0:
320,192,24720,1,0,0:0:0:0:
192,192,24748,1,0,0:0:0:0:
64,192,24859,1,2,0:0:0:0:
448,192,24859,128,0,25025:0:0:0:0:
320,192,24942,1,0,0:0:0:0:
64,192,25025,128,0,25109:0:0:0:0:
192,192,25025,128,0,25109:0:0:0:0:
64,192,25192,128,2,25359:0:0:0:0:
448,192,25192,1,0,0:0:0:0:
192,192,25359,1,0,0:0:0:0:
320,192,25387,128,0,25525:0:0:0:0:
64,192,25525,128,2,25609:0:0:0:0:
448,192,25525,1,0,0:0:0:0:
192,192,25609,128,0,25692:0:0:0:0:
320,192,25692,128,0,25775:0:0:0:0:
448,192,25692,128,0,25775:0:0:0:0:
320,192,25859,1,2,0:0:0:0:
448,192,25859,128,0,26025:0:0:0:0:
192,192,26025,128,0,26109:0:0:0:0:
320,192,26109,128,0,26192:0:0:0:0:
64,192,26192,128,2,26275:0:0:0:0:
448,192,26192,1,0,0:0:0:0:
192,192,26275,128,0,26359:0:0:0:0:
320,192,26359,128,0,26442:0:0:0:0:
448,192,26359,128,0,26442:0:0:0:0:
64,192,26525,1,2,0:0:0:0:
192,192,26525,1,0,0:0:0:0:
448,192,26609,1,0,0:0:0:0:
320,192,26692,1,0,0:0:0:0:
192,192,26775,1,0,0:0:0:0:
64,192,26859,1,2,0:0:0:0:
448,192,26859,128,0,27025:0:0:0:70:Clap 3.wav
192,192,27025,1,0,0:0:0:70:Clap 3.wav
320,192,27109,1,0,0:0:0:70:Clap 3.wav
64,192,27192,128,2,27359:0:0:0:0:
448,192,27192,1,0,0:0:0:0:
192,192,27359,1,0,0:0:0:0:
320,192,27387,1,0,0:0:0:0:
448,192,27414,1,0,0:0:0:0:
64,192,27525,1,2,0:0:0:0:
192,192,27525,128,0,27692:0:0:0:0:
320,192,27609,1,0,0:0:0:0:
64,192,27692,128,0,27775:0:0:0:0:
448,192,27692,128,0,27775:0:0:0:0:
320,192,27859,128,2,28025:0:0:0:0:
448,192,27859,1,0,0:0:0:0:
192,192,28025,128,0,28192:0:0:0:0:
64,192,28109,1,0,0:0:0:0:
320,192,28192,1,2,0:0:0:0:
448,192,28192,1,0,0:0:0:0:
192,192,28275,1,0,0:0:0:0:
448,192,28359,128,0,28442:0:0:0:0:
320,192,28442,1,0,0:0:0:0:
64,192,28525,1,2,0:0:0:0:
448,192,28525,128,0,28692:0:0:0:0:
320,192,28692,1,0,0:0:0:0:
192,192,28720,128,0,28859:0:0:0:0:
64,192,28859,1,2,0:0:0:0:
448,192,28859,128,0,28942:0:0:0:0:
320,192,28942,1,0,0:0:0:0:
192,192,28970,1,0,0:0:0:0:
64,192,29025,128,0,29109:0:0:0:0:
192,192,29109,1,0,0:0:0:0:
64,192,29192,128,2,29359:0:0:0:0:
448,192,29192,1,0,0:0:0:0:
320,192,29359,1,0,0:0:0:0:
448,192,29442,1,0,0:0:0:0:
64,192,29525,1,2,0:0:0:0:
192,192,29525,1,0,0:0:0:0:
320,192,29609,1,0,0:0:0:0:
64,192,29692,1,0,0:0:0:0:
192,192,29775,1,0,0:0:0:0:
448,192,29859,128,2,30025:0:0:0:0:
64,192,29859,128,0,30109:0:0:0:0:
320,192,30025,1,0,0:0:0:0:
192,192,30109,1,0,0:0:0:0:
320,192,30192,1,2,0:0:0:0:
64,192,30192,128,0,30359:0:0:0:0:
448,192,30275,1,0,0:0:0:0:
192,192,30359,128,0,30525:0:0:0:0:
320,192,30442,1,0,0:0:0:0:
64,192,30525,1,2,0:0:0:0:
448,192,30525,1,0,0:0:0:0:
320,192,30692,128,0,30775:0:0:0:0:
448,192,30775,1,0,0:0:0:0:
192,192,30859,128,2,31025:0:0:0:0:
320,192,30859,1,0,0:0:0:0:
448,192,30942,1,0,0:0:0:0:
64,192,31025,128,0,31192:0:0:0:0:
320,192,31109,1,0,0:0:0:0:
192,192,31192,1,2,0:0:0:0:
448,192,31192,128,8,31275:0:0:0:0:
320,192,31275,128,0,31359:0:0:0:0:
192,192,31359,128,0,31442:0:0:0:0:
320,192,31525,1,2,0:0:0:0:
448,192,31525,128,8,31692:0:0:0:0:
64,192,31609,128,0,31692:0:0:0:0:
192,192,31692,128,0,31775:0:0:0:0:
320,192,31775,128,0,31859:0:0:0:0:
64,192,31859,1,2,0:0:0:0:
448,192,31859,1,4,0:0:0:0:
192,192,32025,1,0,0:0:0:70:Small kick.wav
320,192,32109,1,0,0:0:0:70:Small kick.wav
192,192,32150,1,0,0:0:0:0:
64,192,32192,1,0,0:0:0:70:Snare 2.wav
448,192,32192,1,4,0:0:0:0:
64,192,32525,128,2,32692:0:0:0:0:
192,192,32525,1,4,0:0:0:0:
320,192,32525,1,0,0:0:0:70:Snare 2.wav
448,192,32692,1,0,0:0:0:0:
320,192,32720,1,0,0:0:0:0:
192,192,32748,1,0,0:0:0:0:
64,192,32859,1,8,0:0:0:0:
448,192,32859,128,0,33025:0:0:0:0:
192,192,33025,1,0,0:0:0:0:
320,192,33081,128,0,33192:0:0:0:0:
64,192,33192,128,2,33317:0:0:0:0:
448,192,33192,1,0,0:0:0:0:
192,192,33317,1,0,0:0:0:0:
448,192,33359,128,0,33525:0:0:0:0:
64,192,33525,1,8,0:0:0:0:
320,192,33525,128,0,33692:0:0:0:0:
64,192,33692,128,0,33775:0:0:0:0:
192,192,33692,128,0,33775:0:0:0:0:
64,192,33859,1,2,0:0:0:0:
192,192,33859,128,0,34025:0:0:0:0:
320,192,34025,1,0,0:0:0:0:
448,192,34053,1,0,0:0:0:0:
64,192,34192,1,8,0:0:0:0:
192,192,34192,1,0,0:0:0:0:
448,192,34248,1,0,0:0:0:0:
320,192,34303,1,0,0:0:0:0:
192,192,34359,128,0,34442:0:0:0:0:
64,192,34525,1,2,0:0:0:0:
192,192,34525,128,0,34692:0:0:0:0:
320,192,34692,1,0,0:0:0:0:
192,192,34859,128,8,35025:0:0:0:0:
448,192,34859,1,0,0:0:0:0:
320,192,35025,1,0,0:0:0:0:
192,192,35109,1,0,0:0:0:0:
64,192,35192,128,2,35359:0:0:0:0:
448,192,35192,1,0,0:0:0:0:
192,192,35359,1,0,0:0:0:0:
320,192,35414,128,0,35525:0:0:0:0:
64,192,35525,1,8,0:0:0:0:
448,192,35525,128,0,35692:0:0:0:0:
320,192,35692,1,0,0:0:0:0:
192,192,35720,128,0,35859:0:0:0:0:
64,192,35859,1,2,0:0:0:0:
448,192,35859,128,0,35998:0:0:0:0:
192,192,35998,1,0,0:0:0:0:
64,192,36025,128,0,36192:0:0:0:0:
320,192,36192,1,8,0:0:0:0:
448,192,36192,128,0,36359:0:0:0:0:
192,192,36275,1,0,0:0:0:0:
320,192,36359,128,0,36525:0:0:0:0:
64,192,36525,1,2,0:0:0:0:
192,192,36525,128,0,36609:0:0:0:0:
320,192,36609,128,0,36692:0:0:0:0:
448,192,36692,128,0,36859:0:0:0:0:
64,192,36859,1,8,0:0:0:0:
192,192,36859,128,0,37025:0:0:0:0:
320,192,37025,1,0,0:0:0:0:
448,192,37053,1,0,0:0:0:0:
64,192,37192,1,2,0:0:0:0:
448,192,37192,128,0,37359:0:0:0:0:
320,192,37359,1,0,0:0:0:0:
192,192,37387,1,0,0:0:0:0:
64,192,37525,1,8,0:0:0:0:
448,192,37525,128,0,37692:0:0:0:0:
192,192,37692,1,0,0:0:0:0:
320,192,37775,1,0,0:0:0:0:
64,192,37859,128,2,38025:0:0:0:0:
448,192,37859,1,0,0:0:0:0:
192,192,38025,1,0,0:0:0:0:
320,192,38081,128,0,38192:0:0:0:0:
64,192,38192,1,8,0:0:0:0:
192,192,38192,128,0,38359:0:0:0:0:
320,192,38359,128,0,38442:0:0:0:0:
448,192,38359,128,0,38442:0:0:0:0:
64,192,38525,1,2,0:0:0:0:
448,192,38525,128,0,38692:0:0:0:0:
192,192,38664,1,0,0:0:0:0:
320,192,38692,128,0,38859:0:0:0:0:
64,192,38859,128,8,38942:0:0:0:0:
192,192,38859,1,0,0:0:0:0:
448,192,39025,128,0,39109:0:0:0:0:
64,192,39192,1,2,0:0:0:0:
448,192,39192,128,0,39359:0:0:0:0:
192,192,39331,1,0,0:0:0:0:
320,192,39359,128,0,39442:0:0:0:0:
64,192,39525,128,8,39692:0:0:0:0:
448,192,39525,1,0,0:0:0:0:
320,192,39664,1,0,0:0:0:0:
192,192,39692,128,0,39775:0:0:0:0:
64,192,39859,1,2,0:0:0:0:
192,192,39859,128,0,40025:0:0:0:0:
320,192,40025,1,0,0:0:0:0:
192,192,40192,128,8,40275:0:0:0:0:
448,192,40192,1,0,0:0:0:0:
320,192,40359,128,0,40442:0:0:0:0:
192,192,40442,128,0,40525:0:0:0:0:
64,192,40525,128,2,40692:0:0:0:0:
320,192,40525,128,4,40692:0:0:0:0:
448,192,40525,128,0,40692:0:0:0:0:
192,192,40775,1,0,0:0:0:70:Small kick.wav
320,192,40859,128,2,41025:0:0:0:0:
448,192,40859,1,0,0:0:0:0:
64,192,41025,128,2,41192:0:0:0:0:
192,192,41025,128,4,41192:0:0:0:0:
448,192,41025,128,0,41192:0:0:0:0:
64,192,41359,1,2,0:0:0:0:
320,192,41359,128,4,41525:0:0:0:0:
448,192,41359,128,0,41525:0:0:0:0:
64,192,41525,128,2,41609:0:0:0:0:
192,192,41525,128,0,41609:0:0:0:0:
64,192,41692,128,2,41859:0:0:0:0:
320,192,41692,128,4,41859:0:0:0:0:
448,192,41692,128,0,41859:0:0:0:0:
320,192,42025,128,2,42109:0:0:0:0:
448,192,42025,1,0,0:0:0:0:
64,192,42192,128,2,42359:0:0:0:0:
192,192,42192,128,4,42359:0:0:0:0:
448,192,42192,128,0,42359:0:0:0:0:
320,192,42359,1,2,0:0:0:0:
192,192,42442,1,0,0:0:0:0:
64,192,42525,128,4,42692:0:0:0:0:
448,192,42525,128,0,42692:0:0:0:0:
320,192,42692,1,2,0:0:0:0:
192,192,42775,1,0,0:0:0:0:
448,192,42859,1,4,0:0:0:0:
320,192,42900,1,0,0:0:0:0:
64,192,42942,1,0,0:0:0:0:
192,192,42984,1,0,0:0:0:0:
320,192,43025,1,2,0:0:0:0:
64,192,43192,1,4,0:0:0:0:
192,192,43192,1,2,0:0:0:0:
448,192,43192,1,0,0:0:0:70:Snare 2.wav
192,192,43359,128,0,43442:0:0:0:0:
320,192,43442,128,0,43525:0:0:0:0:
64,192,43525,1,8,0:0:0:0:
448,192,43525,128,0,43609:0:0:0:0:
192,192,43692,128,0,43775:0:0:0:0:
320,192,43775,128,0,43859:0:0:0:0:
64,192,43859,1,2,0:0:0:0:
448,192,43859,128,0,43942:0:0:0:0:
192,192,44025,128,0,44109:0:0:0:0:
64,192,44192,1,8,0:0:0:0:
320,192,44192,128,0,44275:0:0:0:0:
192,192,44331,1,0,0:0:0:0:
320,192,44359,1,0,0:0:0:0:
448,192,44359,128,0,44442:0:0:0:0:
64,192,44525,1,2,0:0:0:0:
448,192,44525,128,0,44692:0:0:0:0:
320,192,44692,128,0,44859:0:0:0:0:
64,192,44859,128,8,45025:0:0:0:0:
448,192,44859,1,0,0:0:0:0:
192,192,45025,128,0,45192:0:0:0:0:
320,192,45192,128,2,45359:0:0:0:0:
448,192,45192,1,0,0:0:0:0:
64,192,45359,128,0,45525:0:0:0:0:
320,192,45525,1,8,0:0:0:0:
448,192,45525,128,0,45692:0:0:0:0:
64,192,45664,1,0,0:0:0:0:
192,192,45692,128,0,45775:0:0:0:0:
64,192,45859,1,2,0:0:0:0:
192,192,45859,128,0,46025:0:0:0:0:
320,192,46025,128,0,46192:0:0:0:0:
64,192,46192,128,8,46359:0:0:0:0:
448,192,46192,1,0,0:0:0:0:
320,192,46359,128,0,46525:0:0:0:0:
64,192,46525,1,2,0:0:0:0:
192,192,46525,128,0,46692:0:0:0:0:
448,192,46692,128,0,46859:0:0:0:0:
64,192,46859,1,8,0:0:0:0:
192,192,46859,128,0,46942:0:0:0:0:
320,192,46942,128,0,47025:0:0:0:0:
64,192,47025,128,0,47192:0:0:0:0:
192,192,47192,128,2,47359:0:0:0:0:
448,192,47192,1,0,0:0:0:0:
320,192,47359,128,0,47525:0:0:0:0:
64,192,47525,1,8,0:0:0:0:
448,192,47525,1,0,0:0:0:0:
320,192,47692,128,0,47859:0:0:0:0:
64,192,47859,1,2,0:0:0:0:
448,192,47859,1,0,0:0:0:0:
192,192,48025,128,0,48109:0:0:0:0:
320,192,48109,128,0,48192:0:0:0:0:
64,192,48192,1,8,0:0:0:0:
192,192,48192,1,0,0:0:0:0:
64,192,48359,128,8,48442:0:0:0:0:
320,192,48442,128,8,48525:0:0:0:0:
192,192,48525,1,2,0:0:0:0:
448,192,48525,1,0,0:0:0:0:
448,192,48609,1,0,0:0:0:0:
448,192,48775,1,0,0:0:0:0:
64,192,48859,1,8,0:0:0:0:
192,192,48859,1,0,0:0:0:0:
448,192,48942,1,0,0:0:0:0:
320,192,49192,1,2,0:0:0:0:
448,192,49192,1,0,0:0:0:0:
320,192,49275,1,0,0:0:0:0:
320,192,49442,1,0,0:0:0:0:
64,192,49525,1,8,0:0:0:0:
192,192,49525,1,0,0:0:0:0:
320,192,49609,1,0,0:0:0:0:
192,192,49859,1,2,0:0:0:0:
448,192,49859,1,0,0:0:0:0:
192,192,49942,1,0,0:0:0:0:
192,192,50109,1,0,0:0:0:0:
320,192,50192,1,8,0:0:0:0:
448,192,50192,1,0,0:0:0:0:
192,192,50275,1,0,0:0:0:0:
64,192,50525,1,2,0:0:0:0:
448,192,50525,1,0,0:0:0:0:
64,192,50609,1,0,0:0:0:0:
64,192,50775,1,0,0:0:0:0:
320,192,50859,1,8,0:0:0:0:
448,192,50859,1,0,0:0:0:0:
64,192,50942,1,0,0:0:0:0:
64,192,51192,1,2,0:0:0:0:
448,192,51192,1,0,0:0:0:0:
320,192,51331,1,0,0:0:0:0:
448,192,51359,128,0,51525:0:0:0:0:
64,192,51525,128,8,51692:0:0:0:0:
192,192,51525,1,0,0:0:0:0:
320,192,51692,128,0,51859:0:0:0:0:
64,192,51859,1,2,0:0:0:0:
448,192,51859,1,0,0:0:0:0:
320,192,52025,128,0,52109:0:0:0:0:
192,192,52109,128,0,52192:0:0:0:0:
64,192,52192,1,8,0:0:0:0:
448,192,52192,128,0,52275:0:0:0:0:
320,192,52275,128,0,52359:0:0:0:0:
192,192,52359,128,0,52442:0:0:0:0:
320,192,52442,128,0,52525:0:0:0:0:
64,192,52525,128,2,52609:0:0:0:0:
448,192,52525,1,0,0:0:0:0:
192,192,52609,128,0,52692:0:0:0:0:
448,192,52692,128,0,52775:0:0:0:0:
320,192,52775,128,0,52859:0:0:0:0:
64,192,52859,1,8,0:0:0:0:
448,192,52859,128,0,53025:0:0:0:0:
192,192,53025,128,0,53192:0:0:0:0:
320,192,53192,128,8,53359:0:0:0:0:
448,192,53192,1,0,0:0:0:0:
64,192,53359,1,0,0:0:0:0:
448,192,53359,128,0,53525:0:0:0:0:
64,192,53525,1,8,0:0:0:0:
192,192,53525,1,0,0:0:0:0:
320,192,53609,1,8,0:0:0:0:
448,192,53609,1,0,0:0:0:0:
64,192,53692,1,8,0:0:0:0:
192,192,53692,1,0,0:0:0:0:
320,192,53775,1,8,0:0:0:0:
64,192,53859,128,2,54025:0:0:0:0:
192,192,53859,1,4,0:0:0:0:
448,192,53859,1,0,0:0:0:0:
320,192,54025,128,0,54192:0:0:0:0:
64,192,54192,1,8,0:0:0:0:
448,192,54192,1,0,0:0:0:0:
320,192,54359,1,0,0:0:0:0:
192,192,54387,1,0,0:0:0:0:
320,192,54525,1,2,0:0:0:0:
448,192,54525,1,0,0:0:0:0:
64,192,54553,128,0,54692:0:0:0:0:
192,192,54692,1,0,0:0:0:0:
320,192,54720,128,0,54859:0:0:0:0:
64,192,54859,1,8,0:0:0:0:
448,192,54859,128,0,55025:0:0:0:0:
320,192,55025,1,0,0:0:0:0:
192,192,55053,128,0,55192:0:0:0:0:
64,192,55192,128,2,55359:0:0:0:0:
448,192,55192,1,0,0:0:0:0:
192,192,55359,1,0,0:0:0:0:
320,192,55387,128,0,55525:0:0:0:0:
64,192,55525,128,8,55692:0:0:0:0:
448,192,55525,1,0,0:0:0:0:
192,192,55692,1,0,0:0:0:0:
320,192,55720,128,0,55859:0:0:0:0:
64,192,55859,1,2,0:0:0:0:
448,192,55859,128,0,56025:0:0:0:0:
320,192,56025,1,0,0:0:0:0:
192,192,56053,128,0,56192:0:0:0:0:
320,192,56192,128,8,56359:0:0:0:0:
448,192,56192,1,0,0:0:0:0:
192,192,56359,1,0,0:0:0:40:normal-hitclap.wav
64,192,56387,128,0,56525:0:0:0:0:
192,192,56525,128,2,56775:0:0:0:0:
448,192,56525,1,0,0:0:0:0:
320,192,56775,128,0,56859:0:0:0:0:
64,192,56859,1,8,0:0:0:0:
192,192,56859,1,0,0:0:0:0:
320,192,57025,128,0,57109:0:0:0:0:
320,192,57192,128,2,57275:0:0:0:0:
448,192,57192,1,0,0:0:0:0:
192,192,57275,128,0,57359:0:0:0:0:
320,192,57442,128,0,57525:0:0:0:0:
64,192,57525,1,8,0:0:0:0:
448,192,57525,128,0,57609:0:0:0:0:
192,192,57692,128,0,57775:0:0:0:0:
64,192,57859,1,2,0:0:0:0:
448,192,57859,128,0,57942:0:0:0:0:
320,192,58025,128,0,58109:0:0:0:0:
64,192,58192,1,8,0:0:0:0:
192,192,58192,128,0,58275:0:0:0:0:
448,192,58275,128,0,58359:0:0:0:0:
320,192,58442,128,0,58525:0:0:0:0:
64,192,58525,1,2,0:0:0:0:
192,192,58525,128,0,58609:0:0:0:0:
320,192,58692,128,0,58775:0:0:0:0:
64,192,58859,1,8,0:0:0:0:
448,192,58859,128,0,58942:0:0:0:0:
192,192,59025,128,0,59109:0:0:0:0:
64,192,59192,128,2,59359:0:0:0:0:
448,192,59192,1,0,0:0:0:40:Clap 4.wav
320,192,59359,128,0,59525:0:0:0:70:Small kick.wav
192,192,59442,1,0,0:0:0:0:
64,192,59525,1,2,0:0:0:0:
448,192,59525,1,0,0:0:0:40:Clap 4.wav
320,192,59692,128,0,59859:0:0:0:70:Small kick.wav
448,192,59775,1,0,0:0:0:70:Small kick.wav
64,192,59859,128,2,60025:0:0:0:0:
192,192,59859,1,0,0:0:0:40:Clap 4.wav
320,192,60025,128,0,60192:0:0:0:70:Small kick 2.wav
64,192,60192,1,2,0:0:0:0:
192,192,60192,128,0,60359:0:0:0:40:Clap 4.wav
320,192,60359,128,0,60525:0:0:0:70:Small kick 2.wav
192,192,60442,1,0,0:0:0:70:Small kick 2.wav
64,192,60525,1,2,0:0:0:0:
448,192,60525,128,0,60692:0:0:0:40:Clap 4.wav
192,192,60692,128,0,60859:0:0:0:70:Small kick 3.wav
64,192,60859,128,2,61025:0:0:0:0:
448,192,60859,1,0,0:0:0:40:Clap 4.wav
192,192,61025,1,0,0:0:0:70:Small kick 3.wav
320,192,61109,1,0,0:0:0:70:Small kick 3.wav
64,192,61192,1,2,0:0:0:0:
448,192,61192,1,0,0:0:0:40:Clap 4.wav
192,192,61359,1,0,0:0:0:70:Small kick 4.wav
448,192,61442,1,0,0:0:0:0:
192,192,61525,1,2,0:0:0:0:
320,192,61525,1,0,0:0:0:40:Clap 4.wav
64,192,61609,1,0,0:0:0:0:
320,192,61692,1,0,0:0:0:70:Small kick 4.wav
448,192,61692,1,0,0:0:0:0:
192,192,61775,1,0,0:0:0:70:Small kick 4.wav
64,192,61859,1,2,0:0:0:0:
448,192,61859,1,0,0:0:0:70:Small kick.wav
320,192,61942,1,0,0:0:0:70:Small kick.wav
192,192,62025,1,0,0:0:0:70:Small kick.wav
448,192,62025,1,0,0:0:0:0:
64,192,62109,1,0,0:0:0:70:Small kick.wav
192,192,62192,1,2,0:0:0:0:
320,192,62192,1,0,0:0:0:70:Small kick 2.wav
448,192,62275,1,0,0:0:0:70:Small kick 2.wav
64,192,62359,1,0,0:0:0:70:Small kick 2.wav
192,192,62359,1,0,0:0:0:0:
320,192,62442,1,0,0:0:0:70:Small kick 2.wav
64,192,62525,1,2,0:0:0:0:
448,192,62525,1,0,0:0:0:40:Clap 4.wav
192,192,62609,1,0,0:0:0:70:Small kick 3.wav
320,192,62609,1,0,0:0:0:0:
64,192,62692,1,0,0:0:0:70:Small kick 3.wav
448,192,62692,1,0,0:0:0:0:
192,192,62775,1,0,0:0:0:70:Small kick 3.wav
320,192,62859,1,2,0:0:0:0:
448,192,62859,1,0,0:0:0:40:Clap 4.wav
64,192,62942,1,0,0:0:0:70:Small kick 4.wav
192,192,62942,1,0,0:0:0:0:
320,192,63025,1,0,0:0:0:70:Small kick 4.wav
448,192,63025,1,0,0:0:0:0:
192,192,63109,1,0,0:0:0:70:Small kick 4.wav
64,192,63192,1,2,0:0:0:0:
448,192,63192,1,0,0:0:0:40:Clap 4.wav
320,192,63248,1,0,0:0:0:70:Small kick 5.wav
192,192,63303,1,0,0:0:0:70:Small kick 6.wav
64,192,63359,1,2,0:0:0:0:
448,192,63414,1,0,0:0:0:70:Small kick 7.wav
320,192,63470,1,0,0:0:0:70:Small kick 7.wav
192,192,63525,1,2,0:0:0:0:
320,192,63581,1,0,0:0:0:70:Small kick 8.wav
448,192,63637,1,0,0:0:0:70:Small kick 8.wav
64,192,63692,1,2,0:0:0:0:
192,192,63748,1,0,0:0:0:70:Small kick 9.wav
320,192,63803,1,0,0:0:0:70:Small kick 9.wav
64,192,63859,1,8,0:0:0:0:
448,192,63859,1,2,0:0:0:0:
192,192,64025,1,0,0:0:0:0:
448,192,64109,1,0,0:0:0:0:
64,192,64192,1,6,0:0:0:0:
192,192,64192,1,0,0:0:0:70:Snare 2.wav
320,192,64275,1,0,0:0:0:0:
192,192,64359,1,0,0:0:0:0:
320,192,64442,1,0,0:0:0:0:
64,192,64525,128,4,67192:0:0:0:0:
448,192,64525,128,0,67192:0:0:0:0:
320,192,67192,128,0,67275:0:0:0:0:
320,192,67359,128,0,67442:0:0:0:0:
64,192,67692,128,0,67859:0:0:0:0:
192,192,67713,128,0,67838:0:0:0:0:
64,192,68025,128,0,68150:0:0:0:0:
448,192,68359,128,0,68505:0:0:0:0:
320,192,68380,128,0,68484:0:0:0:0:
448,192,68692,128,0,68859:0:0:0:0:
192,192,69025,128,0,69171:0:0:0:0:
64,192,69046,128,0,69150:0:0:0:0:
192,192,69359,128,0,69484:0:0:0:0:
192,192,69692,128,0,69775:0:0:0:0:
64,192,69859,1,2,0:0:0:0:
448,192,69859,1,8,0:0:0:0:
448,192,70025,1,0,0:0:0:70:Small kick.wav
64,192,70192,1,2,0:0:0:0:
320,192,70192,1,8,0:0:0:0:
192,192,70359,1,0,0:0:0:70:Small kick.wav
320,192,70442,1,0,0:0:0:70:Small kick.wav
64,192,70525,1,2,0:0:0:0:
448,192,70525,1,8,0:0:0:0:
64,192,70692,1,0,0:0:0:70:Small kick 2.wav
192,192,70859,1,2,0:0:0:0:
320,192,70859,1,8,0:0:0:0:
320,192,71025,1,0,0:0:0:70:Small kick 2.wav
192,192,71109,1,0,0:0:0:70:Small kick 2.wav
64,192,71192,1,2,0:0:0:0:
448,192,71192,1,8,0:0:0:0:
192,192,71359,1,0,0:0:0:70:Small kick 3.wav
192,192,71525,1,2,0:0:0:0:
448,192,71525,1,8,0:0:0:0:
64,192,71692,1,0,0:0:0:70:Small kick 3.wav
192,192,71775,1,0,0:0:0:70:Small kick 3.wav
64,192,71859,1,2,0:0:0:0:
448,192,71859,1,8,0:0:0:0:
320,192,72025,1,0,0:0:0:70:Small kick 4.wav
64,192,72192,1,2,0:0:0:0:
320,192,72192,1,8,0:0:0:0:
448,192,72359,1,0,0:0:0:70:Small kick 4.wav
320,192,72442,1,0,0:0:0:70:Small kick 4.wav
64,192,72525,1,2,0:0:0:0:
448,192,72525,1,0,0:0:0:70:Small kick.wav
192,192,72609,1,0,0:0:0:70:Small kick.wav
320,192,72692,1,0,0:0:0:70:Small kick.wav
192,192,72775,1,0,0:0:0:70:Small kick.wav
64,192,72859,1,2,0:0:0:0:
448,192,72859,1,0,0:0:0:70:Small kick 2.wav
320,192,72942,1,0,0:0:0:70:Small kick 2.wav
448,192,73025,1,0,0:0:0:70:Small kick 2.wav
192,192,73109,1,0,0:0:0:70:Small kick 2.wav
64,192,73192,1,2,0:0:0:0:
320,192,73192,1,0,0:0:0:40:Clap 4.wav
448,192,73275,1,0,0:0:0:70:Small kick 3.wav
192,192,73359,1,0,0:0:0:40:Clap 4.wav
320,192,73442,1,0,0:0:0:70:Small kick 3.wav
64,192,73525,1,2,0:0:0:0:
192,192,73525,1,0,0:0:0:40:Clap 4.wav
448,192,73609,1,0,0:0:0:70:Small kick 4.wav
320,192,73692,1,0,0:0:0:40:Clap 4.wav
192,192,73775,1,0,0:0:0:70:Small kick 4.wav
64,192,73859,1,2,0:0:0:0:
448,192,73859,1,0,0:0:0:40:Clap 4.wav
448,192,73942,1,0,0:0:0:70:Small kick 5.wav
192,192,74025,1,2,0:0:0:0:
320,192,74109,1,0,0:0:0:70:Small kick 6.wav
64,192,74192,1,2,0:0:0:0:
448,192,74192,1,0,0:0:0:40:Clap 4.wav
64,192,74275,1,0,0:0:0:70:Small kick 7.wav
320,192,74359,1,2,0:0:0:0:
192,192,74442,1,0,0:0:0:70:Small kick 8.wav
64,192,74525,1,2,0:0:0:0:
448,192,74525,1,0,0:0:0:70:Small kick.wav
448,192,74609,1,0,0:0:0:70:Small kick.wav
192,192,74692,1,0,0:0:0:70:Small kick.wav
320,192,74775,1,0,0:0:0:70:Small kick.wav
64,192,74859,128,2,75025:0:0:0:0:
448,192,74859,128,0,75109:0:0:0:70:Small kick.wav
64,192,75192,128,2,75400:0:0:0:0:
320,192,75192,128,4,75442:0:0:0:0:
448,192,75192,128,0,75484:0:0:0:0:
64,192,75525,1,8,0:0:0:0:
192,192,75525,1,0,0:0:0:0:
320,192,75609,1,0,0:0:0:0:
64,192,75692,128,2,75942:0:0:0:0:
192,192,75692,128,0,75900:0:0:0:0:
448,192,75692,128,0,75859:0:0:0:0:
448,192,76025,1,0,0:0:0:0:
320,192,76109,1,0,0:0:0:0:
64,192,76192,1,8,0:0:0:0:
192,192,76192,1,0,0:0:0:0:
320,192,76275,1,0,0:0:0:0:
64,192,76359,128,2,76525:0:0:0:0:
192,192,76359,128,0,76525:0:0:0:0:
448,192,76359,128,0,76525:0:0:0:0:
64,192,76692,1,2,0:0:0:0:
320,192,76692,128,0,76859:0:0:0:0:
448,192,76692,128,0,76859:0:0:0:0:
64,192,76859,1,8,0:0:0:0:
192,192,76859,1,0,0:0:0:0:
320,192,76942,1,0,0:0:0:0:
64,192,77025,128,2,77317:0:0:0:0:
192,192,77025,128,0,77275:0:0:0:0:
448,192,77025,128,0,77234:0:0:0:0:
320,192,77359,1,0,0:0:0:70:Tok.wav
448,192,77442,1,0,0:0:0:0:
64,192,77525,1,8,0:0:0:0:
192,192,77525,1,2,0:0:0:0:
320,192,77609,1,0,0:0:0:70:Tok.wav
64,192,77692,1,0,0:0:0:40:Clap 4.wav
448,192,77692,1,0,0:0:0:70:Tok.wav
192,192,77775,1,0,0:0:0:70:Tok.wav
64,192,77859,128,2,78109:0:0:0:0:
320,192,77859,128,4,78067:0:0:0:0:
448,192,77859,128,0,78025:0:0:0:0:
64,192,78192,1,8,0:0:0:0:
192,192,78192,1,0,0:0:0:0:
320,192,78275,1,0,0:0:0:0:
64,192,78359,128,2,78525:0:0:0:0:
192,192,78359,128,0,78567:0:0:0:0:
448,192,78359,128,0,78609:0:0:0:0:
320,192,78692,128,0,78775:0:0:0:70:Tok.wav
448,192,78692,128,0,78775:0:0:0:0:
64,192,78859,1,0,0:0:0:40:Clap 4.wav
448,192,78859,1,0,0:0:0:70:Tok.wav
192,192,78914,1,0,0:0:0:0:
320,192,78970,1,0,0:0:0:0:
64,192,79025,128,2,79359:0:0:0:0:
448,192,79025,128,0,79275:0:0:0:0:
192,192,79359,1,0,0:0:0:0:
320,192,79414,1,0,0:0:0:0:
448,192,79470,1,0,0:0:0:0:
64,192,79525,1,0,0:0:0:40:Clap 4.wav
192,192,79581,1,0,0:0:0:0:
320,192,79637,1,0,0:0:0:0:
64,192,79692,128,2,79775:0:0:0:0:
448,192,79692,128,0,79775:0:0:0:0:
320,192,79859,1,2,0:0:0:0:
448,192,79859,1,0,0:0:0:0:
192,192,79914,1,0,0:0:0:0:
64,192,79970,1,0,0:0:0:0:
448,192,80025,1,0,0:0:0:40:Clap 4.wav
320,192,80081,1,0,0:0:0:0:
192,192,80137,1,0,0:0:0:0:
64,192,80192,128,2,80359:0:0:0:0:
448,192,80192,128,0,80359:0:0:0:40:Clap 5.wav
320,192,80359,1,0,0:0:0:40:Clap 4.wav
192,192,80442,1,0,0:0:0:40:Clap 4.wav
64,192,80525,128,2,80734:0:0:0:0:
320,192,80525,128,0,80775:0:0:0:0:
448,192,80525,128,0,80817:0:0:0:0:
64,192,80859,1,8,0:0:0:0:
192,192,80859,1,0,0:0:0:0:
320,192,80942,1,0,0:0:0:0:
64,192,81025,128,2,81275:0:0:0:0:
192,192,81025,128,0,81234:0:0:0:0:
448,192,81025,128,0,81192:0:0:0:0:
320,192,81359,1,0,0:0:0:0:
192,192,81442,1,0,0:0:0:0:
64,192,81525,1,0,0:0:0:70:Tok.wav
448,192,81525,1,0,0:0:0:0:
192,192,81609,1,0,0:0:0:0:
64,192,81692,128,4,81859:0:0:0:0:
320,192,81692,128,2,81859:0:0:0:0:
448,192,81692,128,0,81859:0:0:0:0:
64,192,82025,1,2,0:0:0:0:
320,192,82025,128,4,82192:0:0:0:0:
448,192,82025,128,0,82192:0:0:0:0:
192,192,82192,1,0,0:0:0:70:Small kick.wav
320,192,82275,1,0,0:0:0:70:Small kick.wav
64,192,82359,128,2,82692:0:0:0:0:
192,192,82359,128,4,82650:0:0:0:0:
448,192,82359,128,0,82609:0:0:0:0:
320,192,82692,1,0,0:0:0:70:Tok.wav
448,192,82775,1,0,0:0:0:0:
64,192,82859,1,0,0:0:0:40:Clap 4.wav
192,192,82859,1,0,0:0:0:0:
320,192,82942,1,0,0:0:0:0:
192,192,83025,1,0,0:0:0:40:Clap 4.wav
320,192,83109,1,0,0:0:0:70:Tok.wav
64,192,83192,128,2,83442:0:0:0:0:
192,192,83192,128,4,83400:0:0:0:0:
448,192,83192,128,0,83359:0:0:0:0:
320,192,83525,1,0,0:0:0:70:Tok.wav
448,192,83525,1,0,0:0:0:0:
192,192,83609,1,0,0:0:0:70:Tok.wav
64,192,83692,128,2,83900:0:0:0:0:
320,192,83692,128,0,83942:0:0:0:0:
448,192,83692,128,0,83984:0:0:0:0:
192,192,84025,1,0,0:0:0:70:Tok.wav
320,192,84081,1,0,0:0:0:0:
448,192,84137,1,0,0:0:0:0:
64,192,84192,128,2,84275:0:0:0:0:
192,192,84192,128,0,84275:0:0:0:0:
320,192,84275,1,0,0:0:0:0:
64,192,84359,1,2,0:0:0:0:
192,192,84359,128,0,84525:0:0:0:0:
448,192,84525,1,0,0:0:0:0:
320,192,84609,1,0,0:0:0:0:
192,192,84692,1,0,0:0:0:0:
448,192,84775,1,0,0:0:0:0:
64,192,84859,1,8,0:0:0:0:
320,192,84859,1,0,0:0:0:0:
192,192,84942,1,0,0:0:0:0:
448,192,85025,1,0,0:0:0:0:
320,192,85109,1,0,0:0:0:0:
64,192,85192,1,6,0:0:0:0:
448,192,85192,1,0,0:0:0:70:Snare 2.wav
192,192,85248,1,0,0:0:0:0:
320,192,85303,1,0,0:0:0:0:
64,192,85359,1,0,0:0:0:0:
192,192,85442,1,0,0:0:0:0:
320,192,85525,1,6,0:0:0:0:
448,192,85525,128,0,85692:0:0:0:70:Snare 2.wav
192,192,85692,1,0,0:0:0:0:
320,192,85775,1,0,0:0:0:0:
64,192,85859,1,2,0:0:0:0:
192,192,85859,1,4,0:0:0:0:
448,192,85914,1,0,0:0:0:0:
320,192,85970,1,0,0:0:0:0:
192,192,86025,1,0,0:0:0:0:
64,192,86081,1,0,0:0:0:0:
448,192,86137,1,0,0:0:0:0:
320,192,86192,1,8,0:0:0:0:
192,192,86275,1,0,0:0:0:0:
320,192,86359,1,2,0:0:0:0:
448,192,86359,1,0,0:0:0:0:
64,192,86414,1,0,0:0:0:0:
192,192,86470,1,0,0:0:0:0:
320,192,86525,1,0,0:0:0:0:
448,192,86581,1,0,0:0:0:0:
64,192,86637,1,0,0:0:0:0:
192,192,86692,1,0,0:0:0:0:
320,192,86775,1,0,0:0:0:0:
64,192,86859,1,8,0:0:0:0:
448,192,86859,1,0,0:0:0:0:
192,192,86942,1,0,0:0:0:0:
64,192,87025,1,2,0:0:0:0:
448,192,87025,1,0,0:0:0:0:
320,192,87081,1,0,0:0:0:0:
192,192,87137,128,0,87359:0:0:0:0:
64,192,87359,1,2,0:0:0:0:
448,192,87359,1,0,0:0:0:0:
192,192,87414,1,0,0:0:0:0:
320,192,87470,128,0,87692:0:0:0:0:
64,192,87692,1,2,0:0:0:0:
448,192,87692,1,0,0:0:0:0:
320,192,87748,1,0,0:0:0:0:
192,192,87803,128,0,88025:0:0:0:0:
64,192,88025,1,0,0:0:0:70:Tok.wav
448,192,88025,1,0,0:0:0:0:
192,192,88109,1,0,0:0:0:0:
320,192,88192,1,8,0:0:0:0:
448,192,88192,1,2,0:0:0:0:
448,192,88275,1,0,0:0:0:70:Tok.wav
192,192,88359,1,0,0:0:0:40:Clap 4.wav
320,192,88442,1,0,0:0:0:70:Tok.wav
64,192,88525,1,2,0:0:0:0:
448,192,88525,1,4,0:0:0:0:
192,192,88581,1,0,0:0:0:0:
320,192,88637,1,0,0:0:0:0:
448,192,88692,1,0,0:0:0:0:
64,192,88748,1,0,0:0:0:0:
192,192,88803,1,0,0:0:0:0:
320,192,88859,1,8,0:0:0:0:
448,192,88859,1,0,0:0:0:0:
192,192,88942,1,0,0:0:0:0:
64,192,89025,1,2,0:0:0:0:
448,192,89025,1,0,0:0:0:0:
320,192,89081,1,0,0:0:0:0:
192,192,89137,1,0,0:0:0:0:
64,192,89192,1,0,0:0:0:0:
448,192,89248,1,0,0:0:0:0:
320,192,89303,1,0,0:0:0:0:
192,192,89359,128,0,89525:0:0:0:70:Tok.wav
64,192,89525,1,0,0:0:0:40:Clap 4.wav
448,192,89525,1,0,0:0:0:70:Tok.wav
192,192,89609,1,0,0:0:0:0:
320,192,89692,1,2,0:0:0:0:
448,192,89692,1,0,0:0:0:0:
192,192,89748,1,0,0:0:0:0:
64,192,89803,128,0,90025:0:0:0:0:
448,192,90025,1,0,0:0:0:0:
320,192,90081,1,0,0:0:0:0:
192,192,90137,1,0,0:0:0:0:
448,192,90192,1,0,0:0:0:40:Clap 4.wav
64,192,90248,1,0,0:0:0:0:
192,192,90303,1,0,0:0:0:0:
320,192,90359,1,2,0:0:0:0:
448,192,90359,1,0,0:0:0:0:
64,192,90525,1,2,0:0:0:0:
448,192,90525,1,0,0:0:0:0:
320,192,90581,1,0,0:0:0:0:
192,192,90637,1,0,0:0:0:0:
64,192,90692,1,0,0:0:0:40:Clap 4.wav
448,192,90748,1,0,0:0:0:0:
320,192,90803,1,0,0:0:0:0:
64,192,90859,1,2,0:0:0:0:
192,192,90859,128,0,91025:0:0:0:40:Clap 5.wav
320,192,91025,1,0,0:0:0:40:Clap 4.wav
192,192,91109,1,0,0:0:0:40:Clap 4.wav
320,192,91192,1,2,0:0:0:0:
448,192,91192,1,0,0:0:0:0:
64,192,91248,1,0,0:0:0:0:
192,192,91303,1,0,0:0:0:0:
320,192,91359,1,0,0:0:0:0:
448,192,91414,1,0,0:0:0:0:
64,192,91470,1,0,0:0:0:0:
192,192,91525,1,0,0:0:0:40:Clap 4.wav
320,192,91609,1,0,0:0:0:0:
64,192,91692,1,2,0:0:0:0:
448,192,91692,1,0,0:0:0:0:
192,192,91748,1,0,0:0:0:0:
320,192,91803,1,0,0:0:0:0:
64,192,91859,1,0,0:0:0:0:
448,192,91914,1,0,0:0:0:0:
192,192,91970,1,0,0:0:0:0:
320,192,92025,1,0,0:0:0:0:
64,192,92109,1,0,0:0:0:0:
448,192,92192,1,0,0:0:0:40:Clap 4.wav
192,192,92275,1,0,0:0:0:0:
64,192,92359,1,4,0:0:0:0:
448,192,92359,1,2,0:0:0:0:
320,192,92414,1,0,0:0:0:0:
192,192,92470,128,0,92692:0:0:0:0:
64,192,92692,1,2,0:0:0:0:
448,192,92692,1,4,0:0:0:0:
192,192,92748,1,0,0:0:0:0:
320,192,92803,128,0,93025:0:0:0:0:
64,192,93025,1,2,0:0:0:0:
448,192,93025,1,4,0:0:0:0:
320,192,93081,1,0,0:0:0:0:
192,192,93137,128,0,93359:0:0:0:0:
64,192,93359,1,0,0:0:0:70:Tok.wav
448,192,93359,1,0,0:0:0:0:
320,192,93442,1,0,0:0:0:0:
64,192,93525,1,8,0:0:0:0:
192,192,93525,1,0,0:0:0:0:
64,192,93609,1,0,0:0:0:0:
320,192,93692,1,0,0:0:0:70:Tok.wav
192,192,93775,1,0,0:0:0:70:Tok.wav
64,192,93859,1,2,0:0:0:0:
448,192,93859,1,4,0:0:0:0:
320,192,93914,1,0,0:0:0:0:
192,192,93970,1,0,0:0:0:0:
64,192,94025,1,0,0:0:0:0:
448,192,94081,1,0,0:0:0:0:
320,192,94137,1,0,0:0:0:0:
192,192,94192,1,8,0:0:0:0:
320,192,94275,1,0,0:0:0:0:
64,192,94359,1,2,0:0:0:0:
448,192,94359,1,0,0:0:0:0:
192,192,94414,1,0,0:0:0:0:
320,192,94470,1,0,0:0:0:0:
448,192,94525,1,0,0:0:0:0:
64,192,94581,1,0,0:0:0:0:
192,192,94637,1,0,0:0:0:0:
320,192,94692,1,0,0:0:0:70:Small kick.wav
192,192,94748,1,0,0:0:0:0:
64,192,94803,1,0,0:0:0:0:
320,192,94859,1,2,0:0:0:0:
448,192,94859,1,0,0:0:0:0:
448,192,94942,1,0,0:0:0:0:
64,192,95025,1,2,0:0:0:0:
192,192,95025,128,0,95192:0:0:0:0:
320,192,95192,1,0,0:0:0:0:
64,192,95275,1,0,0:0:0:0:
320,192,95359,1,0,0:0:0:0:
64,192,95442,1,0,0:0:0:0:
64,192,95525,1,2,0:0:0:0:
448,192,95525,1,0,0:0:0:0:
320,192,95609,1,0,0:0:0:0:
192,192,95692,1,0,0:0:0:0:
320,192,95775,1,0,0:0:0:0:
64,192,95859,1,2,0:0:0:0:
192,192,95859,1,4,0:0:0:0:
448,192,95859,1,0,0:0:0:0:
320,192,95942,1,0,0:0:0:0:
64,192,96025,1,0,0:0:0:0:
192,192,96109,1,0,0:0:0:0:
64,192,96192,1,2,0:0:0:0:
320,192,96192,1,4,0:0:0:0:
448,192,96192,1,0,0:0:0:70:Snare 2.wav
448,192,96275,1,0,0:0:0:0:
192,192,96359,1,0,0:0:0:0:
320,192,96442,1,0,0:0:0:0:
64,192,96525,1,2,0:0:0:0:
192,192,96525,1,4,0:0:0:0:
448,192,96525,128,0,96692:0:0:0:0:
320,192,96692,1,0,0:0:0:0:
192,192,96748,128,0,96859:0:0:0:0:
320,192,96859,128,2,97025:0:0:0:0:
64,192,96859,1,0,0:0:0:0:
192,192,97025,1,0,0:0:0:0:
64,192,97081,128,0,97192:0:0:0:0:
192,192,97192,128,2,97317:0:0:0:0:
448,192,97192,1,0,0:0:0:0:
320,192,97317,1,0,0:0:0:0:
448,192,97359,128,0,97525:0:0:0:0:
192,192,97525,1,2,0:0:0:0:
320,192,97525,128,0,97609:0:0:0:0:
64,192,97692,128,0,97775:0:0:0:0:
64,192,97859,128,2,98025:0:0:0:0:
448,192,97859,1,0,0:0:0:0:
192,192,98025,1,0,0:0:0:0:
320,192,98081,128,0,98192:0:0:0:0:
64,192,98192,1,2,0:0:0:0:
448,192,98192,1,0,0:0:0:0:
192,192,98248,128,0,98442:0:0:0:0:
64,192,98359,128,0,98442:0:0:0:0:
64,192,98525,128,2,98692:0:0:0:0:
192,192,98525,1,0,0:0:0:0:
320,192,98692,128,0,98859:0:0:0:0:
192,192,98859,128,2,99025:0:0:0:0:
448,192,98859,1,0,0:0:0:0:
64,192,99025,128,0,99192:0:0:0:0:
320,192,99192,128,2,99359:0:0:0:0:
448,192,99192,1,0,0:0:0:0:
64,192,99359,1,0,0:0:0:0:
192,192,99414,128,0,99525:0:0:0:0:
320,192,99525,1,2,0:0:0:0:
448,192,99525,128,0,99692:0:0:0:0:
64,192,99692,128,0,99775:0:0:0:0:
192,192,99859,1,2,0:0:0:0:
448,192,99859,128,0,100025:0:0:0:0:
320,192,100025,1,0,0:0:0:0:
192,192,100081,128,0,100192:0:0:0:0:
64,192,100192,128,2,100359:0:0:0:0:
448,192,100192,1,0,0:0:0:0:
192,192,100359,1,0,0:0:0:0:
320,192,100414,128,0,100525:0:0:0:0:
64,192,100525,128,2,100692:0:0:0:0:
448,192,100525,1,0,0:0:0:0:
192,192,100692,128,0,100775:0:0:0:0:
64,192,100859,1,2,0:0:0:0:
320,192,100859,128,0,101025:0:0:0:0:
448,192,101025,128,0,101109:0:0:0:0:
64,192,101192,1,2,0:0:0:0:
448,192,101192,128,0,101359:0:0:0:0:
192,192,101359,1,0,0:0:0:0:
320,192,101442,1,0,0:0:0:0:
64,192,101525,128,2,101692:0:0:0:0:
448,192,101525,128,0,101692:0:0:0:0:
320,192,101692,1,0,0:0:0:0:
192,192,101775,1,0,0:0:0:0:
64,192,101859,128,2,102025:0:0:0:0:
320,192,101859,1,4,0:0:0:0:
448,192,101859,1,8,0:0:0:0:
192,192,102025,1,0,0:0:0:0:
320,192,102081,128,0,102192:0:0:0:0:
64,192,102192,128,8,102359:0:0:0:0:
448,192,102192,1,2,0:0:0:0:
192,192,102359,1,0,0:0:0:0:
448,192,102442,128,0,102525:0:0:0:0:
64,192,102525,1,2,0:0:0:0:
320,192,102525,128,8,102664:0:0:0:0:
192,192,102664,1,0,0:0:0:0:
64,192,102692,1,0,0:0:0:0:
320,192,102775,1,0,0:0:0:0:
192,192,102859,128,2,102998:0:0:0:0:
448,192,102859,1,8,0:0:0:0:
320,192,102998,1,0,0:0:0:0:
448,192,103025,1,0,0:0:0:0:
192,192,103109,1,0,0:0:0:0:
64,192,103192,1,12,0:0:0:0:
448,192,103192,128,2,103331:0:0:0:0:
320,192,103331,1,0,0:0:0:0:
192,192,103359,1,0,0:0:0:0:
448,192,103442,1,0,0:0:0:0:
64,192,103525,1,2,0:0:0:0:
192,192,103525,128,8,103664:0:0:0:0:
320,192,103664,1,0,0:0:0:0:
448,192,103692,128,0,103775:0:0:0:0:
192,192,103775,1,0,0:0:0:0:
64,192,103859,128,8,104025:0:0:0:0:
448,192,103859,1,2,0:0:0:0:
320,192,104025,1,0,0:0:0:0:
192,192,104109,1,0,0:0:0:0:
64,192,104192,128,2,104359:0:0:0:0:
448,192,104192,1,8,0:0:0:0:
320,192,104359,128,0,104442:0:0:0:0:
192,192,104442,128,0,104525:0:0:0:0:
64,192,104525,1,14,0:0:0:0:
448,192,104525,128,0,104775:0:0:0:70:Small kick.wav
192,192,104692,1,0,0:0:0:70:Small kick 2.wav
64,192,104775,1,0,0:0:0:70:Small kick 2.wav
192,192,104859,1,0,0:0:0:70:Small kick 3.wav
320,192,104859,128,0,105025:0:0:0:0:
64,192,104942,1,0,0:0:0:70:Small kick 3.wav
448,192,105025,128,0,105192:0:0:0:70:Small kick 4.wav
192,192,105109,1,0,0:0:0:70:Small kick 4.wav
64,192,105192,1,4,0:0:0:0:
320,192,105192,1,0,0:0:0:70:Small kick 5.wav
192,192,105275,1,0,0:0:0:70:Small kick 5.wav
320,192,105331,1,0,0:0:0:0:
448,192,105359,1,0,0:0:0:70:Small kick 6.wav
192,192,105442,1,0,0:0:0:70:Small kick 6.wav
320,192,105525,128,0,105692:0:0:0:70:Small kick 7.wav
64,192,105609,1,0,0:0:0:70:Small kick 7.wav
192,192,105692,128,0,105775:0:0:0:70:Small kick 8.wav
320,192,105775,1,0,0:0:0:70:Small kick 8.wav
64,192,105859,1,4,0:0:0:0:
448,192,105859,1,0,0:0:0:70:Hihat 1.wav
192,192,105942,1,0,0:0:0:70:Hihat 1.wav
320,192,106025,1,0,0:0:0:70:Hihat 2.wav
448,192,106053,1,0,0:0:0:0:
192,192,106109,1,0,0:0:0:70:Hihat 2.wav
448,192,106192,128,0,106359:0:0:0:70:Hihat 3.wav
320,192,106275,1,0,0:0:0:70:Hihat 3.wav
64,192,106359,128,0,106942:0:0:0:70:Hihat 4.wav
192,192,106442,1,0,0:0:0:70:Hihat 4.wav
448,192,106525,1,0,0:0:0:70:Hihat 5.wav
192,192,106609,1,0,0:0:0:70:Hihat 5.wav
448,192,106692,1,0,0:0:0:70:Hihat 6.wav
192,192,106775,1,0,0:0:0:70:Hihat 6.wav
448,192,106859,1,0,0:0:0:70:Hihat 7.wav
192,192,106942,1,0,0:0:0:70:Hihat 7.wav
448,192,107005,1,0,0:0:0:0:
320,192,107025,1,0,0:0:0:0:
64,192,107088,1,0,0:0:0:0:
320,192,107192,1,2,0:0:0:0:
448,192,107192,1,0,0:0:0:40:Clap 5.wav
64,192,107359,1,2,0:0:0:0:
448,192,107359,1,0,0:0:0:0:
320,192,107442,1,2,0:0:0:0:
64,192,107525,1,2,0:0:0:0:
192,192,107525,1,0,0:0:0:40:Clap 4.wav
64,192,107609,1,2,0:0:0:0:
448,192,107609,1,0,0:0:0:40:Clap 5.wav
320,192,107775,1,2,0:0:0:0:
448,192,107775,1,0,0:0:0:40:Clap 4.wav
192,192,107859,1,2,0:0:0:0:
448,192,107859,1,0,0:0:0:40:Clap 5.wav
64,192,108025,1,2,0:0:0:0:
192,192,108025,1,0,0:0:0:40:Clap 4.wav
64,192,108109,1,2,0:0:0:0:
320,192,108109,1,0,0:0:0:40:Clap 5.wav
320,192,108275,1,2,0:0:0:0:
448,192,108275,1,0,0:0:0:40:Clap 4.wav
64,192,108359,1,2,0:0:0:0:
448,192,108359,1,0,0:0:0:40:Clap 5.wav
192,192,108442,1,2,0:0:0:0:
320,192,108442,1,0,0:0:0:40:Clap 6.wav
64,192,108525,128,2,108692:0:0:0:0:
448,192,108525,1,0,0:0:0:40:Clap 7.wav
320,192,108692,1,0,0:0:0:0:
192,192,108775,1,0,0:0:0:0:
64,192,108859,1,2,0:0:0:0:
448,192,108859,128,0,109025:0:0:0:40:Clap 7.wav
192,192,109025,1,0,0:0:0:0:
320,192,109109,1,0,0:0:0:0:
64,192,109192,1,2,0:0:0:0:
448,192,109192,128,0,109359:0:0:0:40:Clap 7.wav
192,192,109359,1,2,0:0:0:0:
192,192,109442,1,2,0:0:0:0:
64,192,109525,1,2,0:0:0:0:
320,192,109525,1,4,0:0:0:0:
448,192,109525,1,0,0:0:0:70:Snare 2.wav
64,192,109859,1,2,0:0:0:0:
192,192,109859,1,4,0:0:0:0:
448,192,109859,128,0,110025:0:0:0:70:Snare 2.wav
320,192,110025,1,0,0:0:0:0:
192,192,110067,1,0,0:0:0:0:
64,192,110109,128,0,110275:0:0:0:0:
320,192,110192,128,8,110359:0:0:0:0:
448,192,110192,1,0,0:0:0:0:
192,192,110359,1,0,0:0:0:0:
64,192,110400,1,0,0:0:0:0:
448,192,110442,128,0,110525:0:0:0:0:
64,192,110525,1,2,0:0:0:0:
192,192,110525,128,0,110664:0:0:0:0:
320,192,110637,128,0,110720:0:0:0:0:
448,192,110664,128,0,110775:0:0:0:0:
64,192,110859,1,8,0:0:0:0:
320,192,110859,128,0,111025:0:0:0:0:
192,192,111025,1,0,0:0:0:0:
64,192,111067,1,0,0:0:0:0:
64,192,111192,128,2,111359:0:0:0:0:
448,192,111192,1,0,0:0:0:0:
320,192,111359,128,0,111442:0:0:0:0:
448,192,111387,128,0,111525:0:0:0:0:
64,192,111525,1,8,0:0:0:0:
192,192,111525,1,0,0:0:0:0:
320,192,111581,1,0,0:0:0:0:
192,192,111637,1,0,0:0:0:0:
64,192,111692,128,0,111859:0:0:0:0:
192,192,111859,1,2,0:0:0:0:
448,192,111859,128,0,112025:0:0:0:0:
320,192,112025,1,0,0:0:0:0:
192,192,112081,1,0,0:0:0:0:
448,192,112137,1,0,0:0:0:0:
64,192,112192,1,8,0:0:0:0:
320,192,112192,128,0,112359:0:0:0:0:
192,192,112359,1,0,0:0:0:0:
320,192,112442,1,0,0:0:0:0:
64,192,112525,128,2,112692:0:0:0:0:
448,192,112525,1,0,0:0:0:0:
192,192,112692,1,0,0:0:0:0:
320,192,112734,1,0,0:0:0:0:
64,192,112859,1,8,0:0:0:0:
448,192,112859,128,0,113025:0:0:0:0:
320,192,113025,1,0,0:0:0:0:
192,192,113067,1,0,0:0:0:0:
320,192,113192,128,2,113331:0:0:0:0:
448,192,113192,1,0,0:0:0:0:
192,192,113331,1,0,0:0:0:0:
64,192,113359,1,0,0:0:0:0:
64,192,113525,128,8,113692:0:0:0:0:
448,192,113525,1,0,0:0:0:0:
192,192,113609,1,0,0:0:0:0:
320,192,113692,1,0,0:0:0:0:
448,192,113734,1,0,0:0:0:0:
64,192,113775,1,0,0:0:0:0:
192,192,113859,1,2,0:0:0:0:
448,192,113859,128,0,114025:0:0:0:0:
320,192,113942,1,0,0:0:0:0:
192,192,114025,1,0,0:0:0:0:
64,192,114067,1,0,0:0:0:0:
320,192,114109,1,0,0:0:0:0:
64,192,114192,128,8,114359:0:0:0:0:
448,192,114192,1,0,0:0:0:0:
192,192,114359,1,0,0:0:0:0:
320,192,114387,128,0,114525:0:0:0:0:
64,192,114525,1,2,0:0:0:0:
448,192,114525,128,0,114692:0:0:0:0:
192,192,114692,1,0,0:0:0:0:
320,192,114748,1,0,0:0:0:0:
64,192,114803,1,0,0:0:0:0:
192,192,114859,1,8,0:0:0:0:
448,192,114859,128,0,115025:0:0:0:0:
320,192,115025,1,0,0:0:0:0:
192,192,115109,1,0,0:0:0:0:
64,192,115192,128,2,115359:0:0:0:0:
448,192,115192,1,0,0:0:0:0:
192,192,115359,1,0,0:0:0:0:
320,192,115400,1,0,0:0:0:0:
448,192,115442,128,0,115609:0:0:0:0:
64,192,115525,128,8,115692:0:0:0:0:
192,192,115525,1,0,0:0:0:0:
320,192,115692,1,0,0:0:0:0:
192,192,115734,1,0,0:0:0:0:
448,192,115775,1,0,0:0:0:0:
64,192,115859,128,2,116053:0:0:0:0:
320,192,115859,1,0,0:0:0:0:
192,192,115998,128,0,116081:0:0:0:0:
448,192,116025,128,0,116109:0:0:0:0:
64,192,116192,1,8,0:0:0:0:
192,192,116192,128,0,116359:0:0:0:0:
320,192,116359,1,0,0:0:0:0:
448,192,116400,1,0,0:0:0:0:
64,192,116525,1,2,0:0:0:0:
448,192,116525,128,0,116692:0:0:0:0:
320,192,116609,1,0,0:0:0:0:
192,192,116692,128,0,116775:0:0:0:0:
64,192,116720,128,0,116859:0:0:0:0:
320,192,116859,1,8,0:0:0:0:
448,192,116859,1,0,0:0:0:0:
192,192,116942,1,0,0:0:0:0:
320,192,116984,1,0,0:0:0:0:
448,192,117025,128,0,117192:0:0:0:0:
64,192,117192,128,2,117359:0:0:0:0:
192,192,117192,1,0,0:0:0:0:
320,192,117359,1,0,0:0:0:0:
192,192,117414,1,0,0:0:0:0:
448,192,117470,1,0,0:0:0:0:
64,192,117525,128,8,117692:0:0:0:0:
320,192,117525,1,0,0:0:0:0:
320,192,117692,128,0,117775:0:0:0:0:
192,192,117775,128,0,117859:0:0:0:0:
64,192,117859,128,2,118025:0:0:0:0:
320,192,117859,128,4,118025:0:0:0:0:
448,192,117859,128,0,118025:0:0:0:0:
192,192,118109,1,0,0:0:0:70:Small kick.wav
320,192,118192,128,2,118359:0:0:0:0:
448,192,118192,1,0,0:0:0:0:
64,192,118359,128,4,118525:0:0:0:0:
192,192,118359,128,0,118525:0:0:0:0:
448,192,118359,128,0,118525:0:0:0:0:
64,192,118692,1,4,0:0:0:0:
320,192,118692,128,0,118859:0:0:0:70:Small kick.wav
448,192,118692,128,0,118859:0:0:0:0:
64,192,118859,128,2,118942:0:0:0:0:
192,192,118859,128,0,118942:0:0:0:0:
64,192,119025,128,4,119192:0:0:0:0:
320,192,119025,128,0,119192:0:0:0:0:
448,192,119025,128,0,119192:0:0:0:0:
320,192,119359,128,0,119442:0:0:0:70:Small kick.wav
448,192,119359,1,0,0:0:0:0:
64,192,119525,128,2,119692:0:0:0:0:
192,192,119525,128,4,119692:0:0:0:0:
448,192,119525,128,0,119692:0:0:0:0:
320,192,119692,1,0,0:0:0:0:
192,192,119775,1,0,0:0:0:0:
64,192,119859,128,4,120025:0:0:0:0:
448,192,119859,128,0,120025:0:0:0:70:Small kick.wav
320,192,120025,1,0,0:0:0:0:
192,192,120109,1,0,0:0:0:0:
448,192,120192,1,4,0:0:0:0:
320,192,120234,1,0,0:0:0:0:
64,192,120275,1,0,0:0:0:0:
192,192,120317,1,0,0:0:0:0:
320,192,120359,1,0,0:0:0:0:
64,192,120525,1,2,0:0:0:0:
192,192,120525,1,4,0:0:0:0:
448,192,120525,1,0,0:0:0:0:
320,192,120609,1,0,0:0:0:0:
192,192,120692,1,0,0:0:0:0:
64,192,120734,1,0,0:0:0:0:
448,192,120775,1,0,0:0:0:0:
192,192,120859,1,8,0:0:0:0:
320,192,120859,1,0,0:0:0:0:
64,192,120942,1,0,0:0:0:0:
192,192,121025,1,0,0:0:0:0:
320,192,121067,1,0,0:0:0:0:
448,192,121109,1,0,0:0:0:0:
64,192,121192,1,2,0:0:0:0:
192,192,121192,1,0,0:0:0:0:
320,192,121275,1,0,0:0:0:0:
64,192,121359,1,0,0:0:0:0:
192,192,121387,1,0,0:0:0:0:
320,192,121442,1,0,0:0:0:0:
64,192,121525,1,8,0:0:0:0:
448,192,121525,1,0,0:0:0:0:
192,192,121609,1,0,0:0:0:0:
448,192,121692,1,0,0:0:0:0:
320,192,121734,1,0,0:0:0:0:
192,192,121775,1,0,0:0:0:0:
64,192,121859,1,2,0:0:0:0:
448,192,121859,1,0,0:0:0:0:
320,192,121942,1,0,0:0:0:0:
192,192,122025,1,0,0:0:0:0:
64,192,122067,1,0,0:0:0:0:
448,192,122109,1,0,0:0:0:0:
64,192,122192,1,8,0:0:0:0:
192,192,122192,1,0,0:0:0:0:
320,192,122248,1,0,0:0:0:0:
192,192,122303,1,0,0:0:0:0:
64,192,122359,1,0,0:0:0:0:
320,192,122442,1,0,0:0:0:0:
64,192,122525,1,2,0:0:0:0:
448,192,122525,1,0,0:0:0:0:
320,192,122581,1,0,0:0:0:0:
192,192,122637,1,0,0:0:0:0:
64,192,122692,1,0,0:0:0:0:
448,192,122748,1,0,0:0:0:0:
320,192,122803,1,0,0:0:0:0:
64,192,122859,1,8,0:0:0:0:
192,192,122859,1,0,0:0:0:0:
448,192,122914,1,0,0:0:0:0:
320,192,122970,1,0,0:0:0:0:
64,192,123025,1,0,0:0:0:0:
192,192,123109,1,0,0:0:0:0:
64,192,123192,1,2,0:0:0:0:
320,192,123192,1,0,0:0:0:0:
448,192,123275,1,0,0:0:0:0:
64,192,123359,1,0,0:0:0:0:
192,192,123400,1,0,0:0:0:0:
320,192,123442,1,0,0:0:0:0:
64,192,123525,1,8,0:0:0:0:
448,192,123525,1,0,0:0:0:0:
320,192,123609,1,0,0:0:0:0:
192,192,123692,1,0,0:0:0:0:
64,192,123734,1,0,0:0:0:0:
320,192,123775,1,0,0:0:0:0:
192,192,123859,1,2,0:0:0:0:
448,192,123859,1,0,0:0:0:0:
64,192,123942,1,0,0:0:0:0:
320,192,124025,1,0,0:0:0:0:
448,192,124067,1,0,0:0:0:0:
192,192,124109,1,0,0:0:0:0:
64,192,124192,1,8,0:0:0:0:
320,192,124192,1,0,0:0:0:0:
448,192,124275,1,0,0:0:0:0:
64,192,124359,1,0,0:0:0:0:
192,192,124400,1,0,0:0:0:0:
320,192,124442,1,0,0:0:0:0:
64,192,124525,1,2,0:0:0:0:
448,192,124525,1,0,0:0:0:0:
192,192,124581,1,0,0:0:0:0:
320,192,124637,1,0,0:0:0:0:
192,192,124692,1,0,0:0:0:0:
448,192,124748,1,0,0:0:0:0:
320,192,124803,1,0,0:0:0:0:
64,192,124859,1,8,0:0:0:0:
192,192,124859,1,0,0:0:0:0:
448,192,124942,1,0,0:0:0:0:
64,192,125025,1,0,0:0:0:0:
192,192,125067,1,0,0:0:0:0:
320,192,125109,1,0,0:0:0:0:
64,192,125192,1,2,0:0:0:0:
448,192,125192,1,0,0:0:0:0:
192,192,125248,1,0,0:0:0:0:
320,192,125303,1,0,0:0:0:0:
448,192,125359,1,0,0:0:0:0:
192,192,125442,1,0,0:0:0:0:
64,192,125525,1,8,0:0:0:0:
448,192,125525,1,0,0:0:0:0:
320,192,125581,1,0,0:0:0:0:
192,192,125637,1,0,0:0:0:0:
64,192,125692,1,0,0:0:0:0:
320,192,125775,1,0,0:0:0:0:
64,192,125859,1,2,0:0:0:0:
448,192,125859,1,4,0:0:0:0:
192,192,125942,1,0,0:0:0:0:
320,192,126025,1,0,0:0:0:0:
192,192,126067,1,0,0:0:0:0:
64,192,126109,1,0,0:0:0:0:
320,192,126192,1,8,0:0:0:0:
448,192,126192,1,0,0:0:0:0:
192,192,126275,1,0,0:0:0:0:
64,192,126359,1,0,0:0:0:0:
448,192,126400,1,0,0:0:0:0:
320,192,126442,1,0,0:0:0:0:
64,192,126525,1,2,0:0:0:0:
192,192,126525,1,0,0:0:0:0:
448,192,126609,1,0,0:0:0:0:
192,192,126692,1,0,0:0:0:0:
320,192,126734,1,0,0:0:0:0:
64,192,126775,1,0,0:0:0:0:
192,192,126859,1,8,0:0:0:0:
448,192,126859,1,0,0:0:0:0:
320,192,126942,1,0,0:0:0:0:
64,192,127025,1,0,0:0:0:0:
192,192,127067,1,0,0:0:0:0:
448,192,127109,1,0,0:0:0:0:
64,192,127192,1,2,0:0:0:0:
320,192,127192,1,0,0:0:0:0:
192,192,127275,1,0,0:0:0:0:
448,192,127359,1,0,0:0:0:0:
320,192,127400,1,0,0:0:0:0:
192,192,127442,1,0,0:0:0:0:
320,192,127525,1,8,0:0:0:0:
448,192,127525,1,0,0:0:0:0:
64,192,127609,1,0,0:0:0:0:
192,192,127692,1,0,0:0:0:0:
448,192,127734,1,0,0:0:0:0:
320,192,127775,1,0,0:0:0:0:
64,192,127859,1,2,0:0:0:0:
448,192,127859,1,0,0:0:0:0:
320,192,127914,1,0,0:0:0:0:
192,192,127970,1,0,0:0:0:0:
64,192,128025,1,0,0:0:0:0:
320,192,128109,1,0,0:0:0:0:
64,192,128192,1,8,0:0:0:0:
448,192,128192,1,0,0:0:0:0:
192,192,128275,1,0,0:0:0:0:
320,192,128359,128,0,128442:0:0:0:70:Small kick.wav
192,192,128442,128,0,128525:0:0:0:0:
64,192,128525,1,4,0:0:0:0:
320,192,128525,1,2,0:0:0:0:
448,192,128525,128,0,128775:0:0:0:0:
64,192,128692,1,0,0:0:0:0:
192,192,128775,1,0,0:0:0:0:
320,192,128859,128,8,129025:0:0:0:0:
448,192,128859,1,0,0:0:0:0:
64,192,128942,1,0,0:0:0:0:
448,192,129025,128,0,129192:0:0:0:0:
192,192,129109,1,0,0:0:0:0:
64,192,129192,1,2,0:0:0:0:
320,192,129192,1,0,0:0:0:0:
192,192,129275,1,0,0:0:0:0:
320,192,129331,1,0,0:0:0:0:
448,192,129359,1,0,0:0:0:0:
64,192,129442,1,0,0:0:0:0:
192,192,129525,1,8,0:0:0:0:
320,192,129525,128,0,129692:0:0:0:0:
448,192,129609,1,0,0:0:0:0:
64,192,129692,128,0,129859:0:0:0:0:
192,192,129775,1,0,0:0:0:0:
320,192,129859,1,2,0:0:0:0:
448,192,129859,1,0,0:0:0:0:
192,192,129942,1,0,0:0:0:0:
320,192,130025,128,0,130109:0:0:0:0:
64,192,130109,1,0,0:0:0:0:
192,192,130192,1,8,0:0:0:0:
448,192,130192,128,0,130359:0:0:0:0:
320,192,130275,1,0,0:0:0:0:
64,192,130359,128,0,130525:0:0:0:0:
192,192,130442,1,0,0:0:0:0:
320,192,130525,128,2,130692:0:0:0:0:
448,192,130525,1,4,0:0:0:0:
192,192,130692,1,0,0:0:0:0:
320,192,130775,1,0,0:0:0:0:
64,192,130859,1,8,0:0:0:0:
448,192,130859,1,4,0:0:0:0:
192,192,130914,1,0,0:0:0:0:
320,192,130970,1,0,0:0:0:0:
192,192,131025,1,0,0:0:0:70:Small kick.wav
320,192,131081,1,0,0:0:0:0:
64,192,131192,1,4,0:0:0:0:
192,192,131192,1,2,0:0:0:0:
448,192,131192,128,0,131442:0:0:0:0:
64,192,131359,1,0,0:0:0:0:
320,192,131442,1,0,0:0:0:0:
192,192,131525,1,8,0:0:0:0:
448,192,131525,128,0,131692:0:0:0:0:
64,192,131609,1,0,0:0:0:0:
320,192,131692,128,0,131859:0:0:0:0:
192,192,131775,1,0,0:0:0:0:
64,192,131859,1,2,0:0:0:0:
448,192,131859,1,0,0:0:0:0:
192,192,131942,1,0,0:0:0:0:
320,192,131998,1,0,0:0:0:0:
448,192,132025,1,0,0:0:0:0:
192,192,132109,1,0,0:0:0:0:
64,192,132192,1,8,0:0:0:0:
448,192,132192,128,0,132359:0:0:0:0:
320,192,132275,1,0,0:0:0:0:
192,192,132359,128,0,132525:0:0:0:0:
64,192,132442,1,0,0:0:0:0:
320,192,132525,1,2,0:0:0:0:
448,192,132525,1,0,0:0:0:0:
192,192,132609,1,0,0:0:0:0:
64,192,132692,128,0,132775:0:0:0:0:
192,192,132775,1,0,0:0:0:0:
64,192,132859,1,8,0:0:0:0:
448,192,132859,128,0,133025:0:0:0:0:
320,192,132942,1,0,0:0:0:0:
192,192,133025,128,0,133192:0:0:0:0:
320,192,133109,1,0,0:0:0:0:
64,192,133192,128,2,133359:0:0:0:0:
448,192,133192,1,4,0:0:0:0:
192,192,133359,1,0,0:0:0:0:
320,192,133442,1,0,0:0:0:0:
64,192,133525,1,8,0:0:0:0:
448,192,133525,1,4,0:0:0:0:
192,192,133609,1,0,0:0:0:70:Small kick.wav
320,192,133609,1,0,0:0:0:0:
64,192,133692,1,0,0:0:0:70:Small kick.wav
448,192,133692,1,0,0:0:0:0:
192,192,133775,1,0,0:0:0:70:Small kick.wav
64,192,133859,1,2,0:0:0:0:
320,192,133859,1,4,0:0:0:0:
448,192,133859,128,0,134109:0:0:0:0:
192,192,134025,1,0,0:0:0:0:
320,192,134109,1,0,0:0:0:0:
192,192,134192,1,8,0:0:0:0:
448,192,134192,128,0,134359:0:0:0:0:
64,192,134275,1,0,0:0:0:0:
320,192,134359,128,0,134525:0:0:0:0:
192,192,134442,1,0,0:0:0:0:
64,192,134525,1,2,0:0:0:0:
448,192,134525,1,0,0:0:0:40:Clap 4.wav
192,192,134609,1,0,0:0:0:0:
320,192,134664,1,0,0:0:0:0:
448,192,134692,1,0,0:0:0:0:
192,192,134775,1,0,0:0:0:0:
64,192,134859,1,10,0:0:0:0:
448,192,134859,1,0,0:0:0:70:Small kick.wav
320,192,134942,1,0,0:0:0:70:Small kick.wav
64,192,135025,1,4,0:0:0:0:
192,192,135025,1,0,0:0:0:70:Small kick.wav
320,192,135192,1,2,0:0:0:0:
192,192,135275,1,0,0:0:0:70:Small kick.wav
320,192,135338,128,0,135380:0:0:0:0:
448,192,135359,128,4,135400:0:0:0:0:
320,192,135505,128,0,135546:0:0:0:0:
448,192,135525,128,4,135567:0:0:0:0:
64,192,135692,1,2,0:0:0:0:
320,192,135775,1,0,0:0:0:70:Small kick 4.wav
192,192,135838,128,0,135880:0:0:0:0:
64,192,135859,128,4,135900:0:0:0:0:
448,192,136025,1,2,0:0:0:0:
192,192,136109,1,0,0:0:0:40:Clap 4.wav
320,192,136171,128,0,136213:0:0:0:0:
448,192,136192,128,4,136234:0:0:0:0:
64,192,136359,1,2,0:0:0:0:
320,192,136442,1,0,0:0:0:40:Clap 4.wav
64,192,136505,128,0,136546:0:0:0:0:
192,192,136525,128,4,136567:0:0:0:0:
320,192,136609,1,0,0:0:0:70:Small kick.wav
64,192,136671,128,0,136713:0:0:0:0:
192,192,136692,128,4,136734:0:0:0:0:
320,192,136775,1,0,0:0:0:70:Small kick 4.wav
64,192,136838,128,0,136880:0:0:0:0:
192,192,136859,128,4,136900:0:0:0:0:
320,192,136942,1,0,0:0:0:70:Small kick 6.wav
64,192,137005,128,0,137046:0:0:0:0:
192,192,137025,128,4,137067:0:0:0:0:
320,192,137109,1,0,0:0:0:70:Small kick 8.wav
64,192,137171,1,0,0:0:0:0:
192,192,137192,1,4,0:0:0:0:
448,192,137255,1,0,0:0:0:0:
320,192,137275,1,4,0:0:0:0:
64,192,137338,1,0,0:0:0:0:
192,192,137359,1,4,0:0:0:0:
448,192,137421,1,0,0:0:0:0:
320,192,137442,1,4,0:0:0:0:
64,192,137525,1,4,0:0:0:0:
192,192,137525,1,0,0:0:0:70:Snare 2.wav
448,192,137525,1,0,0:0:0:0:
64,192,137859,1,6,0:0:0:0:
192,192,137859,128,0,138081:0:0:0:70:Snare 2.wav
320,192,137914,128,0,138025:0:0:0:0:
448,192,138025,1,0,0:0:0:0:
64,192,138081,1,0,0:0:0:0:
192,192,138192,128,8,138359:0:0:0:0:
448,192,138192,1,0,0:0:0:0:
64,192,138248,128,0,138414:0:0:0:0:
320,192,138359,1,0,0:0:0:0:
448,192,138414,1,0,0:0:0:0:
192,192,138525,1,2,0:0:0:0:
320,192,138525,1,0,0:0:0:0:
64,192,138581,1,0,0:0:0:0:
448,192,138637,1,0,0:0:0:0:
320,192,138692,1,0,0:0:0:0:
192,192,138775,1,0,0:0:0:0:
64,192,138859,1,8,0:0:0:0:
448,192,138859,1,0,0:0:0:0:
320,192,138914,1,0,0:0:0:0:
448,192,138970,1,0,0:0:0:0:
192,192,139025,1,0,0:0:0:0:
320,192,139109,1,0,0:0:0:0:
64,192,139192,1,2,0:0:0:0:
448,192,139192,1,0,0:0:0:0:
192,192,139275,1,0,0:0:0:0:
320,192,139359,1,0,0:0:0:0:
64,192,139442,1,0,0:0:0:0:
320,192,139525,1,8,0:0:0:0:
448,192,139525,1,0,0:0:0:0:
192,192,139609,1,0,0:0:0:0:
64,192,139637,1,0,0:0:0:0:
448,192,139692,1,0,0:0:0:0:
320,192,139775,1,0,0:0:0:0:
64,192,139859,1,2,0:0:0:0:
192,192,139859,1,0,0:0:0:0:
320,192,139942,1,0,0:0:0:0:
448,192,139970,1,0,0:0:0:0:
192,192,140025,1,0,0:0:0:0:
64,192,140109,1,0,0:0:0:0:
320,192,140192,1,8,0:0:0:0:
448,192,140192,1,0,0:0:0:0:
192,192,140275,1,0,0:0:0:0:
64,192,140359,128,0,140442:0:0:0:0:
448,192,140387,128,0,140442:0:0:0:0:
64,192,140525,1,2,0:0:0:0:
192,192,140525,128,0,140637:0:0:0:0:
320,192,140581,128,0,140692:0:0:0:0:
448,192,140692,1,0,0:0:0:0:
64,192,140748,1,0,0:0:0:0:
192,192,140859,128,8,141025:0:0:0:0:
448,192,140859,1,0,0:0:0:0:
64,192,140914,128,0,141081:0:0:0:0:
320,192,141025,1,0,0:0:0:0:
448,192,141081,1,0,0:0:0:0:
64,192,141192,1,2,0:0:0:0:
192,192,141192,1,0,0:0:0:0:
320,192,141248,1,0,0:0:0:0:
448,192,141303,1,0,0:0:0:0:
64,192,141359,1,0,0:0:0:0:
192,192,141442,1,0,0:0:0:0:
320,192,141525,1,8,0:0:0:0:
448,192,141525,1,0,0:0:0:0:
192,192,141609,1,0,0:0:0:0:
320,192,141692,1,0,0:0:0:0:
448,192,141720,1,0,0:0:0:0:
64,192,141775,1,0,0:0:0:0:
192,192,141859,1,2,0:0:0:0:
448,192,141859,1,0,0:0:0:0:
320,192,141942,1,0,0:0:0:0:
64,192,142025,1,0,0:0:0:0:
192,192,142067,1,0,0:0:0:0:
448,192,142109,1,0,0:0:0:0:
320,192,142150,1,0,0:0:0:0:
64,192,142192,1,8,0:0:0:0:
192,192,142192,1,0,0:0:0:0:
448,192,142275,1,0,0:0:0:0:
320,192,142359,1,0,0:0:0:0:
192,192,142387,1,0,0:0:0:0:
64,192,142414,1,0,0:0:0:0:
320,192,142525,1,2,0:0:0:0:
448,192,142525,1,0,0:0:0:0:
192,192,142609,1,0,0:0:0:0:
448,192,142692,1,0,0:0:0:0:
320,192,142748,1,0,0:0:0:0:
64,192,142775,1,0,0:0:0:0:
192,192,142859,1,8,0:0:0:0:
448,192,142859,1,0,0:0:0:0:
64,192,142942,1,0,0:0:0:0:
320,192,143025,1,0,0:0:0:0:
192,192,143109,1,0,0:0:0:0:
320,192,143192,128,2,143414:0:0:0:0:
448,192,143192,1,4,0:0:0:0:
64,192,143248,128,0,143359:0:0:0:0:
192,192,143359,1,0,0:0:0:0:
448,192,143414,1,0,0:0:0:0:
64,192,143525,1,8,0:0:0:0:
320,192,143525,1,0,0:0:0:0:
192,192,143609,1,0,0:0:0:0:
448,192,143692,1,0,0:0:0:0:
320,192,143748,1,0,0:0:0:0:
64,192,143803,1,0,0:0:0:0:
192,192,143859,1,2,0:0:0:0:
448,192,143859,1,0,0:0:0:0:
320,192,143942,1,0,0:0:0:0:
64,192,144025,1,0,0:0:0:0:
192,192,144081,1,0,0:0:0:0:
320,192,144137,1,0,0:0:0:0:
64,192,144192,1,8,0:0:0:0:
448,192,144192,1,0,0:0:0:0:
192,192,144275,1,0,0:0:0:0:
320,192,144359,1,0,0:0:0:0:
448,192,144414,1,0,0:0:0:0:
64,192,144442,1,0,0:0:0:0:
192,192,144525,1,2,0:0:0:0:
320,192,144525,1,0,0:0:0:0:
448,192,144609,1,0,0:0:0:0:
192,192,144692,1,0,0:0:0:0:
64,192,144748,1,0,0:0:0:0:
320,192,144803,1,0,0:0:0:0:
192,192,144859,1,8,0:0:0:0:
448,192,144859,1,0,0:0:0:0:
64,192,144942,1,0,0:0:0:0:
320,192,145025,1,0,0:0:0:0:
448,192,145053,1,0,0:0:0:0:
192,192,145109,1,0,0:0:0:0:
64,192,145192,1,2,0:0:0:0:
320,192,145192,1,0,0:0:0:0:
448,192,145275,1,0,0:0:0:0:
192,192,145359,1,0,0:0:0:0:
64,192,145387,1,0,0:0:0:0:
320,192,145442,1,0,0:0:0:0:
192,192,145525,1,8,0:0:0:0:
448,192,145525,1,0,0:0:0:0:
64,192,145609,1,0,0:0:0:0:
320,192,145692,1,0,0:0:0:0:
192,192,145748,1,0,0:0:0:0:
64,192,145803,1,0,0:0:0:0:
320,192,145859,1,2,0:0:0:0:
448,192,145859,1,0,0:0:0:0:
192,192,145942,1,0,0:0:0:0:
320,192,146025,1,0,0:0:0:0:
448,192,146081,1,0,0:0:0:0:
64,192,146137,1,0,0:0:0:0:
192,192,146192,1,8,0:0:0:0:
320,192,146192,1,0,0:0:0:0:
448,192,146275,1,0,0:0:0:0:
64,192,146359,1,0,0:0:0:0:
192,192,146414,1,0,0:0:0:0:
320,192,146470,1,0,0:0:0:0:
64,192,146525,1,2,0:0:0:0:
448,192,146525,1,0,0:0:0:0:
192,192,146609,1,0,0:0:0:0:
448,192,146692,1,0,0:0:0:0:
320,192,146748,1,0,0:0:0:0:
64,192,146803,1,0,0:0:0:0:
192,192,146859,1,8,0:0:0:0:
448,192,146859,1,0,0:0:0:0:
320,192,146942,1,0,0:0:0:0:
64,192,147025,1,0,0:0:0:0:
192,192,147081,1,0,0:0:0:0:
448,192,147137,1,0,0:0:0:0:
64,192,147192,1,2,0:0:0:0:
320,192,147192,1,0,0:0:0:0:
192,192,147275,1,0,0:0:0:0:
448,192,147359,1,0,0:0:0:0:
320,192,147442,1,0,0:0:0:0:
64,192,147525,1,8,0:0:0:0:
192,192,147525,1,0,0:0:0:0:
448,192,147609,1,0,0:0:0:0:
64,192,147692,1,0,0:0:0:0:
192,192,147748,1,0,0:0:0:0:
320,192,147803,1,0,0:0:0:0:
64,192,147859,1,8,0:0:0:0:
448,192,147859,1,4,0:0:0:0:
448,192,147942,1,0,0:0:0:0:
192,192,148025,1,0,0:0:0:40:Clap 4.wav
320,192,148025,1,0,0:0:0:0:
64,192,148192,1,12,0:0:0:0:
448,192,148192,1,0,0:0:0:70:Small kick.wav
64,192,148275,1,0,0:0:0:70:Small kick.wav
320,192,148359,1,0,0:0:0:40:Clap 4.wav
192,192,148442,1,0,0:0:0:40:Clap 4.wav
64,192,148525,1,6,0:0:0:0:
448,192,148525,1,0,0:0:0:70:Snare 2.wav
192,192,148609,1,0,0:0:0:0:
320,192,148692,1,0,0:0:0:0:
448,192,148748,1,0,0:0:0:0:
64,192,148803,1,0,0:0:0:0:
192,192,148859,1,8,0:0:0:0:
320,192,148859,1,0,0:0:0:0:
64,192,148942,1,0,0:0:0:0:
448,192,149025,1,0,0:0:0:0:
320,192,149081,1,0,0:0:0:0:
192,192,149109,1,0,0:0:0:0:
64,192,149192,1,2,0:0:0:0:
448,192,149192,1,0,0:0:0:0:
320,192,149275,1,0,0:0:0:0:
64,192,149359,1,0,0:0:0:0:
192,192,149414,1,0,0:0:0:0:
320,192,149470,1,0,0:0:0:0:
64,192,149525,1,8,0:0:0:0:
448,192,149525,1,0,0:0:0:0:
192,192,149609,1,0,0:0:0:0:
320,192,149692,1,0,0:0:0:0:
192,192,149748,1,0,0:0:0:0:
64,192,149775,1,0,0:0:0:0:
320,192,149859,1,2,0:0:0:0:
448,192,149859,1,0,0:0:0:0:
192,192,149942,1,0,0:0:0:0:
448,192,150025,1,0,0:0:0:0:
320,192,150081,1,0,0:0:0:0:
64,192,150137,1,0,0:0:0:0:
192,192,150192,1,8,0:0:0:0:
448,192,150192,1,0,0:0:0:0:
320,192,150275,1,0,0:0:0:0:
192,192,150359,1,0,0:0:0:0:
64,192,150387,1,0,0:0:0:0:
448,192,150442,1,0,0:0:0:0:
64,192,150525,1,2,0:0:0:0:
320,192,150525,1,0,0:0:0:0:
448,192,150609,1,0,0:0:0:0:
192,192,150692,1,0,0:0:0:0:
320,192,150748,1,0,0:0:0:0:
448,192,150803,1,0,0:0:0:0:
64,192,150859,1,8,0:0:0:0:
192,192,150859,1,0,0:0:0:0:
320,192,150942,1,0,0:0:0:0:
64,192,151025,128,0,151109:0:0:0:0:
448,192,151053,128,0,151109:0:0:0:0:
192,192,151192,1,2,0:0:0:0:
448,192,151192,1,0,0:0:0:0:
64,192,151275,1,0,0:0:0:0:
320,192,151359,1,0,0:0:0:0:
192,192,151414,1,0,0:0:0:0:
448,192,151470,1,0,0:0:0:0:
64,192,151525,1,8,0:0:0:0:
320,192,151525,1,0,0:0:0:0:
192,192,151609,1,0,0:0:0:0:
448,192,151692,1,0,0:0:0:0:
320,192,151748,1,0,0:0:0:0:
192,192,151803,1,0,0:0:0:0:
64,192,151859,1,2,0:0:0:0:
448,192,151859,1,0,0:0:0:0:
320,192,151942,1,0,0:0:0:0:
192,192,152025,1,0,0:0:0:0:
64,192,152053,1,0,0:0:0:0:
448,192,152109,1,0,0:0:0:0:
192,192,152192,1,8,0:0:0:0:
320,192,152192,1,0,0:0:0:0:
64,192,152275,1,0,0:0:0:0:
320,192,152359,1,0,0:0:0:0:
448,192,152387,1,0,0:0:0:0:
192,192,152442,1,0,0:0:0:0:
64,192,152525,1,2,0:0:0:0:
320,192,152525,1,0,0:0:0:0:
448,192,152609,1,0,0:0:0:0:
192,192,152692,1,0,0:0:0:0:
320,192,152748,1,0,0:0:0:0:
192,192,152803,1,0,0:0:0:0:
64,192,152859,1,8,0:0:0:0:
448,192,152859,1,0,0:0:0:0:
320,192,152942,1,0,0:0:0:0:
192,192,153025,128,0,153081:0:0:0:0:
448,192,153053,128,0,153192:0:0:0:0:
64,192,153192,1,2,0:0:0:0:
320,192,153192,1,0,0:0:0:0:
192,192,153275,1,0,0:0:0:0:
448,192,153359,1,0,0:0:0:0:
320,192,153387,1,0,0:0:0:0:
64,192,153442,1,0,0:0:0:0:
192,192,153525,1,8,0:0:0:0:
448,192,153525,1,0,0:0:0:0:
64,192,153609,1,0,0:0:0:0:
448,192,153692,1,0,0:0:0:0:
320,192,153720,1,0,0:0:0:0:
192,192,153775,1,0,0:0:0:0:
320,192,153859,128,2,154081:0:0:0:0:
448,192,153859,1,4,0:0:0:0:
64,192,153914,128,0,154025:0:0:0:0:
192,192,154025,1,0,0:0:0:0:
448,192,154081,1,0,0:0:0:0:
64,192,154192,1,8,0:0:0:0:
320,192,154192,1,0,0:0:0:0:
192,192,154275,1,0,0:0:0:0:
448,192,154359,1,0,0:0:0:0:
320,192,154414,1,0,0:0:0:0:
64,192,154470,1,0,0:0:0:0:
192,192,154525,1,2,0:0:0:0:
448,192,154525,1,0,0:0:0:0:
320,192,154609,1,0,0:0:0:0:
64,192,154692,1,0,0:0:0:0:
192,192,154748,1,0,0:0:0:0:
320,192,154803,1,0,0:0:0:0:
64,192,154859,1,8,0:0:0:0:
448,192,154859,1,0,0:0:0:0:
192,192,154942,1,0,0:0:0:0:
320,192,155025,1,0,0:0:0:0:
448,192,155081,1,0,0:0:0:0:
64,192,155109,1,0,0:0:0:0:
192,192,155192,1,2,0:0:0:0:
320,192,155192,1,0,0:0:0:0:
448,192,155275,1,0,0:0:0:0:
192,192,155359,1,0,0:0:0:0:
64,192,155414,1,0,0:0:0:0:
320,192,155470,1,0,0:0:0:0:
192,192,155525,1,8,0:0:0:0:
448,192,155525,1,0,0:0:0:0:
64,192,155609,1,0,0:0:0:0:
320,192,155692,1,0,0:0:0:0:
448,192,155720,1,0,0:0:0:0:
192,192,155775,1,0,0:0:0:0:
64,192,155859,1,2,0:0:0:0:
320,192,155859,1,0,0:0:0:0:
448,192,155942,1,0,0:0:0:0:
192,192,156025,1,0,0:0:0:0:
64,192,156053,1,0,0:0:0:0:
320,192,156109,1,0,0:0:0:0:
192,192,156192,1,8,0:0:0:0:
448,192,156192,1,0,0:0:0:0:
64,192,156275,1,0,0:0:0:0:
320,192,156359,1,0,0:0:0:0:
448,192,156387,1,0,0:0:0:0:
192,192,156442,1,0,0:0:0:0:
64,192,156525,1,2,0:0:0:0:
320,192,156525,1,0,0:0:0:0:
448,192,156609,1,0,0:0:0:0:
192,192,156692,1,0,0:0:0:0:
320,192,156775,1,0,0:0:0:0:
448,192,156803,1,0,0:0:0:0:
64,192,156859,1,8,0:0:0:0:
192,192,156859,1,0,0:0:0:0:
320,192,156942,1,0,0:0:0:0:
64,192,157025,1,0,0:0:0:0:
192,192,157081,1,0,0:0:0:0:
320,192,157137,1,0,0:0:0:0:
64,192,157192,1,2,0:0:0:0:
448,192,157192,1,0,0:0:0:0:
192,192,157275,1,0,0:0:0:0:
448,192,157359,1,0,0:0:0:0:
320,192,157414,1,0,0:0:0:0:
64,192,157470,1,0,0:0:0:0:
192,192,157525,1,8,0:0:0:0:
448,192,157525,1,0,0:0:0:0:
64,192,157609,1,0,0:0:0:0:
320,192,157692,1,0,0:0:0:0:
448,192,157748,1,0,0:0:0:0:
192,192,157803,1,0,0:0:0:0:
64,192,157859,1,2,0:0:0:0:
320,192,157859,1,0,0:0:0:0:
448,192,157942,1,0,0:0:0:0:
64,192,158025,1,0,0:0:0:0:
192,192,158081,1,0,0:0:0:0:
320,192,158137,1,0,0:0:0:0:
64,192,158192,1,8,0:0:0:0:
448,192,158192,1,0,0:0:0:0:
192,192,158275,1,0,0:0:0:0:
448,192,158359,1,0,0:0:0:0:
320,192,158414,1,0,0:0:0:0:
448,192,158470,1,0,0:0:0:0:
64,192,158525,1,2,0:0:0:0:
192,192,158525,1,4,0:0:0:0:
320,192,158609,1,0,0:0:0:0:
192,192,158692,1,0,0:0:0:0:
448,192,158775,1,0,0:0:0:0:
64,192,158859,1,8,0:0:0:0:
320,192,158859,1,4,0:0:0:0:
64,192,158942,1,0,0:0:0:0:
448,192,159025,1,0,0:0:0:0:
192,192,159109,1,0,0:0:0:0:
64,192,159192,1,2,0:0:0:0:
448,192,159192,1,4,0:0:0:0:
320,192,159248,1,0,0:0:0:0:
192,192,159303,128,0,159525:0:0:0:0:
64,192,159525,1,8,0:0:0:0:
448,192,159525,1,0,0:0:0:0:
320,192,159609,1,0,0:0:0:0:
64,192,159692,1,0,0:0:0:0:
192,192,159748,1,0,0:0:0:0:
64,192,159859,1,2,0:0:0:0:
448,192,159859,1,0,0:0:0:0:
320,192,159914,1,0,0:0:0:0:
192,192,159970,1,0,0:0:0:0:
448,192,160025,1,0,0:0:0:0:
192,192,160109,1,0,0:0:0:0:
64,192,160192,1,8,0:0:0:0:
448,192,160192,1,0,0:0:0:0:
320,192,160275,1,0,0:0:0:0:
64,192,160359,1,0,0:0:0:0:
192,192,160414,1,0,0:0:0:0:
64,192,160525,1,2,0:0:0:0:
320,192,160525,1,0,0:0:0:0:
448,192,160581,1,0,0:0:0:0:
192,192,160637,1,0,0:0:0:0:
320,192,160692,1,0,0:0:0:0:
192,192,160859,1,8,0:0:0:0:
448,192,160859,1,0,0:0:0:0:
64,192,160914,1,0,0:0:0:0:
320,192,160970,1,0,0:0:0:0:
192,192,161025,1,0,0:0:0:0:
64,192,161192,1,2,0:0:0:0:
448,192,161192,1,0,0:0:0:0:
320,192,161248,1,0,0:0:0:0:
192,192,161303,1,0,0:0:0:0:
448,192,161359,1,0,0:0:0:0:
320,192,161442,1,0,0:0:0:0:
64,192,161525,1,8,0:0:0:0:
192,192,161525,1,0,0:0:0:0:
320,192,161609,1,0,0:0:0:0:
448,192,161609,1,0,0:0:0:0:
64,192,161692,1,0,0:0:0:70:Small kick.wav
192,192,161692,1,0,0:0:0:0:
320,192,161775,1,0,0:0:0:0:
64,192,161859,1,2,0:0:0:0:
448,192,161859,1,0,0:0:0:0:
192,192,161914,1,0,0:0:0:0:
320,192,161970,128,0,162192:0:0:0:0:
64,192,162192,1,8,0:0:0:0:
448,192,162192,1,0,0:0:0:0:
192,192,162275,1,0,0:0:0:0:
448,192,162359,1,0,0:0:0:0:
320,192,162414,1,0,0:0:0:0:
64,192,162525,1,2,0:0:0:0:
448,192,162525,1,0,0:0:0:0:
192,192,162581,1,0,0:0:0:0:
320,192,162637,1,0,0:0:0:0:
448,192,162692,128,0,162859:0:0:0:0:
64,192,162859,1,8,0:0:0:0:
320,192,162859,1,0,0:0:0:0:
192,192,162942,1,0,0:0:0:0:
448,192,163025,1,0,0:0:0:0:
320,192,163081,1,0,0:0:0:0:
64,192,163192,1,2,0:0:0:0:
448,192,163192,1,0,0:0:0:0:
192,192,163248,1,0,0:0:0:0:
320,192,163303,1,0,0:0:0:0:
64,192,163359,1,0,0:0:0:0:
192,192,163442,1,0,0:0:0:0:
320,192,163525,1,8,0:0:0:0:
448,192,163525,1,0,0:0:0:0:
192,192,163609,1,0,0:0:0:0:
320,192,163692,128,0,163859:0:0:0:0:
64,192,163859,1,2,0:0:0:0:
448,192,163859,1,0,0:0:0:0:
192,192,163914,1,0,0:0:0:0:
320,192,163970,1,0,0:0:0:0:
448,192,164025,1,0,0:0:0:0:
64,192,164081,1,0,0:0:0:0:
192,192,164137,1,0,0:0:0:0:
320,192,164192,1,8,0:0:0:0:
448,192,164192,1,0,0:0:0:0:
64,192,164275,1,0,0:0:0:0:
192,192,164275,1,0,0:0:0:0:
320,192,164359,1,0,0:0:0:0:
448,192,164359,1,0,0:0:0:0:
192,192,164442,1,0,0:0:0:0:
64,192,164525,1,2,0:0:0:0:
448,192,164525,1,0,0:0:0:40:Clap 4.wav
320,192,164581,1,0,0:0:0:0:
192,192,164637,128,0,164859:0:0:0:0:
64,192,164859,1,2,0:0:0:0:
448,192,164859,1,0,0:0:0:40:Clap 4.wav
320,192,164942,1,0,0:0:0:0:
64,192,165025,1,0,0:0:0:70:Small kick.wav
192,192,165081,1,0,0:0:0:0:
64,192,165192,1,2,0:0:0:0:
448,192,165192,1,0,0:0:0:40:Clap 4.wav
320,192,165248,1,0,0:0:0:0:
192,192,165303,1,0,0:0:0:0:
448,192,165359,1,0,0:0:0:70:Small kick.wav
192,192,165442,1,0,0:0:0:0:
64,192,165525,1,2,0:0:0:0:
448,192,165525,1,0,0:0:0:40:Clap 4.wav
320,192,165609,1,0,0:0:0:0:
64,192,165692,1,0,0:0:0:70:Small kick.wav
192,192,165748,1,0,0:0:0:0:
64,192,165859,1,2,0:0:0:0:
448,192,165859,1,0,0:0:0:40:Clap 4.wav
320,192,165914,1,0,0:0:0:0:
192,192,165970,128,0,166192:0:0:0:0:
64,192,166192,1,2,0:0:0:0:
448,192,166192,1,0,0:0:0:40:Clap 4.wav
192,192,166248,1,0,0:0:0:0:
320,192,166303,128,0,166525:0:0:0:0:
64,192,166525,1,2,0:0:0:0:
448,192,166525,1,0,0:0:0:40:Clap 4.wav
320,192,166581,1,0,0:0:0:0:
192,192,166637,1,0,0:0:0:0:
320,192,166692,1,0,0:0:0:70:Small kick.wav
448,192,166775,1,0,0:0:0:0:
64,192,166859,1,2,0:0:0:0:
192,192,166859,1,0,0:0:0:40:Clap 4.wav
320,192,166942,1,0,0:0:0:0:
448,192,166942,1,0,0:0:0:0:
64,192,167025,1,0,0:0:0:70:Small kick.wav
192,192,167025,1,0,0:0:0:0:
320,192,167109,1,0,0:0:0:70:Small kick.wav
64,192,167192,1,2,0:0:0:0:
448,192,167192,1,0,0:0:0:70:Small kick.wav
192,192,167248,1,0,0:0:0:0:
320,192,167303,1,0,0:0:0:0:
192,192,167359,1,0,0:0:0:70:Small kick.wav
320,192,167442,1,0,0:0:0:70:Small kick.wav
64,192,167525,1,2,0:0:0:0:
448,192,167525,1,0,0:0:0:70:Small kick 2.wav
192,192,167609,1,0,0:0:0:70:Small kick 2.wav
448,192,167692,1,0,0:0:0:70:Small kick 2.wav
320,192,167748,1,0,0:0:0:0:
64,192,167859,1,2,0:0:0:0:
192,192,167859,1,0,0:0:0:40:Clap 4.wav
64,192,167942,1,0,0:0:0:70:Small kick 3.wav
320,192,168025,1,0,0:0:0:70:Small kick 3.wav
192,192,168109,1,0,0:0:0:70:Small kick 3.wav
64,192,168192,1,2,0:0:0:0:
448,192,168192,1,0,0:0:0:40:Clap 4.wav
192,192,168275,1,0,0:0:0:70:Small kick 4.wav
320,192,168275,1,0,0:0:0:0:
64,192,168359,1,0,0:0:0:70:Small kick 4.wav
448,192,168359,1,0,0:0:0:0:
320,192,168442,1,0,0:0:0:70:Small kick 4.wav
64,192,168525,1,2,0:0:0:0:
448,192,168525,1,0,0:0:0:40:Clap 4.wav
192,192,168581,1,0,0:0:0:70:Small kick 5.wav
320,192,168637,1,0,0:0:0:70:Small kick 6.wav
64,192,168692,1,2,0:0:0:0:
448,192,168748,1,0,0:0:0:70:Small kick 7.wav
320,192,168803,1,0,0:0:0:70:Small kick 7.wav
192,192,168859,1,2,0:0:0:0:
320,192,168914,1,0,0:0:0:70:Small kick 8.wav
64,192,168970,1,0,0:0:0:70:Small kick 8.wav
192,192,169025,1,2,0:0:0:0:
448,192,169081,1,0,0:0:0:70:Small kick 9.wav
320,192,169137,1,0,0:0:0:70:Small kick 9.wav
64,192,169192,1,8,0:0:0:0:
192,192,169192,1,2,0:0:0:0:
448,192,169275,1,0,0:0:0:0:
64,192,169359,1,0,0:0:0:0:
320,192,169442,1,0,0:0:0:0:
192,192,169525,1,2,0:0:0:0:
448,192,169525,1,0,0:0:0:70:Snare 2.wav
64,192,169609,1,0,0:0:0:0:
320,192,169692,1,0,0:0:0:0:
192,192,169775,1,0,0:0:0:0:
64,192,169859,1,4,0:0:0:0:
320,192,169859,1,2,0:0:0:0:
448,192,169859,1,0,0:0:0:0:
448,192,170025,1,0,0:0:0:0:
64,192,170192,1,2,0:0:0:0:
192,192,170192,1,0,0:0:0:70:Tok.wav
320,192,170275,1,0,0:0:0:70:Tok.wav
64,192,170359,1,0,0:0:0:70:Tok.wav
192,192,170442,1,0,0:0:0:70:Tok.wav
320,192,170525,1,2,0:0:0:0:
448,192,170525,1,0,0:0:0:0:
64,192,170692,1,0,0:0:0:0:
320,192,170859,1,2,0:0:0:0:
448,192,170859,1,0,0:0:0:70:Tok.wav
64,192,170942,1,0,0:0:0:70:Tok.wav
320,192,171025,1,0,0:0:0:70:Tok.wav
448,192,171109,1,0,0:0:0:70:Tok.wav
64,192,171192,1,2,0:0:0:0:
192,192,171192,1,0,0:0:0:0:
64,192,171359,1,0,0:0:0:0:
192,192,171525,1,2,0:0:0:0:
448,192,171525,1,0,0:0:0:70:Tok.wav
320,192,171609,1,0,0:0:0:70:Tok.wav
192,192,171692,1,0,0:0:0:70:Tok.wav
448,192,171775,1,0,0:0:0:70:Tok.wav
64,192,171859,1,2,0:0:0:0:
320,192,171859,1,0,0:0:0:0:
192,192,172025,1,0,0:0:0:0:
64,192,172192,1,2,0:0:0:0:
448,192,172192,1,0,0:0:0:70:Tok.wav
320,192,172275,1,0,0:0:0:70:Tok.wav
64,192,172359,1,0,0:0:0:70:Tok.wav
192,192,172442,1,0,0:0:0:70:Tok.wav
320,192,172525,1,2,0:0:0:0:
448,192,172525,1,0,0:0:0:0:
448,192,172692,1,0,0:0:0:0:
64,192,172859,1,2,0:0:0:0:
320,192,172859,1,0,0:0:0:70:Tok.wav
192,192,172942,1,0,0:0:0:70:Tok.wav
64,192,173025,1,0,0:0:0:70:Tok.wav
448,192,173109,1,0,0:0:0:70:Tok.wav
192,192,173192,1,2,0:0:0:0:
320,192,173192,1,0,0:0:0:0:
192,192,173359,1,0,0:0:0:0:
64,192,173525,1,2,0:0:0:0:
448,192,173525,1,0,0:0:0:70:Tok.wav
320,192,173609,1,0,0:0:0:70:Tok.wav
64,192,173692,1,0,0:0:0:70:Tok.wav
192,192,173775,1,0,0:0:0:70:Tok.wav
320,192,173859,1,2,0:0:0:0:
448,192,173859,1,0,0:0:0:0:
320,192,174025,1,0,0:0:0:0:
192,192,174192,1,2,0:0:0:0:
448,192,174192,1,0,0:0:0:70:Tok.wav
64,192,174275,1,0,0:0:0:70:Tok.wav
448,192,174359,1,0,0:0:0:70:Tok.wav
320,192,174442,1,0,0:0:0:70:Tok.wav
64,192,174525,1,2,0:0:0:0:
192,192,174525,1,0,0:0:0:0:
192,192,174692,1,0,0:0:0:0:
64,192,174859,1,2,0:0:0:0:
320,192,174859,1,0,0:0:0:70:Tok.wav
192,192,174942,1,0,0:0:0:70:Tok.wav
320,192,175025,1,0,0:0:0:70:Tok.wav
448,192,175109,1,0,0:0:0:70:Tok.wav
64,192,175192,1,2,0:0:0:0:
192,192,175192,1,0,0:0:0:0:
448,192,175359,1,0,0:0:0:0:
64,192,175525,1,2,0:0:0:0:
192,192,175525,1,0,0:0:0:70:Tok.wav
320,192,175609,1,0,0:0:0:70:Tok.wav
64,192,175692,1,0,0:0:0:70:Tok.wav
192,192,175775,1,0,0:0:0:70:Tok.wav
320,192,175859,1,2,0:0:0:0:
448,192,175859,1,0,0:0:0:0:
64,192,176025,1,0,0:0:0:0:
320,192,176192,1,2,0:0:0:0:
448,192,176192,1,0,0:0:0:70:Tok.wav
64,192,176275,1,0,0:0:0:70:Tok.wav
320,192,176359,1,0,0:0:0:70:Tok.wav
448,192,176442,1,0,0:0:0:70:Tok.wav
64,192,176525,1,2,0:0:0:0:
192,192,176525,1,0,0:0:0:0:
64,192,176692,1,0,0:0:0:0:
192,192,176859,1,2,0:0:0:0:
448,192,176859,1,0,0:0:0:70:Tok.wav
320,192,176942,1,0,0:0:0:70:Tok.wav
192,192,177025,1,0,0:0:0:70:Tok.wav
448,192,177109,1,0,0:0:0:70:Tok.wav
64,192,177192,1,2,0:0:0:0:
320,192,177192,1,0,0:0:0:0:
192,192,177359,1,0,0:0:0:0:
64,192,177525,1,2,0:0:0:0:
448,192,177525,1,0,0:0:0:70:Tok.wav
320,192,177609,1,0,0:0:0:70:Tok.wav
64,192,177692,1,0,0:0:0:70:Tok.wav
192,192,177775,1,0,0:0:0:70:Tok.wav
320,192,177859,1,2,0:0:0:0:
448,192,177859,1,0,0:0:0:0:
448,192,178025,1,0,0:0:0:0:
64,192,178192,1,2,0:0:0:0:
320,192,178192,1,0,0:0:0:70:Tok.wav
192,192,178275,1,0,0:0:0:70:Tok.wav
64,192,178359,1,0,0:0:0:70:Tok.wav
448,192,178442,1,0,0:0:0:70:Tok.wav
192,192,178525,1,2,0:0:0:0:
320,192,178525,1,0,0:0:0:0:
192,192,178692,1,0,0:0:0:0:
64,192,178859,1,2,0:0:0:0:
448,192,178859,1,0,0:0:0:70:Tok.wav
320,192,178942,1,0,0:0:0:70:Tok.wav
64,192,179025,1,2,0:0:0:0:
192,192,179025,1,4,0:0:0:0:
448,192,179025,128,0,180359:0:0:0:70:Snare 2.wav
192,192,179275,128,0,179359:0:0:0:0:
320,192,179359,128,0,179442:0:0:0:0:
64,192,179442,128,0,179525:0:0:0:0:
192,192,179525,1,0,0:0:0:0:
320,192,179609,1,0,0:0:0:0:
192,192,179692,128,0,179775:0:0:0:0:
320,192,179775,128,0,179859:0:0:0:0:
64,192,179859,1,0,0:0:0:0:
192,192,179942,1,0,0:0:0:0:
64,192,180025,128,0,180109:0:0:0:0:
320,192,180109,128,0,180192:0:0:0:0:
192,192,180192,1,0,0:0:0:0:
320,192,180275,1,0,0:0:0:0:
64,192,180359,128,0,180442:0:0:0:0:
448,192,180442,128,0,180525:0:0:0:0:
192,192,180525,1,0,0:0:0:0:
320,192,180609,1,0,0:0:0:0:
448,192,180692,1,0,0:0:0:0:
64,192,180775,1,0,0:0:0:0:
320,192,180859,1,0,0:0:0:0:
448,192,180942,1,0,0:0:0:0:
64,192,181025,1,0,0:0:0:0:
192,192,181109,1,0,0:0:0:0:
448,192,181192,1,0,0:0:0:0:
320,192,181275,1,0,0:0:0:0:
64,192,181359,1,0,0:0:0:0:
192,192,181442,1,0,0:0:0:0:
320,192,181525,1,0,0:0:0:0:
