osu file format v14

[General]
AudioFilename: audio.mp3
AudioLeadIn: 0
PreviewTime: -1
Countdown: 0
SampleSet: Normal
StackLeniency: 0.7
Mode: 0
LetterboxInBreaks: 0
WidescreenStoryboard: 0

[Editor]
DistanceSpacing: 1
BeatDivisor: 4
GridSize: 16
TimelineZoom: 1

[Metadata]
Title:Ghostbusters
TitleUnicode:Ghostbusters
Artist:Ray Parker Jr.
ArtistUnicode:Ray Parker Jr.
Creator:Yukkii
Version:que se yo jaja
Source:
Tags:
BeatmapID:2006669
BeatmapSetID:958402

[Difficulty]
HPDrainRate:5
CircleSize:4
OverallDifficulty:7
ApproachRate:8
SliderMultiplier:2
SliderTickRate:1

[Events]
//Background and Video events
0,0,"blackbg.png",0,0
//Break Periods
2,62867,69991
//Storyboard Layer 0 (Background)
//Storyboard Layer 1 (Fail)
//Storyboard Layer 2 (Pass)
//Storyboard Layer 3 (Foreground)
//Storyboard Sound Samples

[TimingPoints]
12668.5652173913,520.833333333333,4,1,0,100,1,0
23085,-50,4,1,0,100,0,0
29074,-100,4,1,0,100,0,0
38189,-66.6666666666667,4,1,0,100,0,0
46001,-50,4,1,0,100,0,0
48996,-66.6666666666667,4,1,0,100,0,0
49387,-50,4,1,0,100,0,0
53293,-66.6666666666667,4,1,0,100,0,0
53553,-50,4,1,0,100,0,0
70611,-66.6666666666667,4,1,0,100,0,0

[Colours]
Combo1 : 255,255,128
Combo2 : 255,128,128
Combo3 : 128,255,128

[HitObjects]
160,128,12668,5,0,0:0:0:0:
352,64,12928,1,0,0:0:0:0:
256,96,13189,1,0,0:0:0:0:
256,112,13319,1,0,0:0:0:0:
256,128,13449,1,0,0:0:0:0:
176,224,13710,2,0,B|128:208|128:208|112:144,1,100
192,304,14231,2,0,B|240:288|240:288|256:224,1,100
432,80,14751,5,0,0:0:0:0:
240,176,15012,1,0,0:0:0:0:
304,144,15272,1,0,0:0:0:0:
336,128,15402,1,0,0:0:0:0:
368,112,15532,1,0,0:0:0:0:
144,144,15793,2,0,B|192:160|192:160|224:224,1,100
144,224,16314,2,0,B|96:240|96:240|64:304,1,100
304,96,16835,5,0,0:0:0:0:
208,288,17095,1,0,0:0:0:0:
304,96,17356,2,0,L|352:16,2,50
208,144,17876,2,0,B|192:96|192:96|176:80|112:48,1,100
304,240,18397,2,0,B|320:288|320:288|336:304|400:336,1,100
336,64,18918,5,0,0:0:0:0:
192,304,19178,1,0,0:0:0:0:
224,192,19439,1,0,0:0:0:0:
256,176,19569,1,0,0:0:0:0:
288,192,19699,1,0,0:0:0:0:
384,160,19960,2,0,L|448:144,1,50
128,224,20220,2,0,L|64:240,1,50
224,112,20481,1,0,0:0:0:0:
256,176,20611,1,0,0:0:0:0:
288,240,20741,1,0,0:0:0:0:
288,240,21001,5,0,0:0:0:0:
368,240,21262,1,0,0:0:0:0:
400,176,21392,1,0,0:0:0:0:
432,112,21522,1,0,0:0:0:0:
240,64,21783,1,0,0:0:0:0:
400,48,22043,1,0,0:0:0:0:
272,128,22303,1,0,0:0:0:0:
144,288,22564,2,0,L|112:352,2,50
208,224,23085,1,0,0:0:0:0:
272,160,23345,5,0,0:0:0:0:
192,64,23606,1,0,0:0:0:0:
240,64,23736,1,0,0:0:0:0:
288,64,23866,1,0,0:0:0:0:
336,64,23996,1,0,0:0:0:0:
384,64,24126,2,0,B|416:112|416:112|432:176|384:272,1,200
128,320,24647,2,0,B|96:272|96:272|80:208|128:112,1,200
256,128,25168,5,0,0:0:0:0:
400,128,25428,1,0,0:0:0:0:
384,176,25558,1,0,0:0:0:0:
341,201,25688,1,0,0:0:0:0:
256,48,25949,1,0,0:0:0:0:
352,128,26210,1,0,0:0:0:0:
160,128,26470,1,0,0:0:0:0:
256,96,26731,2,0,B|272:160|256:195|256:195|240:240|256:304,1,200
288,352,27251,1,0,0:0:0:0:
224,32,27512,1,0,0:0:0:0:
256,192,27772,12,0,28814,0:0:0:0:
192,80,29074,5,0,0:0:0:0:
256,48,29204,1,0,0:0:0:0:
320,80,29334,1,0,0:0:0:0:
400,160,29595,1,0,0:0:0:0:
96,160,29856,1,0,0:0:0:0:
112,208,29986,1,0,0:0:0:0:
160,224,30116,1,0,0:0:0:0:
320,320,30376,2,0,B|368:304|368:304|384:256,1,100
383,65,30897,2,0,B|368:112|368:112|320:128,1,100
272,144,31288,1,0,0:0:0:0:
224,160,31418,1,0,0:0:0:0:
464,192,31678,5,0,0:0:0:0:
384,240,31939,1,0,0:0:0:0:
336,256,32069,1,0,0:0:0:0:
288,272,32199,1,0,0:0:0:0:
80,208,32460,2,0,P|64:256|80:320,1,100
160,256,32981,2,0,P|176:208|160:144,1,100
256,64,33501,5,0,0:0:0:0:
272,112,33632,1,0,0:0:0:0:
256,160,33762,1,0,0:0:0:0:
240,208,33892,1,0,0:0:0:0:
256,256,34022,1,0,0:0:0:0:
256,336,34283,1,0,0:0:0:0:
336,304,34543,2,0,P|352:256|416:224,1,100
176,304,35064,2,0,P|160:256|96:224,1,100
48,176,35585,1,0,0:0:0:0:
464,176,35845,1,0,0:0:0:0:
352,176,36106,5,0,0:0:0:0:
304,176,36236,1,0,0:0:0:0:
256,176,36366,1,0,0:0:0:0:
128,112,36626,2,0,L|112:48,1,50
160,272,36887,2,0,L|176:352,1,50
256,176,37147,1,0,0:0:0:0:
304,176,37277,1,0,0:0:0:0:
352,176,37407,1,0,0:0:0:0:
448,112,37668,5,0,0:0:0:0:
368,32,37928,1,0,0:0:0:0:
288,32,38189,2,0,P|247:31|192:80,1,75.0000028610231
182,71,38449,1,0,0:0:0:0:
80,176,38710,2,0,B|112:208|160:192|160:192|192:256,1,150.000005722046
352,256,39231,2,0,B|320:288|272:272|272:272|240:336,1,150.000005722046
165,326,39751,5,0,0:0:0:0:
384,224,40012,1,0,0:0:0:0:
272,272,40272,2,0,L|304:368,1,75.0000028610231
240,192,40533,1,0,0:0:0:0:
208,112,40793,2,0,B|144:80|144:80|96:-16,1,150.000005722046
304,112,41314,2,0,B|368:80|368:80|416:-16,1,150.000005722046
464,96,41835,5,0,0:0:0:0:
441,147,41965,1,0,0:0:0:0:
448,203,42095,1,0,0:0:0:0:
440,258,42225,1,0,0:0:0:0:
459,311,42355,1,0,0:0:0:0:
368,336,42616,1,0,0:0:0:0:
288,288,42876,2,0,B|240:272|240:272|192:208,1,75.0000028610231
80,288,43137,2,0,B|128:272|128:272|176:208,1,75.0000028610231
160,208,43397,1,0,0:0:0:0:
176,160,43527,1,0,0:0:0:0:
192,112,43658,1,0,0:0:0:0:
96,128,43918,5,0,0:0:0:0:
368,80,44178,1,0,0:0:0:0:
288,96,44439,1,0,0:0:0:0:
240,112,44569,1,0,0:0:0:0:
192,128,44699,1,0,0:0:0:0:
336,160,44960,2,0,B|352:176|352:176|336:240,1,75.0000028610231
176,208,45220,2,0,B|160:224|160:224|176:288,1,75.0000028610231
208,288,45481,1,0,0:0:0:0:
256,304,45611,1,0,0:0:0:0:
304,320,45741,1,0,0:0:0:0:
432,96,46001,6,0,L|128:32,1,300
42,98,46783,6,0,L|336:160,1,300
400,256,47564,6,0,L|96:192,1,300
0,256,48345,6,0,L|293:317,1,300
320,224,49126,2,0,L|533:178,1,150.000005722046
448,112,49647,1,0,0:0:0:0:
384,96,49777,1,0,0:0:0:0:
320,80,49908,1,0,0:0:0:0:
80,95,50168,6,0,L|384:31,1,300
469,98,50950,6,0,L|176:160,1,300
112,255,51731,6,0,L|416:192,1,300
512,255,52512,6,0,L|218:317,1,300
192,224,53293,2,0,L|-21:178,1,150.000005722046
64,112,53814,1,0,0:0:0:0:
128,96,53944,1,0,0:0:0:0:
192,80,54075,1,0,0:0:0:0:
384,48,54335,2,0,P|496:160|400:240,1,300
416,336,55116,2,0,P|304:224|400:144,1,300
112,32,55897,2,0,P|224:144|128:224,1,300
144,320,56678,2,0,P|32:208|128:128,1,300
256,96,57460,1,0,0:0:0:0:
224,192,57720,1,0,0:0:0:0:
256,96,57981,1,0,0:0:0:0:
240,144,58111,1,0,0:0:0:0:
224,192,58241,1,0,0:0:0:0:
432,96,58501,2,0,B|448:192|448:192|352:288|352:288|368:400,1,300
240,64,59283,2,0,B|256:160|256:160|160:256|160:256|176:368,1,300
336,80,60064,2,0,B|352:176|352:176|256:272|256:272|272:384,1,300
144,48,60845,2,0,B|160:144|160:144|64:240|64:240|80:352,1,300
336,80,61626,2,0,B|304:144|352:176|352:176|256:176|336:224|336:224|224:208|160:352,1,400
224,320,62277,1,0,0:0:0:0:
276,328,62407,1,0,0:0:0:0:
326,315,62537,1,0,0:0:0:0:
367,285,62667,1,0,0:0:0:0:
448,80,70741,6,0,L|432:208,2,75.0000028610231
336,192,71262,1,0,0:0:0:0:
240,224,71522,1,0,0:0:0:0:
