osu file format v14

[General]
AudioFilename: audio.mp3
AudioLeadIn: 0
PreviewTime: -1
Countdown: 1
SampleSet: None
StackLeniency: 0.7
Mode: 0
LetterboxInBreaks: 0
WidescreenStoryboard: 0

[Editor]
DistanceSpacing: 0.5
BeatDivisor: 4
GridSize: 4
TimelineZoom: 1

[Metadata]
Title:St Louis
TitleUnicode:St Louis
Artist:Ray Gilbert and Doug Goodwin
ArtistUnicode:Ray Gilbert and Doug Goodwin
Creator:dean624
Version:Normal
Source:
Tags:
BeatmapID:1555484
BeatmapSetID:737063

[Difficulty]
HPDrainRate:5
CircleSize:5
OverallDifficulty:5
ApproachRate:5
SliderMultiplier:1.4
SliderTickRate:1

[Events]
//Background and Video events
//Break Periods
//Storyboard Layer 0 (Background)
//Storyboard Layer 1 (Fail)
//Storyboard Layer 2 (Pass)
//Storyboard Layer 3 (Foreground)
//Storyboard Sound Samples

[TimingPoints]
10343,576.923076923077,4,2,0,100,1,0

[HitObjects]
48,180,10487,5,0,0:0:0:0:
224,192,10775,1,0,0:0:0:0:
384,192,11064,1,0,0:0:0:0:
52,176,11785,2,0,B|244:176|288:168|328:168,1,245
140,272,13083,5,0,0:0:0:0:
224,276,13371,1,0,0:0:0:0:
316,264,13660,1,0,0:0:0:0:
128,192,14525,2,0,B|208:192|256:192|328:192,1,175
92,128,15535,5,0,0:0:0:0:
216,232,15823,1,0,0:0:0:0:
352,120,16112,1,0,0:0:0:0:
96,112,16833,2,0,B|240:224|216:216,4,140
308,224,20294,5,0,0:0:0:0:
128,140,20583,1,0,0:0:0:0:
312,64,20871,1,0,0:0:0:0:
68,112,21737,2,0,B|248:216|232:208,1,175
76,192,22746,5,0,0:0:0:0:
256,188,23035,1,0,0:0:0:0:
420,192,23323,1,0,0:0:0:0:
120,276,24189,2,0,B|156:232|172:196|184:148,1,140
96,184,25054,1,0,0:0:0:0:
368,184,25343,1,0,0:0:0:0:
248,192,25631,1,0,0:0:0:0:
208,196,26641,1,0,0:0:0:0:
216,200,26785,1,0,0:0:0:0:
172,208,27362,2,0,L|220:204,10,35
44,192,30102,5,0,0:0:0:0:
144,196,30679,1,0,0:0:0:0:
360,196,31256,1,0,0:0:0:0:
120,196,31689,2,0,P|264:196|236:196,1,140
280,188,32554,2,0,P|152:140|192:184,1,490
12,172,35006,2,0,L|248:172,2,210
136,344,37025,6,0,L|52:12,1,315
104,324,39477,2,0,P|120:148|120:120,1,175
240,152,40343,1,0,0:0:0:0:
272,252,40631,1,0,0:0:0:0:
88,292,41929,2,0,L|212:144,1,175
288,204,42794,1,0,0:0:0:0:
328,312,43083,1,0,0:0:0:0:
224,252,44093,5,0,0:0:0:0:
156,152,44814,1,0,0:0:0:0:
260,152,45391,1,0,0:0:0:0:
68,96,46689,5,0,0:0:0:0:
196,96,46977,1,0,0:0:0:0:
328,92,47266,1,0,0:0:0:0:
212,204,48131,2,0,B|388:200|420:200,1,175
136,112,49141,5,0,0:0:0:0:
232,108,49429,1,0,0:0:0:0:
360,96,49718,1,0,0:0:0:0:
200,292,50583,2,0,P|208:196|216:96,1,175
72,136,51593,5,0,0:0:0:0:
192,152,51881,1,0,0:0:0:0:
332,136,52169,1,0,0:0:0:0:
88,80,53035,1,0,0:0:0:0:
356,72,53323,1,0,0:0:0:0:
424,80,53900,2,0,P|200:96|120:200,1,350
104,180,56496,5,0,0:0:0:0:
260,96,57073,1,0,0:0:0:0:
260,96,57650,1,0,0:0:0:0:
272,104,57794,1,0,0:0:0:0:
288,116,57939,1,0,0:0:0:0:
300,132,58083,1,0,0:0:0:0:
64,180,59093,2,0,B|172:184|288:176,2,210
84,88,61400,1,0,0:0:0:0:
216,92,61689,1,0,0:0:0:0:
224,92,62266,1,0,0:0:0:0:
272,88,62410,1,0,0:0:0:0:
320,84,62554,1,0,0:0:0:0:
364,88,62698,1,0,0:0:0:0:
416,112,63275,6,0,B|96:240|132:240,1,315
216,64,65439,1,0,0:0:0:0:
144,56,65727,1,0,0:0:0:0:
80,88,66016,2,0,L|384:264,1,350
80,128,67891,2,0,B|492:160|464:172,1,385
92,132,70198,1,0,0:0:0:0:
120,132,70343,1,0,0:0:0:0:
424,108,70631,1,0,0:0:0:0:
372,184,71208,1,0,0:0:0:0:
300,256,71785,1,0,0:0:0:0:
64,116,72939,5,0,0:0:0:0:
232,132,73227,1,0,0:0:0:0:
408,144,73516,1,0,0:0:0:0:
432,52,74525,2,0,L|328:184,1,140
112,164,75391,5,0,0:0:0:0:
248,168,75679,1,0,0:0:0:0:
376,144,75968,1,0,0:0:0:0:
440,64,76833,2,0,B|352:128|304:164,1,140
120,168,77843,1,0,0:0:0:0:
224,172,78131,1,0,0:0:0:0:
384,164,78419,1,0,0:0:0:0:
124,172,79285,1,0,0:0:0:0:
280,172,79573,1,0,0:0:0:0:
92,240,80150,2,0,P|296:256|376:216,1,280
84,172,82746,6,0,L|148:188,14,35
500,32,85054,2,0,L|316:216,2,245
368,112,87362,1,0,0:0:0:0:
284,76,87794,1,0,0:0:0:0:
256,164,88083,1,0,0:0:0:0:
44,232,88371,2,0,P|104:208|184:152,2,140
256,304,89669,5,0,0:0:0:0:
256,192,90246,1,0,0:0:0:0:
256,32,90823,1,0,0:0:0:0:
24,192,91689,2,0,B|260:188|436:188,1,385
256,192,93564,12,0,97891,0:0:0:0:
