osu file format v14

[General]
AudioFilename: audio.mp3
AudioLeadIn: 0
PreviewTime: -1
Countdown: 1
SampleSet: Normal
StackLeniency: 0.7
Mode: 0
LetterboxInBreaks: 0
WidescreenStoryboard: 0

[Editor]
Bookmarks: 43875,106558,182623,241601,348987
DistanceSpacing: 0.4
BeatDivisor: 8
GridSize: 8
TimelineZoom: 1.5

[Metadata]
Title:Hit the Road Jack Bootleg (Kubrak DnB Remix)
TitleUnicode:Hit the Road Jack Bootleg (Kubrak DnB Remix)
Artist:Ray Charles
ArtistUnicode:Ray Charles
Creator:R3K3M
Version:Extra
Source:
Tags:
BeatmapID:1331081
BeatmapSetID:630527

[Difficulty]
HPDrainRate:5.5
CircleSize:4
OverallDifficulty:9.2
ApproachRate:9.5
SliderMultiplier:2
SliderTickRate:1

[Events]
//Background and Video events
//Break Periods
2,66402,76047
2,111573,127694
2,136801,156501
//Storyboard Layer 0 (Background)
//Storyboard Layer 1 (Fail)
//Storyboard Layer 2 (Pass)
//Storyboard Layer 3 (Foreground)
//Storyboard Layer 4 (Overlay)
//Storyboard Sound Samples

[TimingPoints]
20692,340.909090909091,4,1,0,100,1,0
22060,-133.333333333333,4,1,0,100,0,0
34328,-125,4,1,0,100,0,0
43873,-100,4,1,0,100,0,0
49328,-83.3333333333333,4,1,0,100,0,0
60237,-66.6666666666667,4,1,0,100,0,0
61601,-83.3333333333333,4,1,0,100,0,0
65691,-90.9090909090909,4,1,0,100,0,0
86146,-200,4,1,0,100,0,0
86828,-66.6666666666667,4,1,0,100,0,0
87510,-66.6666666666667,4,1,0,100,0,1
89896,-62.5,4,1,0,100,0,1
90578,-58.8235294117647,4,1,0,100,0,1
91260,-55.5555555555556,4,1,0,100,0,1
97055,-55.5555555555556,4,1,0,100,0,0
98419,-55.5555555555556,4,1,0,100,0,1
107964,-55.5555555555556,4,1,0,100,0,0
135237,-111.111111111111,4,1,0,100,0,0
135919,-55.5555555555556,4,1,0,100,0,0
136601,-55.5555555555556,4,1,0,100,0,1
146146,-55.5555555555556,4,1,0,100,0,0
147510,-55.5555555555556,4,1,0,100,0,1
157055,-55.5555555555556,4,1,0,100,0,0
251146,-55.5555555555556,4,1,0,100,0,1
277055,-55.5555555555556,4,1,0,100,0,0
278419,-55.5555555555556,4,1,0,100,0,1
298873,-55.5555555555556,4,1,0,100,0,0

[HitObjects]
88,48,21373,5,0,0:0:0:0:
88,48,21544,1,0,0:0:0:0:
56,128,21714,1,0,0:0:0:0:
56,128,21885,1,0,0:0:0:0:
136,120,22055,6,0,B|184:136|184:136|236:129,1,100
329,87,22396,1,0,0:0:0:0:
227,206,22566,1,0,0:0:0:0:
193,51,22737,1,0,0:0:0:0:
329,87,22907,1,0,0:0:0:0:
152,273,23078,2,0,P|133:241|126:205,1,75.0000028610231
48,173,23419,6,0,P|51:247|81:316,1,150.000005722046
197,369,23930,1,0,0:0:0:0:
226,369,24015,1,0,0:0:0:0:
255,360,24100,1,0,0:0:0:0:
279,343,24185,1,0,0:0:0:0:
296,318,24270,1,0,0:0:0:0:
295,191,24441,1,0,0:0:0:0:
388,290,24612,1,0,0:0:0:0:
388,290,24697,1,0,0:0:0:0:
388,290,24782,6,0,B|410:253|410:253|413:130,1,150.000005722046
376,22,25294,1,0,0:0:0:0:
287,91,25464,2,0,L|317:115,1,37.5000014305115
295,191,25635,2,0,L|325:215,1,37.5000014305115
387,278,25805,1,0,0:0:0:0:
413,114,25976,1,0,0:0:0:0:
270,273,26146,6,0,P|203:279|166:214,1,150.000005722046
266,80,26659,2,0,L|231:68,1,37.5000014305115
357,113,26829,1,0,0:0:0:0:
165,214,27000,1,0,0:0:0:0:
266,80,27170,1,0,0:0:0:0:
387,278,27340,1,0,0:0:0:0:
387,278,27426,1,0,0:0:0:0:
387,278,27511,6,0,P|403:318|403:375,1,75.0000028610231
220,282,27852,1,0,0:0:0:0:
383,179,28021,1,0,0:0:0:0:
412,173,28106,1,0,0:0:0:0:
435,155,28191,1,0,0:0:0:0:
448,128,28276,1,0,0:0:0:0:
447,99,28361,1,0,0:0:0:0:
432,73,28447,1,0,0:0:0:0:
407,57,28532,1,0,0:0:0:0:
212,82,28704,5,0,0:0:0:0:
383,179,28875,1,0,0:0:0:0:
188,181,29045,1,0,0:0:0:0:
317,36,29215,1,0,0:0:0:0:
364,250,29386,5,0,0:0:0:0:
364,250,29471,1,0,0:0:0:0:
364,250,29556,6,0,P|368:212|383:178,1,75.0000028610231
472,30,29897,1,0,0:0:0:0:
452,232,30068,1,0,0:0:0:0:
452,232,30153,1,0,0:0:0:0:
452,232,30238,1,0,0:0:0:0:
252,175,30409,1,0,0:0:0:0:
321,335,30579,2,0,B|279:295|270:272|270:272,1,75.0000028610231
159,266,30920,6,0,L|138:234,1,37.5000014305115
353,219,31090,2,0,L|332:187,1,37.5000014305115
197,328,31261,1,0,0:0:0:0:
300,116,31430,1,0,0:0:0:0:
426,200,31601,6,0,P|431:243|351:298,1,150.000005722046
205,267,32112,1,0,0:0:0:0:
165,115,32282,1,0,0:0:0:0:
109,262,32453,1,0,0:0:0:0:
238,173,32623,1,0,0:0:0:0:
80,165,32794,1,0,0:0:0:0:
80,165,32879,1,0,0:0:0:0:
80,165,32964,6,0,P|46:109|128:62,1,150.000005722046
184,55,33476,1,0,0:0:0:0:
213,58,33561,1,0,0:0:0:0:
243,63,33646,1,0,0:0:0:0:
272,68,33731,1,0,0:0:0:0:
302,75,33816,1,0,0:0:0:0:
330,84,33902,1,0,0:0:0:0:
359,93,33987,1,0,0:0:0:0:
238,173,34157,1,0,0:0:0:0:
161,272,34328,6,0,B|175:239|175:223|175:223|218:263|270:255|300:223,1,160
415,205,34839,1,0,0:0:0:0:
308,107,35010,1,0,0:0:0:0:
341,246,35180,1,0,0:0:0:0:
386,109,35351,1,0,0:0:0:0:
238,173,35521,1,0,0:0:0:0:
238,173,35606,1,0,0:0:0:0:
238,173,35691,6,0,B|166:142|166:142|126:144|126:144|134:102|179:92,1,160
173,250,36203,1,0,0:0:0:0:
246,81,36373,2,0,P|289:68|338:81,1,80
145,108,36714,1,0,0:0:0:0:
234,274,36885,1,0,0:0:0:0:
234,274,36970,1,0,0:0:0:0:
234,274,37055,6,0,P|297:291|398:264,1,160
476,156,37566,1,0,0:0:0:0:
320,192,37737,1,0,0:0:0:0:
469,138,37907,1,0,0:0:0:0:
313,168,38078,1,0,0:0:0:0:
432,61,38248,1,0,0:0:0:0:
432,61,38334,1,0,0:0:0:0:
432,61,38419,6,0,B|409:94|388:165|388:165|447:121|441:171,1,160
322,57,38930,1,0,0:0:0:0:
446,228,39101,2,0,L|469:273,1,40
374,300,39271,2,0,L|362:339,1,40
428,144,39441,1,0,0:0:0:0:
324,245,39612,1,0,0:0:0:0:
448,316,39782,5,0,0:0:0:0:
374,191,39953,1,0,0:0:0:0:
299,314,40123,1,0,0:0:0:0:
413,253,40294,5,0,0:0:0:0:
449,112,40465,1,0,0:0:0:0:
309,146,40635,1,0,0:0:0:0:
413,253,40805,2,0,P|433:218|432:179,1,80
417,108,41061,1,0,0:0:0:0:
373,51,41146,2,0,P|376:94|301:50,1,160
203,79,41657,2,0,P|221:122|254:170,1,80
306,196,41998,2,0,P|358:195|413:174,1,80
486,85,42339,1,0,0:0:0:0:
304,194,42510,6,0,B|286:243|262:246|262:246|234:199|195:180,1,160
95,80,43021,1,0,0:0:0:0:
80,222,43191,1,0,0:0:0:0:
186,124,43362,1,0,0:0:0:0:
164,266,43532,1,0,0:0:0:0:
98,137,43703,1,0,0:0:0:0:
43,83,43788,1,0,0:0:0:0:
59,9,43873,6,0,B|126:33|126:33|159:57,1,100
185,94,44214,2,0,P|144:96|162:45,1,100
464,134,44555,1,0,0:0:0:0:
361,282,44726,1,0,0:0:0:0:
347,96,44896,1,0,0:0:0:0:
347,96,44981,1,0,0:0:0:0:
347,96,45066,1,0,0:0:0:0:
456,239,45237,5,0,0:0:0:0:
478,60,45407,1,0,0:0:0:0:
354,191,45578,1,0,0:0:0:0:
478,60,45748,1,0,0:0:0:0:
456,239,45919,1,0,0:0:0:0:
380,39,46089,1,0,0:0:0:0:
377,263,46260,1,0,0:0:0:0:
471,137,46430,5,0,0:0:0:0:
383,117,46515,1,0,0:0:0:0:
292,105,46601,6,0,L|313:159,1,50
383,117,46771,2,0,L|389:174,1,50
347,222,46942,2,0,L|381:268,1,50
326,339,47112,6,0,L|277:327,1,50
272,258,47283,2,0,L|235:223,1,50
203,297,47453,2,0,L|159:272,1,50
95,188,47623,2,0,L|161:183,1,50
200,328,47794,2,0,L|156:303,1,50
67,163,47964,2,0,L|133:158,1,50
270,148,48135,2,0,L|220:151,1,50
17,166,48305,2,0,L|83:161,1,50
319,144,48476,2,0,L|269:147,1,50
135,50,48646,6,0,L|124:107,1,50
377,50,48816,2,0,L|388:107,1,50
208,95,48987,6,0,L|173:142,1,50
434,192,49157,5,0,0:0:0:0:
410,269,49243,1,0,0:0:0:0:
380,343,49328,6,0,B|356:322|356:322|316:291|339:232|339:232,1,119.999996337891
349,54,49669,2,0,L|306:109,1,59.9999981689454
226,219,49839,2,0,P|151:203|243:111,1,239.999992675781
318,264,50351,1,0,0:0:0:0:
207,94,50521,1,0,0:0:0:0:
151,243,50691,6,0,P|127:164|156:80,1,119.999996337891
207,94,51032,2,0,P|225:150|218:209,1,119.999996337891
158,317,51373,2,0,L|96:288,1,59.9999981689454
226,231,51544,2,0,L|288:202,1,59.9999981689454
131,128,51714,1,0,0:0:0:0:
337,146,51885,1,0,0:0:0:0:
337,146,51970,1,0,0:0:0:0:
337,146,52055,5,0,0:0:0:0:
253,306,52226,1,0,0:0:0:0:
223,128,52396,1,0,0:0:0:0:
375,221,52566,1,0,0:0:0:0:
194,237,52737,1,0,0:0:0:0:
152,240,52822,1,0,0:0:0:0:
110,243,52907,1,0,0:0:0:0:
68,247,52992,1,0,0:0:0:0:
26,250,53077,1,0,0:0:0:0:
53,72,53248,5,0,0:0:0:0:
214,152,53419,1,0,0:0:0:0:
117,142,53589,1,0,0:0:0:0:
289,87,53760,1,0,0:0:0:0:
214,152,53930,1,0,0:0:0:0:
386,97,54101,1,0,0:0:0:0:
213,48,54271,1,0,0:0:0:0:
350,234,54441,1,0,0:0:0:0:
350,234,54527,1,0,0:0:0:0:
350,234,54612,1,0,0:0:0:0:
215,149,54782,6,0,P|303:157|258:39,1,239.999992675781
262,103,55293,2,0,L|293:197,1,59.9999981689454
309,243,55464,2,0,P|267:266|292:235,1,119.999996337891
369,83,55805,1,0,0:0:0:0:
436,250,55976,1,0,0:0:0:0:
276,167,56146,1,0,0:0:0:0:
444,106,56316,1,0,0:0:0:0:
343,210,56487,1,0,0:0:0:0:
415,32,56657,1,0,0:0:0:0:
275,68,56828,5,0,0:0:0:0:
235,80,56913,1,0,0:0:0:0:
203,107,56998,1,0,0:0:0:0:
184,144,57083,1,0,0:0:0:0:
180,186,57168,1,0,0:0:0:0:
307,331,57339,1,0,0:0:0:0:
265,155,57510,5,0,0:0:0:0:
154,296,57680,1,0,0:0:0:0:
53,145,57851,1,0,0:0:0:0:
221,83,58021,1,0,0:0:0:0:
239,261,58191,2,0,L|281:303,1,59.9999981689454
136,112,58362,2,0,L|91:67,1,59.9999981689454
357,163,58532,1,0,0:0:0:0:
142,242,58703,1,0,0:0:0:0:
142,242,58788,1,0,0:0:0:0:
142,242,58873,5,0,0:0:0:0:
236,60,59044,1,0,0:0:0:0:
242,263,59214,1,0,0:0:0:0:
402,135,59385,1,0,0:0:0:0:
198,146,59555,1,0,0:0:0:0:
368,259,59726,1,0,0:0:0:0:
336,57,59896,1,0,0:0:0:0:
180,69,60066,1,0,0:0:0:0:
125,116,60152,1,0,0:0:0:0:
74,167,60237,6,0,B|79:221|136:240|136:240|62:237|79:370|167:357|187:339,1,299.999990844727
74,167,60748,2,0,P|123:154|145:242,1,150.000005722046
111,310,61089,1,0,0:0:0:0:
111,310,61174,1,0,0:0:0:0:
111,310,61260,1,0,0:0:0:0:
256,181,61430,2,0,P|223:107|184:66,1,75.0000028610231
183,46,61601,6,0,P|249:31|312:144,1,179.999994506836
347,179,61941,2,0,P|398:139|388:74,1,119.999996337891
276,81,62282,1,0,0:0:0:0:
395,69,62453,1,0,0:0:0:0:
426,184,62623,1,0,0:0:0:0:
326,18,62794,1,0,0:0:0:0:
485,124,62964,5,0,0:0:0:0:
306,195,63135,1,0,0:0:0:0:
419,40,63305,1,0,0:0:0:0:
431,256,63476,1,0,0:0:0:0:
281,100,63646,2,0,L|220:59,1,59.9999981689454
192,160,63816,2,0,L|131:119,1,59.9999981689454
129,35,63987,1,0,0:0:0:0:
306,195,64157,1,0,0:0:0:0:
96,272,64328,5,0,0:0:0:0:
296,288,64498,1,0,0:0:0:0:
192,160,64669,1,0,0:0:0:0:
184,352,64839,1,0,0:0:0:0:
336,152,65010,1,0,0:0:0:0:
350,126,65095,1,0,0:0:0:0:
342,98,65180,1,0,0:0:0:0:
317,84,65265,1,0,0:0:0:0:
289,92,65350,5,0,0:0:0:0:
112,216,65521,1,0,0:0:0:0:
336,152,65691,6,0,B|392:160|424:128|424:128|408:88|368:48|368:48|416:32|464:64|456:104|488:128|488:128,1,330.000010070801
256,192,76601,12,0,78987,0:0:0:0:
109,129,79328,5,0,0:0:0:0:
97,175,79498,1,0,0:0:0:0:
153,140,79669,5,0,0:0:0:0:
160,216,79839,1,0,0:0:0:0:
209,156,80010,5,0,0:0:0:0:
247,234,80180,1,0,0:0:0:0:
284,153,80351,5,0,0:0:0:0:
352,224,80521,1,0,0:0:0:0:
358,125,80691,5,0,0:0:0:0:
390,229,80861,1,0,0:0:0:0:
429,102,81032,5,0,0:0:0:0:
431,233,81202,1,0,0:0:0:0:
481,110,81373,5,0,0:0:0:0:
437,257,81543,1,0,0:0:0:0:
358,125,81714,5,0,0:0:0:0:
402,272,81884,1,0,0:0:0:0:
268,194,82055,5,0,0:0:0:0:
374,333,82225,1,0,0:0:0:0:
350,187,82396,5,0,0:0:0:0:
244,326,82566,1,0,0:0:0:0:
254,177,82737,5,0,0:0:0:0:
397,356,82907,1,0,0:0:0:0:
362,171,83078,5,0,0:0:0:0:
218,347,83248,1,0,0:0:0:0:
303,143,83419,5,0,0:0:0:0:
108,260,83589,1,0,0:0:0:0:
258,98,83760,5,0,0:0:0:0:
35,141,83930,1,0,0:0:0:0:
298,60,84101,5,0,0:0:0:0:
26,19,84271,1,0,0:0:0:0:
338,76,84441,5,0,0:0:0:0:
8,152,84611,1,0,0:0:0:0:
369,148,84782,5,0,0:0:0:0:
0,254,84952,1,0,0:0:0:0:
414,206,85123,5,0,0:0:0:0:
0,329,85293,1,0,0:0:0:0:
432,281,85464,5,0,0:0:0:0:
0,254,85634,1,0,0:0:0:0:
481,228,85805,5,0,0:0:0:0:
85,54,85975,1,0,0:0:0:0:
481,228,86146,2,0,P|490:166|433:193,1,150
180,196,86828,6,0,B|138:130|92:89|92:89|78:120,1,150.000005722046
74,174,87169,2,0,B|104:215|104:215|48:236|17:219|17:219|22:128,1,225.000008583069
27,91,87510,2,0,P|68:72|94:42,1,75.0000028610231
178,53,87680,2,0,L|233:115,1,75.0000028610231
213,205,87851,2,0,L|163:148,1,75.0000028610231
131,311,88021,2,0,L|135:236,1,75.0000028610231
355,304,88191,2,0,L|359:229,1,75.0000028610231
222,320,88362,2,0,L|278:270,1,75.0000028610231
354,154,88532,5,0,0:0:0:0:
318,87,88618,1,0,0:0:0:0:
253,49,88703,1,0,0:0:0:0:
178,53,88788,1,0,0:0:0:0:
111,86,88873,2,0,L|57:167,1,75.0000028610231
191,165,89044,2,0,L|117:229,1,75.0000028610231
153,331,89214,2,0,L|209:281,1,75.0000028610231
87,275,89385,2,0,L|128:212,1,75.0000028610231
105,96,89555,6,0,L|51:177,1,75.0000028610231
185,164,89726,2,0,L|111:228,1,75.0000028610231
189,264,89896,2,0,B|221:242|221:242|276:222,1,80
368,264,90066,2,0,B|336:242|336:242|281:222,1,80
168,272,90237,2,0,B|193:242|193:242|256:200,1,85.0000016212464
392,272,90407,2,0,B|366:242|366:242|304:200,1,85.0000016212464
168,64,90578,6,0,B|112:80|96:176|96:176,1,85.0000016212464
272,56,90748,2,0,B|328:72|328:136|328:136,1,85.0000016212464
152,56,90919,2,0,B|93:57|78:120|78:120,1,85.0000016212464
288,56,91089,2,0,B|346:57|361:120|361:120,1,85.0000016212464
168,272,91260,6,0,B|134:247|134:247|137:188,1,85.0000016212464
254,138,91430,2,0,B|217:160|217:160|215:202,1,85.0000016212464
160,288,91601,6,0,B|118:278|118:278|97:223,1,85.0000016212464
264,128,91771,2,0,B|221:133|221:133|202:171,1,85.0000016212464
152,304,91941,6,0,B|110:312|110:312|68:270,1,85.0000016212464
272,112,92111,2,0,B|231:99|231:99|198:126,1,85.0000016212464
144,320,92282,6,0,B|109:344|109:344|54:323,1,85.0000016212464
280,96,92452,2,0,B|247:67|247:67|207:79,1,85.0000016212464
112,144,92623,2,0,B|88:160|88:160|72:176|72:176|48:192|48:192|32:200,1,89.9999972534181
200,232,92794,1,0,0:0:0:0:
244,226,92879,1,0,0:0:0:0:
289,220,92964,6,0,B|335:177|335:177|349:152|349:152,1,89.9999972534181
210,45,93134,2,0,B|210:43|196:68|196:68|150:111,1,89.9999972534181
229,286,93305,6,0,B|275:243|275:243|289:218|289:218,1,89.9999972534181
150,111,93475,2,0,B|150:109|136:134|136:134|90:177,1,89.9999972534181
87,324,93646,2,0,P|122:291|69:285,1,89.9999972534181
229,286,93816,2,0,P|254:245|201:252,1,89.9999972534181
455,202,93987,2,0,P|420:169|473:163,1,89.9999972534181
313,164,94157,2,0,P|287:123|340:130,1,89.9999972534181
384,336,94328,6,0,B|375:348|375:348|362:332|354:277,1,89.9999972534181
229,286,94498,2,0,B|215:292|215:292|210:272|226:219,1,89.9999972534181
63,201,94669,2,0,B|47:201|47:201|51:180|88:139,3,89.9999972534181
184,46,95010,2,0,B|172:77|172:77|255:84,1,89.9999972534181
321,146,95180,2,0,B|333:177|333:177|276:181,1,89.9999972534181
63,201,95351,2,0,B|51:232|51:232|134:239,1,89.9999972534181
200,301,95521,2,0,B|212:332|212:332|136:338,1,89.9999972534181
312,301,95691,6,0,B|300:332|300:332|389:372|454:304,3,179.999994506836
381,252,96373,2,0,B|429:198|518:238|518:238|506:269,3,179.999994506836
432,139,97055,2,0,P|444:94|348:103,2,179.999994506836
329,190,97566,1,0,0:0:0:0:
181,81,97737,2,0,P|180:124|217:147,4,89.9999972534181
127,202,98248,1,0,0:0:0:0:
123,255,98333,1,0,0:0:0:0:
133,308,98419,6,0,B|201:326|201:326|253:298,1,89.9999972534181
291,163,98589,6,0,B|308:172|308:172|376:155,1,89.9999972534181
398,239,98760,2,0,L|295:267,1,89.9999972534181
325,84,98930,2,0,L|411:60,1,89.9999972534181
60,183,99101,6,0,B|77:192|77:192|145:175,1,89.9999972534181
167,259,99272,2,0,L|64:287,1,89.9999972534181
94,104,99442,2,0,L|180:80,1,89.9999972534181
275,157,99612,1,0,0:0:0:0:
275,157,99697,1,0,0:0:0:0:
275,157,99782,6,0,P|337:154|292:81,2,179.999994506836
316,255,100294,2,0,P|383:228|412:192,1,89.9999972534181
307,4,100464,2,0,P|263:15|228:42,1,89.9999972534181
293,326,100635,2,0,P|364:317|402:289,1,89.9999972534181
392,67,100805,2,0,P|347:67|305:83,1,89.9999972534181
136,243,100976,6,0,P|118:195|80:169,1,89.9999972534181
249,113,101146,2,0,P|215:141|202:184,1,89.9999972534181
120,248,101316,2,0,P|83:212|37:204,1,89.9999972534181
249,113,101486,2,0,P|230:153|235:197,1,89.9999972534181
136,243,101657,2,0,P|99:207|53:199,1,89.9999972534181
184,77,101827,2,0,P|165:117|170:161,1,89.9999972534181
123,254,101997,2,0,P|74:236|30:249,1,89.9999972534181
183,77,102167,2,0,P|183:121|206:159,1,89.9999972534181
329,77,102339,2,0,P|328:121|305:159,1,89.9999972534181
141,118,102510,6,0,P|160:158|197:183,1,89.9999972534181
370,118,102682,2,0,P|351:158|314:183,1,89.9999972534181
120,174,102851,2,0,P|155:202|199:208,1,89.9999972534181,0|0,0:3|0:3,0:3:0:0:
391,174,103023,2,0,P|356:202|312:208,1,89.9999972534181
126,232,103191,2,0,P|168:244|211:231,1,89.9999972534181,0|0,0:3|0:3,0:3:0:0:
385,232,103363,2,0,P|343:244|300:231,1,89.9999972534181
256,160,103532,2,0,L|256:48,1,89.9999972534181
256,160,103703,1,0,0:0:0:0:
256,224,103788,1,0,0:0:0:0:
225,284,103873,6,0,P|244:324|281:349,1,89.9999972534181
372,196,104045,2,0,P|353:236|316:261,1,89.9999972534181
229,65,104214,2,0,P|273:71|307:99,1,89.9999972534181,0|0,0:3|0:3,0:3:0:0:
228,153,104386,2,0,P|193:181|149:187,1,89.9999972534181
401,262,104554,2,0,P|359:274|316:261,1,89.9999972534181,0|0,0:3|0:3,0:3:0:0:
139,285,104726,2,0,P|181:297|224:284,1,89.9999972534181
228,153,104895,2,0,L|228:41,1,89.9999972534181
401,82,105066,2,0,L|401:194,1,89.9999972534181
139,285,105237,6,0,L|139:173,1,89.9999972534181
401,172,105408,2,0,L|401:284,1,89.9999972534181
131,274,105578,6,0,L|141:162,1,89.9999972534181
402,184,105749,2,0,L|392:296,1,89.9999972534181
124,263,105919,6,0,L|144:152,1,89.9999972534181
402,197,106090,2,0,L|382:307,1,89.9999972534181
142,164,106260,6,0,L|118:251,3,89.9999972534181
218,214,106601,6,0,B|237:174|237:174|273:206,7,89.9999972534181
271,204,107282,6,0,B|305:173|305:173|324:213,7,89.9999972534181
330,279,107964,6,0,B|311:319|311:319|275:287,7,89.9999972534181
277,289,108645,6,0,B|242:319|242:319|223:279,7,89.9999972534181
377,83,109328,6,0,L|386:179,1,89.9999972534181
397,306,109498,1,0,0:0:0:0:
250,109,109669,1,0,0:0:0:0:
377,83,110010,6,0,L|386:179,1,89.9999972534181
397,306,110180,1,0,0:0:0:0:
250,109,110351,1,0,0:0:0:0:
385,172,110691,6,0,L|377:83,1,89.9999972534181
397,306,110861,1,0,0:0:0:0:
250,109,111032,1,0,0:0:0:0:
397,306,111203,1,0,0:0:0:0:
250,109,111373,1,0,0:0:0:0:
109,78,128248,5,0,0:0:0:0:
119,112,128334,1,0,0:0:0:0:
130,146,128419,2,0,L|164:248,1,89.9999972534181
202,337,128589,1,0,0:0:0:0:
295,153,128760,1,0,0:0:0:0:
346,340,128930,5,0,0:0:0:0:
215,41,129101,1,0,0:0:0:0:
202,337,129271,5,0,0:0:0:0:
304,37,129441,1,0,0:0:0:0:
202,337,129612,1,0,0:0:0:0:
368,154,129782,5,0,0:0:0:0:
154,212,129953,1,0,0:0:0:0:
378,269,130123,5,0,0:0:0:0:
155,111,130294,2,0,L|55:46,1,89.9999972534181
305,214,130464,1,0,0:0:0:0:
305,214,130635,1,0,0:0:0:0:
84,306,130805,5,0,0:0:0:0:
116,193,130976,1,0,0:0:0:0:
128,159,131061,1,0,0:0:0:0:
139,124,131146,2,0,B|225:90|225:90|334:141,1,119.999996337891
446,241,131373,5,0,0:0:0:0:
329,152,131487,2,0,L|440:106,1,119.999996337891
282,303,131714,1,0,0:0:0:0:
312,62,131828,1,0,0:0:0:0:
447,110,131942,1,0,0:0:0:0:
194,264,132055,1,0,0:0:0:0:
165,115,132169,6,0,L|199:-7,1,119.999996337891
307,211,132396,1,0,0:0:0:0:
60,75,132510,1,0,0:0:0:0:
194,264,132623,1,0,0:0:0:0:
165,115,132737,1,0,0:0:0:0:
35,208,132851,1,0,0:0:0:0:
307,211,132964,1,0,0:0:0:0:
35,208,133078,1,0,0:0:0:0:
194,264,133192,2,0,L|326:317,1,119.999996337891
270,127,133419,5,0,0:0:0:0:
63,321,133532,1,0,0:0:0:0:
63,321,133760,5,0,0:0:0:0:
270,127,133873,1,0,0:0:0:0:
353,249,133987,2,0,L|421:359,1,119.999996337891
452,199,134214,1,0,0:0:0:0:
270,127,134328,2,0,L|160:195,1,119.999996337891
69,240,134555,5,0,0:0:0:0:
250,312,134669,2,0,L|352:248,1,119.999996337891
386,95,134896,5,0,0:0:0:0:
136,337,135010,1,0,0:0:0:0:
69,240,135123,1,0,0:0:0:0:
250,312,135237,2,0,L|381:370,1,119.999996337891
386,95,135578,6,0,B|370:158|370:158|369:268,1,134.999995880127
464,187,135919,1,0,0:0:0:0:
280,167,136089,1,0,0:0:0:0:
291,287,136260,1,0,0:0:0:0:
386,95,136430,1,0,0:0:0:0:
423,352,136601,1,0,0:0:0:0:
121,19,157055,6,0,L|176:28,1,44.999998626709
126,41,157140,2,0,L|177:44,1,44.999998626709
138,61,157226,2,0,L|199:49,1,44.999998626709
159,81,157311,2,0,L|225:74,1,44.999998626709
187,108,157396,6,0,L|132:117,1,44.999998626709
182,130,157481,2,0,L|131:133,1,44.999998626709
170,150,157567,2,0,L|109:138,1,44.999998626709
149,170,157652,2,0,L|83:163,1,44.999998626709
141,198,157737,6,0,L|196:207,1,44.999998626709
165,224,157822,2,0,L|216:227,1,44.999998626709
188,244,157908,2,0,L|249:232,1,44.999998626709
218,258,157993,2,0,L|284:251,1,44.999998626709
253,278,158078,2,0,L|316:252,1,44.999998626709
302,286,158163,2,0,L|338:243,1,44.999998626709
346,273,158248,2,0,L|367:208,1,44.999998626709
384,243,158334,2,0,L|382:167,1,44.999998626709
375,113,158419,6,0,B|339:63|339:63|201:28,1,179.999994506836
125,141,158760,2,0,L|161:223,1,89.9999972534181
209,329,158930,1,0,0:0:0:0:
257,173,159101,5,0,0:0:0:0:
261,155,159186,1,0,0:0:0:0:
267,138,159271,1,0,0:0:0:0:
275,122,159356,1,0,0:0:0:0:
284,106,159442,1,0,0:0:0:0:
458,201,159612,6,0,L|367:168,1,89.9999972534181
138,82,159782,1,0,0:0:0:0:
374,82,159953,5,0,0:0:0:0:
138,170,160123,2,0,L|54:201,1,89.9999972534181
49,292,160294,2,0,L|133:261,1,89.9999972534181
138,170,160464,2,0,L|54:201,1,89.9999972534181
49,292,160635,2,0,L|133:261,1,89.9999972534181
138,170,160805,2,0,L|54:201,1,89.9999972534181
49,292,160976,2,0,L|133:261,1,89.9999972534181
369,223,161146,5,0,0:0:0:0:
375,249,161231,1,0,0:0:0:0:
368,275,161316,1,0,0:0:0:0:
351,296,161401,1,0,0:0:0:0:
326,307,161486,1,0,0:0:0:0:
300,305,161572,1,0,0:0:0:0:
276,293,161657,1,0,0:0:0:0:
258,272,161743,1,0,0:0:0:0:
284,227,161828,5,0,0:0:0:0:
277,252,161913,1,0,0:0:0:0:
258,272,161998,1,0,0:0:0:0:
233,283,162083,1,0,0:0:0:0:
206,280,162168,1,0,0:0:0:0:
184,267,162254,1,0,0:0:0:0:
169,245,162339,1,0,0:0:0:0:
162,218,162425,1,0,0:0:0:0:
190,174,162510,5,0,0:0:0:0:
182,198,162595,1,0,0:0:0:0:
162,218,162680,1,0,0:0:0:0:
137,227,162765,1,0,0:0:0:0:
110,225,162850,1,0,0:0:0:0:
89,210,162936,1,0,0:0:0:0:
74,187,163021,1,0,0:0:0:0:
69,160,163107,1,0,0:0:0:0:
114,134,163192,5,0,0:0:0:0:
95,152,163277,1,0,0:0:0:0:
69,160,163362,1,0,0:0:0:0:
42,157,163447,1,0,0:0:0:0:
20,142,163532,1,0,0:0:0:0:
8,119,163618,1,0,0:0:0:0:
7,83,163703,1,0,0:0:0:0:
39,51,163789,1,0,0:0:0:0:
90,41,163873,6,0,B|109:40|109:40|258:70,1,89.9999972534181
254,144,164044,2,0,B|323:158|323:158|342:157,1,89.9999972534181
121,160,164214,1,0,0:0:0:0:
352,276,164385,2,0,L|263:260,1,89.9999972534181
121,160,164555,2,0,L|209:175,1,89.9999972534181
388,203,164726,5,0,0:0:0:0:
432,211,164811,1,0,0:0:0:0:
476,219,164896,1,0,0:0:0:0:
352,276,165067,5,0,0:0:0:0:
308,268,165152,1,0,0:0:0:0:
264,260,165237,2,0,L|175:244,1,89.9999972534181
445,133,165407,2,0,L|387:202,1,89.9999972534181
108,317,165578,6,0,L|76:232,1,89.9999972534181
132,84,165748,2,0,L|163:168,1,89.9999972534181
108,317,165919,6,0,L|76:232,1,89.9999972534181
132,84,166089,2,0,L|163:168,1,89.9999972534181
108,317,166260,6,0,L|76:232,1,89.9999972534181
132,84,166430,2,0,L|163:168,1,89.9999972534181
223,263,166601,5,0,0:0:0:0:
225,298,166686,1,0,0:0:0:0:
247,325,166771,1,0,0:0:0:0:
282,333,166856,1,0,0:0:0:0:
314,319,166941,1,0,0:0:0:0:
332,289,167027,1,0,0:0:0:0:
329,254,167112,1,0,0:0:0:0:
305,228,167197,1,0,0:0:0:0:
286,199,167282,5,0,0:0:0:0:
305,228,167367,1,0,0:0:0:0:
338,240,167452,1,0,0:0:0:0:
372,230,167537,1,0,0:0:0:0:
393,202,167622,1,0,0:0:0:0:
394,167,167708,1,0,0:0:0:0:
373,138,167793,1,0,0:0:0:0:
339,127,167878,1,0,0:0:0:0:
315,101,167964,5,0,0:0:0:0:
339,127,168049,1,0,0:0:0:0:
342,162,168134,1,0,0:0:0:0:
324,192,168220,1,0,0:0:0:0:
292,206,168305,1,0,0:0:0:0:
257,198,168390,1,0,0:0:0:0:
235,171,168475,1,0,0:0:0:0:
233,136,168560,1,0,0:0:0:0:
231,101,168646,5,0,0:0:0:0:
233,136,168731,1,0,0:0:0:0:
255,163,168816,1,0,0:0:0:0:
290,171,168901,1,0,0:0:0:0:
322,157,168986,1,0,0:0:0:0:
346,118,169072,1,0,0:0:0:0:
307,47,169157,1,0,0:0:0:0:
230,22,169242,1,0,0:0:0:0:
152,48,169328,6,0,B|115:77|115:77|74:165,1,89.9999972534181
112,240,169498,1,0,0:0:0:0:
395,182,169669,1,0,0:0:0:0:
183,225,169839,5,0,0:0:0:0:
148,233,169924,1,0,0:0:0:0:
112,240,170010,1,0,0:0:0:0:
77,248,170095,1,0,0:0:0:0:
42,257,170180,1,0,0:0:0:0:
112,81,170351,5,0,0:0:0:0:
128,112,170436,1,0,0:0:0:0:
145,143,170521,2,0,L|190:241,1,89.9999972534181
218,287,170692,5,0,0:0:0:0:
248,321,170777,1,0,0:0:0:0:
288,339,170862,1,0,0:0:0:0:
333,338,170947,1,0,0:0:0:0:
373,319,171032,6,0,L|447:267,1,89.9999972534181
383,114,171203,2,0,L|309:166,1,89.9999972534181
373,319,171373,2,0,L|447:267,1,89.9999972534181
383,114,171544,2,0,L|309:166,1,89.9999972534181
373,319,171714,2,0,L|447:267,1,89.9999972534181
383,114,171885,2,0,L|309:166,1,89.9999972534181
168,261,172055,5,0,0:0:0:0:
133,289,172140,1,0,0:0:0:0:
89,294,172225,1,0,0:0:0:0:
50,273,172310,1,0,0:0:0:0:
29,234,172395,1,0,0:0:0:0:
33,190,172481,1,0,0:0:0:0:
60,155,172566,1,0,0:0:0:0:
103,142,172651,1,0,0:0:0:0:
145,159,172737,5,0,0:0:0:0:
103,142,172822,1,0,0:0:0:0:
76,107,172907,1,0,0:0:0:0:
75,62,172992,1,0,0:0:0:0:
98,25,173077,1,0,0:0:0:0:
138,6,173163,1,0,0:0:0:0:
182,12,173248,1,0,0:0:0:0:
215,43,173333,1,0,0:0:0:0:
223,87,173419,5,0,0:0:0:0:
238,129,173504,1,0,0:0:0:0:
274,155,173589,1,0,0:0:0:0:
318,156,173674,1,0,0:0:0:0:
356,133,173759,1,0,0:0:0:0:
374,93,173845,1,0,0:0:0:0:
368,49,173930,1,0,0:0:0:0:
338,16,174015,1,0,0:0:0:0:
296,3,174101,5,0,0:0:0:0:
338,16,174186,1,0,0:0:0:0:
365,51,174271,1,0,0:0:0:0:
369,95,174357,1,0,0:0:0:0:
348,134,174442,1,0,0:0:0:0:
312,161,174527,1,0,0:0:0:0:
260,210,174612,1,0,0:0:0:0:
223,272,174697,1,0,0:0:0:0:
211,342,174782,6,0,B|195:356|180:353|180:353|158:322|158:322|132:306|132:306|120:186,1,179.999994506836
128,84,175123,1,0,0:0:0:0:
39,321,175294,1,0,0:0:0:0:
260,210,175464,5,0,0:0:0:0:
304,204,175549,1,0,0:0:0:0:
349,199,175634,1,0,0:0:0:0:
394,193,175719,1,0,0:0:0:0:
438,188,175804,1,0,0:0:0:0:
82,232,175976,5,0,0:0:0:0:
126,226,176061,1,0,0:0:0:0:
171,221,176146,1,0,0:0:0:0:
304,204,176317,5,0,0:0:0:0:
349,199,176402,1,0,0:0:0:0:
394,193,176487,2,0,L|491:128,1,89.9999972534181
321,47,176657,2,0,L|246:97,1,89.9999972534181
319,243,176828,2,0,L|416:178,1,89.9999972534181
246,97,176998,2,0,L|171:147,1,89.9999972534181
252,295,177169,2,0,L|349:230,1,89.9999972534181
171,147,177339,2,0,L|96:197,1,89.9999972534181
25,275,177510,5,0,0:0:0:0:
37,317,177595,1,0,0:0:0:0:
69,348,177680,1,0,0:0:0:0:
112,358,177765,1,0,0:0:0:0:
155,346,177850,1,0,0:0:0:0:
185,313,177936,1,0,0:0:0:0:
195,270,178021,1,0,0:0:0:0:
181,227,178106,1,0,0:0:0:0:
151,197,178192,5,0,0:0:0:0:
163,239,178277,1,0,0:0:0:0:
195,270,178362,1,0,0:0:0:0:
238,280,178447,1,0,0:0:0:0:
281,268,178532,1,0,0:0:0:0:
311,235,178618,1,0,0:0:0:0:
321,192,178703,1,0,0:0:0:0:
307,149,178788,1,0,0:0:0:0:
319,107,178873,5,0,0:0:0:0:
307,149,178958,1,0,0:0:0:0:
275,180,179043,1,0,0:0:0:0:
232,190,179128,1,0,0:0:0:0:
189,178,179213,1,0,0:0:0:0:
159,145,179299,1,0,0:0:0:0:
149,102,179384,1,0,0:0:0:0:
163,59,179469,1,0,0:0:0:0:
197,29,179555,5,0,0:0:0:0:
210,70,179640,1,0,0:0:0:0:
200,114,179725,1,0,0:0:0:0:
170,145,179810,1,0,0:0:0:0:
127,159,179895,1,0,0:0:0:0:
63,194,179981,1,0,0:0:0:0:
29,257,180066,1,0,0:0:0:0:
53,324,180151,1,0,0:0:0:0:
122,344,180237,6,0,B|191:375|191:375|218:360|218:360|256:357|256:357|266:345|261:324,1,179.999994506836
319,140,180578,1,0,0:0:0:0:
81,239,180749,1,0,0:0:0:0:
271,214,180919,5,0,0:0:0:0:
315,208,181004,1,0,0:0:0:0:
360,203,181089,1,0,0:0:0:0:
405,197,181174,1,0,0:0:0:0:
449,192,181259,1,0,0:0:0:0:
81,239,181431,5,0,0:0:0:0:
125,233,181516,1,0,0:0:0:0:
170,228,181601,1,0,0:0:0:0:
449,192,181771,1,0,0:0:0:0:
224,48,181942,2,0,L|168:136,1,89.9999972534181
280,264,182112,2,0,L|328:188,1,89.9999972534181
224,48,182282,6,0,L|168:136,1,89.9999972534181
64,288,182453,1,0,0:0:0:0:
408,248,182623,1,0,0:0:0:0:
200,256,182794,1,0,0:0:0:0:
176,264,182879,1,0,0:0:0:0:
153,277,182964,5,0,0:0:0:0:
118,305,183049,1,0,0:0:0:0:
74,310,183134,1,0,0:0:0:0:
35,289,183219,1,0,0:0:0:0:
14,250,183304,1,0,0:0:0:0:
18,206,183390,1,0,0:0:0:0:
45,171,183475,1,0,0:0:0:0:
88,158,183560,1,0,0:0:0:0:
130,175,183646,5,0,0:0:0:0:
88,158,183731,1,0,0:0:0:0:
61,123,183816,1,0,0:0:0:0:
60,78,183901,1,0,0:0:0:0:
83,41,183986,1,0,0:0:0:0:
123,22,184072,1,0,0:0:0:0:
167,28,184157,1,0,0:0:0:0:
200,59,184242,1,0,0:0:0:0:
208,103,184328,5,0,0:0:0:0:
223,145,184413,1,0,0:0:0:0:
259,171,184498,1,0,0:0:0:0:
303,172,184583,1,0,0:0:0:0:
341,149,184668,1,0,0:0:0:0:
359,109,184754,1,0,0:0:0:0:
353,65,184839,1,0,0:0:0:0:
323,32,184924,1,0,0:0:0:0:
281,19,185010,5,0,0:0:0:0:
323,32,185095,1,0,0:0:0:0:
350,67,185180,1,0,0:0:0:0:
354,111,185266,1,0,0:0:0:0:
333,150,185351,1,0,0:0:0:0:
297,177,185436,1,0,0:0:0:0:
245,226,185521,1,0,0:0:0:0:
208,288,185606,1,0,0:0:0:0:
249,354,185692,6,0,B|265:368|280:365|280:365|302:334|302:334|328:318|328:318|340:198,1,179.999994506836
332,96,186033,1,0,0:0:0:0:
421,333,186204,1,0,0:0:0:0:
200,222,186374,5,0,0:0:0:0:
156,216,186459,1,0,0:0:0:0:
111,211,186544,1,0,0:0:0:0:
66,205,186629,1,0,0:0:0:0:
22,200,186714,1,0,0:0:0:0:
378,244,186886,5,0,0:0:0:0:
334,238,186971,1,0,0:0:0:0:
289,233,187056,1,0,0:0:0:0:
22,200,187226,1,0,0:0:0:0:
244,84,187396,6,0,L|351:44,1,89.9999972534181
432,122,187567,2,0,L|347:153,1,89.9999972534181
244,84,187737,6,0,L|351:44,1,89.9999972534181
432,122,187908,2,0,L|347:153,1,89.9999972534181
140,94,188078,2,0,L|247:54,1,89.9999972534181
241,181,188248,1,0,0:0:0:0:
186,170,188334,1,0,0:0:0:0:
150,201,188419,5,0,0:0:0:0:
144,227,188504,1,0,0:0:0:0:
151,253,188589,1,0,0:0:0:0:
168,274,188674,1,0,0:0:0:0:
193,285,188759,1,0,0:0:0:0:
219,283,188845,1,0,0:0:0:0:
243,271,188930,1,0,0:0:0:0:
261,250,189016,1,0,0:0:0:0:
235,205,189101,5,0,0:0:0:0:
242,230,189186,1,0,0:0:0:0:
261,250,189271,1,0,0:0:0:0:
286,261,189356,1,0,0:0:0:0:
313,258,189441,1,0,0:0:0:0:
335,245,189527,1,0,0:0:0:0:
350,223,189612,1,0,0:0:0:0:
357,196,189698,1,0,0:0:0:0:
329,152,189783,5,0,0:0:0:0:
337,176,189868,1,0,0:0:0:0:
357,196,189953,1,0,0:0:0:0:
382,205,190038,1,0,0:0:0:0:
409,203,190123,1,0,0:0:0:0:
430,188,190209,1,0,0:0:0:0:
445,165,190294,1,0,0:0:0:0:
450,138,190380,1,0,0:0:0:0:
405,112,190465,5,0,0:0:0:0:
424,130,190550,1,0,0:0:0:0:
450,138,190635,1,0,0:0:0:0:
477,135,190720,1,0,0:0:0:0:
499,120,190805,1,0,0:0:0:0:
511,97,190891,1,0,0:0:0:0:
497,54,190976,1,0,0:0:0:0:
447,14,191062,1,0,0:0:0:0:
367,21,191146,6,0,B|320:36|320:36|237:117,1,89.9999972534181
339,170,191317,1,0,0:0:0:0:
125,141,191487,2,0,L|161:223,1,89.9999972534181
209,329,191657,1,0,0:0:0:0:
257,173,191828,5,0,0:0:0:0:
261,155,191913,1,0,0:0:0:0:
267,138,191998,1,0,0:0:0:0:
275,122,192083,1,0,0:0:0:0:
284,106,192169,1,0,0:0:0:0:
458,201,192339,6,0,L|367:168,1,89.9999972534181
138,82,192509,1,0,0:0:0:0:
374,82,192680,5,0,0:0:0:0:
138,170,192850,2,0,L|54:201,2,89.9999972534181
374,82,193192,2,0,L|458:51,2,89.9999972534181
243,172,193532,1,0,0:0:0:0:
49,292,193703,2,0,L|133:261,1,89.9999972534181
369,223,193873,5,0,0:0:0:0:
375,249,193958,1,0,0:0:0:0:
368,275,194043,1,0,0:0:0:0:
351,296,194128,1,0,0:0:0:0:
326,307,194213,1,0,0:0:0:0:
300,305,194299,1,0,0:0:0:0:
276,293,194384,1,0,0:0:0:0:
258,272,194470,1,0,0:0:0:0:
284,227,194555,5,0,0:0:0:0:
277,252,194640,1,0,0:0:0:0:
258,272,194725,1,0,0:0:0:0:
233,283,194810,1,0,0:0:0:0:
206,280,194895,1,0,0:0:0:0:
184,267,194981,1,0,0:0:0:0:
169,245,195066,1,0,0:0:0:0:
162,218,195152,1,0,0:0:0:0:
190,174,195237,5,0,0:0:0:0:
182,198,195322,1,0,0:0:0:0:
162,218,195407,1,0,0:0:0:0:
137,227,195492,1,0,0:0:0:0:
110,225,195577,1,0,0:0:0:0:
89,210,195663,1,0,0:0:0:0:
74,187,195748,1,0,0:0:0:0:
69,160,195834,1,0,0:0:0:0:
114,134,195919,5,0,0:0:0:0:
95,152,196004,1,0,0:0:0:0:
69,160,196089,1,0,0:0:0:0:
42,157,196174,1,0,0:0:0:0:
20,142,196259,1,0,0:0:0:0:
8,119,196345,1,0,0:0:0:0:
7,83,196430,1,0,0:0:0:0:
39,51,196516,1,0,0:0:0:0:
90,41,196600,6,0,L|258:70,1,89.9999972534181
331,80,196771,1,0,0:0:0:0:
121,160,196941,1,0,0:0:0:0:
352,276,197112,2,0,L|263:260,1,89.9999972534181
121,160,197282,2,0,L|209:175,1,89.9999972534181
388,203,197453,5,0,0:0:0:0:
432,211,197538,1,0,0:0:0:0:
476,219,197623,1,0,0:0:0:0:
352,276,197794,5,0,0:0:0:0:
308,268,197879,1,0,0:0:0:0:
264,260,197964,2,0,L|175:244,1,89.9999972534181
445,133,198134,2,0,L|387:202,1,89.9999972534181
108,317,198305,6,0,L|76:232,1,89.9999972534181
132,84,198475,2,0,L|163:168,1,89.9999972534181
108,317,198646,6,0,L|76:232,1,89.9999972534181
132,84,198816,2,0,L|163:168,1,89.9999972534181
108,317,198987,6,0,L|76:232,1,89.9999972534181
132,84,199157,2,0,L|163:168,1,89.9999972534181
223,263,199328,5,0,0:0:0:0:
225,298,199413,1,0,0:0:0:0:
247,325,199498,1,0,0:0:0:0:
282,333,199583,1,0,0:0:0:0:
314,319,199668,1,0,0:0:0:0:
332,289,199754,1,0,0:0:0:0:
329,254,199839,1,0,0:0:0:0:
305,228,199924,1,0,0:0:0:0:
286,199,200009,5,0,0:0:0:0:
305,228,200094,1,0,0:0:0:0:
338,240,200179,1,0,0:0:0:0:
372,230,200264,1,0,0:0:0:0:
393,202,200349,1,0,0:0:0:0:
394,167,200435,1,0,0:0:0:0:
373,138,200520,1,0,0:0:0:0:
339,127,200605,1,0,0:0:0:0:
315,101,200691,5,0,0:0:0:0:
339,127,200776,1,0,0:0:0:0:
342,162,200861,1,0,0:0:0:0:
324,192,200947,1,0,0:0:0:0:
292,206,201032,1,0,0:0:0:0:
257,198,201117,1,0,0:0:0:0:
235,171,201202,1,0,0:0:0:0:
233,136,201287,1,0,0:0:0:0:
231,101,201373,5,0,0:0:0:0:
233,136,201458,1,0,0:0:0:0:
255,163,201543,1,0,0:0:0:0:
290,171,201628,1,0,0:0:0:0:
322,157,201713,1,0,0:0:0:0:
346,118,201799,1,0,0:0:0:0:
376,98,201884,1,0,0:0:0:0:
410,89,201969,1,0,0:0:0:0:
446,89,202055,6,0,B|483:118|483:118|524:206,1,89.9999972534181
395,182,202225,1,0,0:0:0:0:
112,240,202396,1,0,0:0:0:0:
183,225,202566,5,0,0:0:0:0:
148,233,202651,1,0,0:0:0:0:
112,240,202737,1,0,0:0:0:0:
77,248,202822,1,0,0:0:0:0:
42,257,202907,1,0,0:0:0:0:
112,81,203078,5,0,0:0:0:0:
128,112,203163,1,0,0:0:0:0:
145,143,203248,2,0,L|190:241,1,89.9999972534181
218,287,203419,5,0,0:0:0:0:
