osu file format v14

[General]
AudioFilename: audio.mp3
AudioLeadIn: 0
PreviewTime: 50470
Countdown: 0
SampleSet: Soft
StackLeniency: 0.7
Mode: 2
LetterboxInBreaks: 0
WidescreenStoryboard: 1

[Editor]
DistanceSpacing: 1.1
BeatDivisor: 4
GridSize: 4
TimelineZoom: 1.3

[Metadata]
Title:secret arms (TV Size)
TitleUnicode:secret arms (TV Size)
Artist:Ray
ArtistUnicode:Ray
Creator:[_-Kukkai-_]
Version:Salad
Source:To LOVEる-とらぶる-ダークネス 2nd
Tags:rew0825 Opening Umi LOVE-Ru darkness season 2 Japanese Anime
BeatmapID:2354760
BeatmapSetID:1124930

[Difficulty]
HPDrainRate:4
CircleSize:3
OverallDifficulty:7
ApproachRate:7
SliderMultiplier:1.62
SliderTickRate:1

[Events]
//Background and Video events
Video,0,"To love-ru -trouble- Darkness 2nd OP.avi"
0,0,"cropped-1920-1200-808371 (1).png",0,0
//Break Periods
//Storyboard Layer 0 (Background)
//Storyboard Layer 1 (Fail)
//Storyboard Layer 2 (Pass)
//Storyboard Layer 3 (Foreground)
//Storyboard Layer 4 (Overlay)
//Storyboard Sound Samples

[TimingPoints]
762,437.956204379562,4,2,2,50,1,0
1418,-100,4,2,1,50,0,0
1856,-100,4,2,1,50,0,0
2075,-100,4,2,2,50,0,0
2513,-100,4,2,1,50,0,0
3170,-100,4,2,2,50,0,0
3280,-100,4,2,1,50,0,0
3389,-100,4,2,2,50,0,0
4703,-100,4,2,1,50,0,0
4922,-100,4,2,2,50,0,0
5798,-100,4,2,1,50,0,0
6893,-100,4,2,1,60,0,0
7331,-100,4,2,2,60,0,0
7550,-100,4,2,1,60,0,0
7769,-100,4,2,2,70,0,0
8426,-100,4,2,1,70,0,0
9083,-100,4,2,2,70,0,0
9521,-100,4,2,1,70,0,0
10178,-100,4,2,2,70,0,0
11929,-100,4,2,1,70,0,0
12586,-100,4,2,2,70,0,0
13462,-100,4,2,1,70,0,0
13681,-100,4,2,2,70,0,0
14119,-100,4,2,1,70,0,0
14338,-100,4,2,2,70,0,0
14776,-100,4,2,1,70,0,0
18280,-100,4,2,2,60,0,0
20689,-100,4,2,1,60,0,0
21783,-100,4,2,1,60,0,0
27696,-100,4,2,2,60,0,0
28791,-100,4,2,2,65,0,0
29010,-100,4,2,1,65,0,0
29448,-100,4,2,2,65,0,0
29667,-100,4,2,1,65,0,0
30105,-100,4,2,2,65,0,0
30214,-100,4,2,1,65,0,0
30761,-100,4,2,2,65,0,0
31637,-100,4,2,1,65,0,0
31856,-100,4,2,2,65,0,0
32075,-100,4,2,1,65,0,0
32513,-100,4,2,2,65,0,0
32732,-100,4,2,1,65,0,0
32951,-100,4,2,2,65,0,0
34265,-100,4,2,2,65,0,0
34703,-100,4,2,1,65,0,0
35798,-100,4,2,1,60,0,0
41272,-100,4,2,2,60,0,0
41710,-100,4,2,1,60,0,0
41929,-100,4,2,2,60,0,0
42148,-100,4,2,1,60,0,0
42367,-100,4,2,2,60,0,0
42586,-100,4,2,1,60,0,0
42805,-100,4,2,1,60,0,0
46309,-100,4,2,1,60,0,0
51564,-100,4,2,1,80,0,1
53316,-100,4,2,2,80,0,1
53754,-100,4,2,1,80,0,1
53973,-100,4,2,2,80,0,1
54083,-100,4,2,1,80,0,1
57696,-100,4,2,2,80,0,1
58134,-100,4,2,1,80,0,1
58353,-100,4,2,2,80,0,1
58572,-100,4,2,1,80,0,1
59886,-100,4,2,2,80,0,1
60324,-100,4,2,1,80,0,1
60543,-100,4,2,2,80,0,1
60652,-100,4,2,1,80,0,1
61199,-100,4,2,2,80,0,1
61418,-100,4,2,1,80,0,1
61637,-100,4,2,2,80,0,1
62075,-100,4,2,1,80,0,0
63389,-100,4,2,2,80,0,0
63608,-100,4,2,1,80,0,0
65141,-100,4,2,2,80,0,0
65360,-100,4,2,1,80,0,0
65579,-100,4,2,1,80,0,1
67769,-100,4,2,2,80,0,1
67988,-100,4,2,1,80,0,1
68207,-100,4,2,2,80,0,1
68535,-100,4,2,1,80,0,1
68645,-100,4,2,2,80,0,1
68864,-100,4,2,1,80,0,1
71710,-100,4,2,2,80,0,1
72148,-100,4,2,1,80,0,1
72367,-100,4,2,2,80,0,1
72586,-100,4,2,1,80,0,1
74338,-100,4,2,2,80,0,1
74557,-100,4,2,1,80,0,1
76966,-100,4,2,2,80,0,1
77185,-100,4,2,1,80,0,1
77623,-100,4,2,2,80,0,1
77842,-100,4,2,1,80,0,1
83097,-100,4,2,1,60,0,0

[Colours]
Combo1 : 114,87,168
Combo2 : 143,48,50
Combo3 : 251,196,68
Combo4 : 221,119,163

[HitObjects]
236,244,762,6,0,L|416:244,1,162,2|2,0:0|0:0,0:0:0:0:
300,244,1418,1,2,0:0:0:0:
104,252,1856,2,0,L|4:252,2,81,2|2|2,0:0|0:0|0:0,0:0:0:0:
328,248,3170,5,2,0:0:0:0:
232,252,3389,2,0,L|80:252,2,121.5,2|2|2,0:0|0:0|0:0,0:0:0:0:
330,242,4265,6,0,P|370:210|326:122,1,162,2|2,0:0|0:0,0:0:0:0:
250,134,4922,1,2,0:0:0:0:
88,130,5360,2,0,L|88:34,1,81,2|2,0:0|0:0,0:0:0:0:
292,36,5798,5,2,0:0:0:0:
256,192,6236,12,10,7331,0:0:0:0:
104,288,7769,6,0,P|56:248|128:176,1,162,6|10,1:2|0:0,0:0:0:0:
180,172,8426,1,2,0:0:0:0:
376,176,8864,2,0,L|456:176,2,81,2|10|2,0:0|0:0|0:0,0:0:0:0:
280,180,9521,6,0,L|104:180,1,162,0|8,1:0|0:0,0:0:0:0:
212,180,10178,1,2,0:0:0:0:
304,180,10397,1,2,1:2:0:0:
428,176,10725,2,2,L|364:32,1,121.5,2|2,0:0|0:0,0:0:0:0:
176,184,11272,6,0,P|120:144|192:96,1,162,2|10,1:2|0:0,0:0:0:0:
268,84,11929,1,2,0:0:0:0:
464,80,12367,2,0,L|464:168,1,81,2|2,0:0|0:0,0:0:0:0:
368,160,12805,1,2,0:0:0:0:
272,164,13024,6,0,L|84:164,1,162,0|10,1:0|0:0,0:0:0:0:
344,168,13900,2,0,L|452:168,2,81,2|2|10,1:2|0:0|0:0,0:0:0:0:
36,240,14776,6,0,L|220:240,1,162,6|0,1:2|0:0,0:0:0:0:
296,240,15433,2,0,L|124:240,1,162,6|8,1:2|0:0,0:0:0:0:
232,236,16090,1,2,1:2:0:0:
432,336,16309,6,0,P|476:308|408:236,1,162,6|8,1:2|0:0,0:0:0:0:
344,228,16966,1,0,1:0:0:0:
248,232,17185,2,0,L|444:232,1,162,6|0,1:2|1:0,0:0:0:0:
508,232,17842,1,8,0:0:0:0:
196,256,18280,6,0,L|196:76,1,162,6|8,1:2|0:0,0:0:0:0:
364,100,19156,2,0,L|520:100,2,121.5,2|2|2,0:0|0:0|1:2,0:0:0:0:
160,356,20032,6,0,P|112:320|192:108,1,324,6|0,1:2|1:0,0:0:0:0:
348,96,21345,2,0,L|348:192,1,81,8|2,1:2|0:0,0:0:0:0:
145,346,21783,6,0,P|99:286|166:222,1,162,6|10,1:2|0:0,0:0:0:0:
232,220,22440,1,2,1:2:0:0:
320,220,22659,2,0,L|320:40,1,162,2|8,0:0|0:0,0:0:0:0:
108,176,23535,6,0,P|56:136|124:84,1,162,2|10,0:0|0:0,0:0:0:0:
284,196,24411,1,0,0:0:0:0:
203,196,24629,1,2,1:2:0:0:
122,196,24848,1,8,0:0:0:0:
432,200,25287,6,0,P|464:136|408:48,1,162,0|10,1:0|0:0,0:0:0:0:
340,64,25944,1,2,1:2:0:0:
252,64,26163,2,0,L|80:64,1,162,2|10,0:0|0:0,0:0:0:0:
268,60,27039,6,0,L|364:60,2,81,2|0|10,0:0|1:0|0:0,0:0:0:0:
92,80,27915,2,0,P|52:136|112:228,1,162,8|10,1:2|0:0,0:0:0:0:
396,268,28791,6,0,L|212:268,1,162,6|10,1:2|1:2,0:0:0:0:
144,264,29448,1,2,0:0:0:0:
56,268,29667,2,0,L|56:92,1,162,2|10,1:2|1:2,0:0:0:0:
236,112,30543,6,0,L|424:112,1,162,2|10,1:2|1:2,0:0:0:0:
220,112,31418,2,0,L|132:112,1,81,2|2,1:2|0:0,0:0:0:0:
140,24,31856,1,10,1:2:0:0:
448,284,32294,6,0,L|448:120,1,162,4|10,1:2|1:2,0:0:0:0:
284,96,33170,1,2,1:2:0:0:
204,97,33388,1,0,1:0:0:0:
123,99,33607,1,0,1:0:0:0:
324,352,33827,6,0,P|364:312|296:228,1,162,6|2,0:0|0:0,0:0:0:0:
232,220,34484,1,10,1:2:0:0:
52,220,34922,2,0,L|52:112,1,81,0|2,1:0|1:2,0:0:0:0:
140,140,35360,1,8,0:0:0:0:
448,312,35798,6,0,L|264:312,1,162,6|10,1:2|0:0,0:0:0:0:
464,312,36674,2,0,P|504:276|444:192,1,162,2|10,0:0|0:0,0:0:0:0:
232,192,37550,6,0,L|84:192,2,121.5,0|0|2,1:0|1:0|1:2,0:0:0:0:
320,192,38426,2,0,L|488:192,1,162,2|0,0:0|0:0,0:0:0:0:
392,196,39083,1,2,0:0:0:0:
188,324,39302,6,0,P|140:284|212:216,1,162,6|10,1:2|0:0,0:0:0:0:
364,220,40178,2,0,L|184:220,1,162,2|10,0:0|0:0,0:0:0:0:
380,220,41053,6,0,L|516:220,2,121.5,2|0|2,1:2|0:0|1:2,0:0:0:0:
292,220,41929,2,0,L|92:220,1,162,2|10,0:0|0:0,0:0:0:0:
220,220,42586,1,2,0:0:0:0:
424,224,42805,6,0,P|472:196|408:128,1,162,6|10,1:2|0:0,0:0:0:0:
248,128,43681,2,0,P|196:88|268:36,1,162,2|10,0:0|0:0,0:0:0:0:
428,28,44557,5,0,1:0:0:0:
296,32,44886,1,0,1:0:0:0:
164,32,45214,1,2,1:2:0:0:
252,32,45433,2,0,L|424:32,1,162,2|0,0:0|0:0,0:0:0:0:
100,352,46309,6,0,L|60:208,1,121.5,6|2,1:2|1:2,0:0:0:0:
212,232,46966,1,0,0:0:0:0:
308,228,47185,2,0,L|464:228,2,121.5,6|2|2,1:2|1:2|1:2,0:0:0:0:
100,336,48061,6,0,L|100:156,1,162,2|8,1:2|1:2,0:0:0:0:
276,196,48937,1,0,1:0:0:0:
195,196,49155,1,0,1:0:0:0:
114,196,49374,1,8,1:2:0:0:
428,336,49813,5,0,1:0:0:0:
256,192,50251,12,8,51126,0:0:0:0:
388,344,51564,6,0,P|436:280|368:216,1,162,6|10,1:2|1:2,0:0:0:0:
300,220,52221,1,2,0:0:0:0:
104,232,52659,2,0,L|4:232,1,81,2|10,0:0|1:2,0:0:0:0:
104,232,53097,6,0,L|384:232,1,243,2|8,0:0|1:2,0:0:0:0:
264,228,53973,1,2,0:0:0:0:
168,228,54192,2,0,L|36:228,2,121.5,2|2|2,1:2|0:0|1:2,0:0:0:0:
376,236,55068,6,0,P|412:204|360:112,1,162,2|10,1:2|1:2,0:0:0:0:
276,124,55725,1,2,0:0:0:0:
80,128,56163,2,0,L|80:20,1,81,2|10,0:0|1:2,0:0:0:0:
288,120,56601,6,0,L|369:120,2,81,2|2|2,0:0|1:2|0:0,0:0:0:0:
200,124,57258,1,10,1:2:0:0:
112,124,57477,1,2,0:0:0:0:
216,124,57696,2,0,L|376:124,2,121.5,2|2|2,1:2|0:0|1:2,0:0:0:0:
420,344,58572,6,0,L|220:344,1,162,6|10,1:2|1:2,0:0:0:0:
160,340,59229,1,2,0:0:0:0:
256,340,59448,2,0,L|436:344,1,162,2|10,1:2|1:2,0:0:0:0:
220,348,60324,5,2,1:2:0:0:
301,348,60542,1,2,0:0:0:0:
382,348,60761,1,8,1:2:0:0:
188,352,61199,1,2,0:0:0:0:
104,304,61418,1,2,0:0:0:0:
100,208,61637,1,10,1:2:0:0:
184,164,61856,1,2,0:0:0:0:
392,168,62075,6,0,L|392:300,1,121.5,6|10,1:2|1:2,0:0:0:0:
220,272,62732,2,0,L|80:272,1,121.5,6|10,1:2|1:2,0:0:0:0:
272,276,63389,2,0,L|272:376,1,81,2|2,0:0|0:0,0:0:0:0:
64,352,63827,6,0,L|64:220,1,121.5,6|10,1:2|1:2,0:0:0:0:
236,224,64484,2,0,L|372:224,1,121.5,6|10,1:2|1:2,0:0:0:0:
108,132,65141,2,0,L|212:132,1,81,10|2,0:0|0:0,0:0:0:0:
392,112,65579,6,0,P|436:88|372:8,1,162,6|10,1:2|1:2,0:0:0:0:
300,8,66236,1,2,0:0:0:0:
104,324,66674,1,2,0:0:0:0:
185,324,66892,1,10,1:2:0:0:
264,324,67112,6,0,P|196:320|200:160,1,243,2|10,0:0|1:2,0:0:0:0:
272,160,67988,1,2,0:0:0:0:
360,160,68207,2,0,L|492:160,2,121.5,2|2|2,1:2|0:0|1:2,0:0:0:0:
152,292,69083,6,0,P|112:256|172:172,1,162,2|10,1:2|1:2,0:0:0:0:
237,174,69740,1,2,0:0:0:0:
448,148,70178,2,0,L|448:40,1,81,2|10,0:0|1:2,0:0:0:0:
240,200,70616,6,0,L|160:200,2,81,2|2|2,0:0|1:2|0:0,0:0:0:0:
328,200,71272,1,10,1:2:0:0:
416,200,71491,1,2,0:0:0:0:
328,132,71710,2,0,L|176:132,2,121.5,2|2|10,1:2|0:0|0:0,0:0:0:0:
128,132,72586,6,0,L|48:132,2,81,6|2|10,1:2|0:0|1:2,0:0:0:0:
224,132,73243,2,0,L|400:132,1,162,2|2,0:0|0:0,0:0:0:0:
467,132,73900,1,10,1:2:0:0:
220,352,74338,6,0,L|72:352,2,121.5,2|2|2,1:2|0:0|0:0,0:0:0:0:
316,352,75214,2,0,L|492:352,1,162,0|8,1:2|1:2,0:0:0:0:
388,352,75871,1,0,1:0:0:0:
180,232,76090,6,0,L|180:112,1,81,6|2,1:2|0:0,0:0:0:0:
276,148,76528,1,10,1:2:0:0:
372,148,76747,2,0,P|448:112|428:44,1,162,2|2,0:0|0:0,0:0:0:0:
336,48,77404,1,10,1:2:0:0:
28,336,77842,6,0,L|212:336,1,162,6|8,1:2|0:0,0:0:0:0:
84,332,78499,2,0,P|40:292|112:216,1,162,6|0,1:2|1:0,0:0:0:0:
168,212,79156,1,10,0:0:0:0:
480,216,79594,6,0,L|340:216,2,121.5,6|0|0,1:2|1:0|1:0,0:0:0:0:
276,320,80470,2,0,L|104:320,1,162,6|2,1:2|0:0,0:0:0:0:
320,244,81126,6,0,P|360:212|304:124,1,162,4|2,1:2|0:0,0:0:0:0:
108,128,81783,1,0,1:0:0:0:
404,156,82659,1,12,0:0:0:0:
96,152,83097,6,0,L|96:40,1,81,4|2,1:2|0:0,0:0:0:0:
192,64,83535,1,2,0:0:0:0:
288,60,83754,2,0,P|336:104|276:184,1,162,8|2,1:2|0:0,0:0:0:0:
92,184,84411,1,8,1:2:0:0:
256,192,84849,12,4,86382,1:2:0:0:
