osu file format v14

[General]
AudioFilename: audio.mp3
AudioLeadIn: 0
PreviewTime: 50470
Countdown: 0
SampleSet: Soft
StackLeniency: 0.7
Mode: 2
LetterboxInBreaks: 0
WidescreenStoryboard: 1

[Editor]
DistanceSpacing: 1.2
BeatDivisor: 4
GridSize: 4
TimelineZoom: 1.6

[Metadata]
Title:secret arms (TV Size)
TitleUnicode:secret arms (TV Size)
Artist:Ray
ArtistUnicode:Ray
Creator:[_-Kukkai-_]
Version:Platter
Source:To LOVEる-とらぶる-ダークネス 2nd
Tags:rew0825 Opening Umi LOVE-Ru darkness season 2 Japanese Anime
BeatmapID:2350847
BeatmapSetID:1124930

[Difficulty]
HPDrainRate:5
CircleSize:3.5
OverallDifficulty:8
ApproachRate:8
SliderMultiplier:1.87
SliderTickRate:2

[Events]
//Background and Video events
Video,0,"To love-ru -trouble- Darkness 2nd OP.avi"
0,0,"cropped-1920-1200-808371 (1).png",0,0
//Break Periods
//Storyboard Layer 0 (Background)
//Storyboard Layer 1 (Fail)
//Storyboard Layer 2 (Pass)
//Storyboard Layer 3 (Foreground)
//Storyboard Layer 4 (Overlay)
//Storyboard Sound Samples

[TimingPoints]
762,437.956204379562,4,2,2,50,1,0
1418,-100,4,2,1,50,0,0
1856,-100,4,2,1,50,0,0
2075,-100,4,2,2,50,0,0
2513,-100,4,2,1,50,0,0
3170,-100,4,2,2,50,0,0
3280,-100,4,2,1,50,0,0
3389,-100,4,2,2,50,0,0
4703,-100,4,2,1,50,0,0
4922,-100,4,2,2,50,0,0
5798,-100,4,2,1,50,0,0
6893,-100,4,2,1,60,0,0
7331,-100,4,2,2,60,0,0
7550,-100,4,2,1,60,0,0
7769,-100,4,2,2,70,0,0
8426,-100,4,2,1,70,0,0
9083,-100,4,2,2,70,0,0
9521,-100,4,2,1,70,0,0
10178,-100,4,2,2,70,0,0
11929,-100,4,2,1,70,0,0
12586,-100,4,2,2,70,0,0
13462,-100,4,2,1,70,0,0
13681,-100,4,2,2,70,0,0
14119,-100,4,2,1,70,0,0
14338,-100,4,2,2,70,0,0
14776,-100,4,2,1,70,0,0
18280,-100,4,2,2,60,0,0
20689,-100,4,2,1,60,0,0
21783,-100,4,2,1,60,0,0
27696,-100,4,2,2,60,0,0
28791,-100,4,2,2,65,0,0
29010,-100,4,2,1,65,0,0
29448,-100,4,2,2,65,0,0
29667,-100,4,2,1,65,0,0
30105,-100,4,2,2,65,0,0
30214,-100,4,2,1,65,0,0
30761,-100,4,2,2,65,0,0
31637,-100,4,2,1,65,0,0
31856,-100,4,2,2,65,0,0
32075,-100,4,2,1,65,0,0
32513,-100,4,2,2,65,0,0
32732,-100,4,2,1,65,0,0
32951,-100,4,2,2,65,0,0
34265,-100,4,2,2,65,0,0
34703,-100,4,2,1,65,0,0
35798,-100,4,2,1,60,0,0
41272,-100,4,2,2,60,0,0
41710,-100,4,2,1,60,0,0
41929,-100,4,2,2,60,0,0
42148,-100,4,2,1,60,0,0
42367,-100,4,2,2,60,0,0
42586,-100,4,2,1,60,0,0
42805,-100,4,2,1,60,0,0
46309,-100,4,2,1,60,0,0
51564,-100,4,2,1,80,0,1
53316,-100,4,2,2,80,0,1
53754,-100,4,2,1,80,0,1
53973,-100,4,2,2,80,0,1
54083,-100,4,2,1,80,0,1
57696,-100,4,2,2,80,0,1
58134,-100,4,2,1,80,0,1
58353,-100,4,2,2,80,0,1
58572,-100,4,2,1,80,0,1
59886,-100,4,2,2,80,0,1
60324,-100,4,2,1,80,0,1
60543,-100,4,2,2,80,0,1
60652,-100,4,2,1,80,0,1
61199,-100,4,2,2,80,0,1
61418,-100,4,2,1,80,0,1
61637,-100,4,2,2,80,0,1
62075,-100,4,2,1,80,0,0
63389,-100,4,2,2,80,0,0
63608,-100,4,2,1,80,0,0
65141,-100,4,2,2,80,0,0
65360,-100,4,2,1,80,0,0
65579,-100,4,2,1,80,0,1
67769,-100,4,2,2,80,0,1
67988,-100,4,2,1,80,0,1
68207,-100,4,2,2,80,0,1
68535,-100,4,2,1,80,0,1
68645,-100,4,2,2,80,0,1
68864,-100,4,2,1,80,0,1
71710,-100,4,2,2,80,0,1
72148,-100,4,2,1,80,0,1
72367,-100,4,2,2,80,0,1
72586,-100,4,2,1,80,0,1
74338,-100,4,2,2,80,0,1
74557,-100,4,2,1,80,0,1
76966,-100,4,2,2,80,0,1
77185,-100,4,2,1,80,0,1
77623,-100,4,2,2,80,0,1
77842,-100,4,2,1,80,0,1
83097,-100,4,2,1,60,0,0

[Colours]
Combo1 : 114,87,168
Combo2 : 143,48,50
Combo3 : 251,196,68
Combo4 : 221,119,163

[HitObjects]
436,352,762,6,0,P|490:287|427:232,1,187,2|2,0:0|0:0,0:0:0:0:
332,231,1418,1,2,0:0:0:0:
116,248,1856,1,2,0:0:0:0:
208,248,2075,1,2,0:0:0:0:
300,248,2294,1,2,0:0:0:0:
44,264,3170,5,2,0:0:0:0:
136,264,3389,2,0,L|292:264,2,140.25,2|2|2,0:0|0:0|0:0,0:0:0:0:
352,276,4265,6,0,P|396:232|324:128,1,187,2|2,0:0|0:0,0:0:0:0:
236,128,4922,1,2,0:0:0:0:
44,128,5360,2,0,L|156:128,1,93.5,2|2,0:0|0:0,0:0:0:0:
384,128,5798,5,2,0:0:0:0:
256,192,6017,12,8,6893,0:0:0:0:
76,200,7331,6,2,L|20:200,2,46.75,10|2|2,0:0|0:0|0:0,0:0:0:0:
360,356,7769,6,0,L|360:240,1,93.5,6|0,1:2|0:0,0:0:0:0:
244,264,8207,1,10,0:0:0:0:
460,256,8426,2,0,L|460:148,1,93.5,2|0,0:0|1:0,0:0:0:0:
366,162,8864,2,0,L|470:162,1,93.5,2|10,0:0|0:0,0:0:0:0:
244,152,9302,1,2,0:0:0:0:
148,152,9521,6,0,L|148:24,1,93.5,0|0,1:0|0:0,0:0:0:0:
244,64,9959,2,0,L|380:64,1,93.5,8|2,0:0|0:0,0:0:0:0:
112,148,10397,1,2,1:2:0:0:
252,152,10725,1,2,0:0:0:0:
392,156,11053,1,2,0:0:0:0:
168,352,11272,6,0,L|168:244,1,93.5,2|0,1:2|0:0,0:0:0:0:
280,264,11710,1,10,0:0:0:0:
56,252,11929,2,0,L|56:120,1,93.5,2|0,0:0|1:0,0:0:0:0:
149,158,12367,2,0,L|37:158,1,93.5,2|2,0:0|0:0,0:0:0:0:
272,360,12805,6,0,L|388:360,1,93.5,2|0,0:0|1:0,0:0:0:0:
156,296,13243,1,2,0:0:0:0:
112,285,13352,1,2,0:0:0:0:
91,244,13461,1,10,0:0:0:0:
109,202,13571,1,2,0:0:0:0:
153,189,13680,1,2,0:0:0:0:
372,184,13900,1,2,1:2:0:0:
325,184,14009,1,2,0:0:0:0:
278,184,14118,1,2,0:0:0:0:
231,184,14228,1,2,0:0:0:0:
185,184,14337,1,10,0:0:0:0:
88,184,14557,1,0,0:0:0:0:
412,360,14776,6,0,P|468:316|384:248,1,187,6|0,1:2|0:0,0:0:0:0:
124,240,15433,2,0,L|316:240,1,187,6|8,1:2|0:0,0:0:0:0:
404,244,16090,1,2,1:2:0:0:
116,336,16309,6,0,P|48:288|124:204,1,187,6|8,1:2|0:0,0:0:0:0:
140,204,16856,1,8,0:0:0:0:
192,204,16966,1,0,1:0:0:0:
472,160,17185,2,0,L|264:160,1,187,6|0,1:2|1:0,0:0:0:0:
388,160,17842,2,0,L|388:36,1,93.5,8|0,0:0|1:0,0:0:0:0:
96,352,18280,6,0,P|36:328|116:264,1,187,6|8,1:2|0:0,0:0:0:0:
184,252,18937,1,0,0:0:0:0:
276,252,19156,1,2,0:0:0:0:
136,252,19484,2,0,L|128:92,1,140.25,2|2,0:0|1:2,0:0:0:0:
416,376,20032,6,0,P|468:352|404:268,1,187,6|8,1:2|0:0,0:0:0:0:
296,264,20689,2,0,L|234:265,2,46.75,2|2|0,0:0|0:0|1:0,0:0:0:0:
484,176,21345,2,0,L|489:72,1,93.5,8|2,1:2|0:0,0:0:0:0:
208,152,21783,6,0,L|192:52,1,93.5,6|2,1:2|0:0,0:0:0:0:
304,60,22221,1,10,0:0:0:0:
193,59,22440,1,2,1:2:0:0:
416,352,22659,2,0,L|224:352,1,187,2|8,0:0|0:0,0:0:0:0:
116,352,23316,1,2,1:2:0:0:
220,356,23535,6,0,L|323:360,1,93.5,2|2,0:0|1:2,0:0:0:0:
96,352,23973,1,10,0:0:0:0:
300,304,24411,1,0,0:0:0:0:
352,304,24521,1,0,0:0:0:0:
404,304,24630,2,0,L|404:192,1,93.5,2|8,1:2|0:0,0:0:0:0:
160,200,25068,6,0,L|160:92,1,93.5,2|0,0:0|1:0,0:0:0:0:
272,112,25506,2,0,L|376:112,1,93.5,2|10,0:0|0:0,0:0:0:0:
252,352,25944,1,2,1:2:0:0:
196,356,26053,1,2,0:0:0:0:
140,352,26163,1,2,0:0:0:0:
92,320,26272,1,10,0:0:0:0:
48,284,26381,1,0,1:0:0:0:
32,228,26491,1,2,0:0:0:0:
48,176,26600,1,10,0:0:0:0:
84,132,26710,1,0,1:0:0:0:
140,128,26819,1,2,1:2:0:0:
256,160,27039,6,0,L|144:160,1,93.5,2|0,0:0|1:0,0:0:0:0:
388,160,27477,1,10,0:0:0:0:
208,332,27915,2,0,L|136:332,2,46.75,8|8|0,1:2|1:2|1:0,0:0:0:0:
428,340,28353,2,0,L|428:268,1,46.75,10|8,0:0|0:0,0:0:0:0:
372,292,28572,1,8,0:0:0:0:
84,360,28791,6,0,L|84:256,1,93.5,6|2,1:2|0:0,0:0:0:0:
196,268,29229,1,10,1:2:0:0:
84,272,29448,1,2,0:0:0:0:
308,176,29667,2,0,L|76:176,1,187,2|10,1:2|1:2,0:0:0:0:
224,176,30324,1,2,0:0:0:0:
121,176,30543,6,0,L|121:64,1,93.5,2|2,1:2|0:0,0:0:0:0:
364,344,30980,2,0,L|480:344,2,93.5,10|0|2,1:2|0:0|1:2,0:0:0:0:
249,344,31637,1,2,0:0:0:0:
353,344,31856,1,10,1:2:0:0:
457,344,32075,1,2,0:0:0:0:
164,248,32294,6,0,L|164:128,1,93.5,4|2,1:2|0:0,0:0:0:0:
268,148,32732,1,10,1:2:0:0:
164,148,32951,1,2,0:0:0:0:
388,72,33170,2,0,L|496:72,2,93.5,2|0|0,1:2|1:0|1:0,0:0:0:0:
88,360,33827,6,0,P|32:328|100:240,1,187,6|2,0:0|0:0,0:0:0:0:
364,248,34484,2,0,L|248:248,1,93.5,10|2,1:2|0:0,0:0:0:0:
220,248,34813,1,0,1:0:0:0:
168,248,34922,1,0,1:0:0:0:
396,144,35141,2,0,L|512:144,2,93.5,2|8|0,1:2|0:0|1:0,0:0:0:0:
96,368,35798,6,0,L|288:368,1,187,6|10,1:2|0:0,0:0:0:0:
92,360,36674,2,0,P|56:288|116:188,1,187,2|10,0:0|0:0,0:0:0:0:
328,192,37550,6,0,L|480:192,2,140.25,0|0|2,1:0|1:0|1:2,0:0:0:0:
103,193,38426,2,0,B|55:149|115:101,1,93.5,2|0,0:0|1:0,0:0:0:0:
175,105,38754,1,0,0:0:0:0:
28,108,39083,1,2,0:0:0:0:
308,356,39302,6,0,L|104:356,1,187,6|10,1:2|0:0,0:0:0:0:
348,360,40178,2,0,P|396:308|320:216,1,187,2|10,0:0|0:0,0:0:0:0:
120,224,41053,5,2,1:2:0:0:
120,120,41272,1,2,0:0:0:0:
224,120,41491,1,10,0:0:0:0:
328,116,41710,1,2,1:2:0:0:
332,220,41929,1,2,0:0:0:0:
212,220,42148,2,0,L|104:220,2,93.5,2|10|2,1:2|0:0|0:0,0:0:0:0:
496,356,42805,6,0,L|496:136,1,187,6|10,1:2|0:0,0:0:0:0:
288,172,43681,2,0,L|60:172,1,187,2|10,0:0|0:0,0:0:0:0:
328,352,44557,6,0,L|492:352,2,140.25,0|0|2,1:0|1:0|1:2,0:0:0:0:
103,353,45433,2,0,L|103:233,1,93.5,2|0,0:0|1:0,0:0:0:0:
175,257,45761,1,2,0:0:0:0:
315,257,46090,1,0,0:0:0:0:
12,192,46309,6,0,L|196:192,2,140.25,6|2|0,1:2|1:2|0:0,0:0:0:0:
296,184,47185,2,0,L|296:44,1,140.25,6|2,1:2|1:2,0:0:0:0:
140,44,47842,1,2,1:2:0:0:
424,368,48061,6,0,L|424:256,1,93.5,2|0,1:2|1:0,0:0:0:0:
312,272,48499,2,0,L|208:272,1,93.5,8|0,1:2|1:0,0:0:0:0:
444,200,48937,2,0,L|444:152,1,46.75,0|0,1:0|1:0,0:0:0:0:
396,152,49156,1,0,1:0:0:0:
180,156,49375,2,0,L|108:156,2,46.75,8|0|0,1:2|1:0|1:0,0:0:0:0:
472,88,49813,5,0,1:0:0:0:
256,192,50032,12,8,51126,0:0:0:0:
300,216,51564,6,0,L|100:216,1,187,6|10,1:2|1:2,0:0:0:0:
340,272,52221,2,0,L|340:156,1,93.5,2|0,0:0|1:0,0:0:0:0:
228,180,52659,1,2,0:0:0:0:
340,184,52878,1,10,1:2:0:0:
108,360,53097,5,2,0:0:0:0:
47,301,53315,1,2,1:2:0:0:
104,240,53534,1,0,0:0:0:0:
212,240,53754,1,8,1:2:0:0:
440,236,53973,2,0,L|524:236,1,46.75,2|2,0:0|0:0,0:0:0:0:
440,236,54192,2,0,L|280:236,2,140.25,2|2|2,1:2|0:0|1:2,0:0:0:0:
139,361,55068,6,0,L|139:233,1,93.5,2|0,1:2|0:0,0:0:0:0:
232,264,55506,1,10,1:2:0:0:
8,176,55725,2,0,L|204:176,1,187,2|2,0:0|0:0,0:0:0:0:
84,168,56382,2,0,L|84:56,1,93.5,10|2,1:2|0:0,0:0:0:0:
319,362,56820,5,2,1:2:0:0:
360,340,56929,1,0,0:0:0:0:
387,303,57038,1,2,0:0:0:0:
395,257,57148,1,2,0:0:0:0:
382,213,57257,1,10,1:2:0:0:
350,179,57367,1,2,0:0:0:0:
307,162,57476,1,2,0:0:0:0:
72,152,57696,2,0,L|212:152,2,140.25,2|2|2,1:2|0:0|1:2,0:0:0:0:
376,364,58572,6,0,L|376:260,1,93.5,6|2,1:2|0:0,0:0:0:0:
236,276,59010,2,0,L|236:164,1,93.5,10|2,1:2|0:0,0:0:0:0:
292,184,59338,1,2,0:0:0:0:
348,184,59448,2,0,L|156:184,1,187,2|10,1:2|1:2,0:0:0:0:
272,184,60105,1,2,0:0:0:0:
48,156,60324,6,0,L|48:44,1,93.5,2|2,1:2|0:0,0:0:0:0:
104,60,60652,1,2,0:0:0:0:
160,60,60761,1,8,1:2:0:0:
48,60,60980,1,0,0:0:0:0:
272,360,61199,2,0,L|272:252,1,93.5,2|2,0:0|0:0,0:0:0:0:
152,260,61637,2,0,L|36:260,1,93.5,10|2,1:2|0:0,0:0:0:0:
348,192,62075,6,0,L|480:192,1,93.5,6|0,1:2|0:0,0:0:0:0:
384,192,62404,1,10,1:2:0:0:
116,200,62732,2,0,L|8:200,1,93.5,6|0,1:2|0:0,0:0:0:0:
80,200,63061,1,10,1:2:0:0:
248,200,63389,1,2,0:0:0:0:
201,200,63498,1,2,0:0:0:0:
154,200,63607,1,2,0:0:0:0:
448,120,63827,6,0,L|336:120,1,93.5,6|0,1:2|0:0,0:0:0:0:
296,120,64156,1,10,1:2:0:0:
12,128,64484,2,0,L|140:128,1,93.5,6|0,1:2|0:0,0:0:0:0:
164,128,64813,1,10,1:2:0:0:
440,128,65141,2,0,L|512:128,2,46.75,10|2|2,0:0|0:0|0:0,0:0:0:0:
136,356,65579,6,0,L|324:356,1,187,6|10,1:2|1:2,0:0:0:0:
88,352,66236,2,0,L|88:228,1,93.5,2|0,0:0|1:0,0:0:0:0:
200,260,66674,1,2,0:0:0:0:
88,260,66893,1,10,1:2:0:0:
320,132,67112,5,2,0:0:0:0:
405,169,67330,1,2,1:2:0:0:
490,207,67549,1,0,0:0:0:0:
376,216,67769,1,10,1:2:0:0:
144,216,67988,1,2,0:0:0:0:
88,216,68097,1,2,0:0:0:0:
32,216,68207,2,0,L|196:216,2,140.25,2|2|2,1:2|0:0|1:2,0:0:0:0:
333,384,69083,6,0,L|333:290,1,93.5,2|0,1:2|0:0,0:0:0:0:
244,292,69521,1,10,1:2:0:0:
468,288,69740,2,0,L|268:288,1,187,2|2,0:0|0:0,0:0:0:0:
180,288,70397,1,10,1:2:0:0:
180,208,70616,1,2,0:0:0:0:
404,360,70834,5,2,1:2:0:0:
450,350,70943,1,0,0:0:0:0:
483,317,71052,1,2,0:0:0:0:
494,273,71162,1,2,0:0:0:0:
480,229,71271,1,10,1:2:0:0:
444,199,71381,1,2,0:0:0:0:
399,192,71490,1,2,0:0:0:0:
164,192,71710,2,0,L|332:192,1,140.25,2|2,1:2|0:0,0:0:0:0:
248,192,72148,1,10,1:2:0:0:
192,192,72258,1,8,0:0:0:0:
136,192,72367,1,10,0:0:0:0:
418,189,72586,6,0,L|298:189,2,93.5,6|2|10,1:2|0:0|1:2,0:0:0:0:
204,324,73243,2,0,P|152:288|224:204,1,187,2|2,0:0|0:0,0:0:0:0:
304,196,73900,2,0,L|304:96,1,93.5,10|2,1:2|0:0,0:0:0:0:
76,128,74338,6,0,L|236:128,2,140.25,2|2|2,1:2|0:0|0:0,0:0:0:0:
216,128,75214,2,0,L|324:128,1,93.5,0|0,1:2|0:0,0:0:0:0:
188,128,75652,2,0,L|76:128,1,93.5,8|0,1:2|1:0,0:0:0:0:
384,124,76090,6,0,L|484:124,2,93.5,6|2|10,1:2|0:0|1:2,0:0:0:0:
152,304,76747,2,0,L|360:304,1,187,2|2,0:0|0:0,0:0:0:0:
248,304,77404,2,0,L|124:304,1,93.5,10|2,1:2|0:0,0:0:0:0:
440,364,77842,6,0,P|484:328|420:228,1,187,6|8,1:2|0:0,0:0:0:0:
140,240,78499,2,0,P|84:204|160:128,1,187,6|0,1:2|1:0,0:0:0:0:
252,116,79156,1,10,0:0:0:0:
140,120,79375,1,2,1:2:0:0:
439,307,79594,6,0,L|275:307,2,140.25,6|0|0,1:2|1:0|1:0,0:0:0:0:
156,300,80470,2,0,P|92:252|160:196,1,187,6|2,1:2|0:0,0:0:0:0:
448,180,81126,6,0,P|504:148|432:72,1,187,4|2,1:2|0:0,0:0:0:0:
132,136,81783,1,0,1:0:0:0:
444,324,82659,1,12,0:0:0:0:
112,324,83097,6,0,L|4:324,2,93.5,4|2|2,1:2|0:0|0:0,0:0:0:0:
340,328,83754,2,0,P|396:300|324:224,1,187,8|2,1:2|0:0,0:0:0:0:
112,324,84411,2,0,P|228:56|360:340,1,748,8|2,1:2|0:0,0:0:0:0:
52,336,86382,1,4,1:2:0:0:
