osu file format v14

[General]
AudioFilename: audio.mp3
AudioLeadIn: 0
PreviewTime: 59966
Countdown: 0
SampleSet: Soft
StackLeniency: 0.7
Mode: 0
LetterboxInBreaks: 0
WidescreenStoryboard: 0

[Editor]
DistanceSpacing: 0.4
BeatDivisor: 4
GridSize: 16
TimelineZoom: 2

[Metadata]
Title:lull ~Soshite Bokura wa~ (TV Size)
TitleUnicode:lull 〜そして僕らは〜 (TV Size)
Artist:Ray
ArtistUnicode:Ray
Creator:tomadoi
Version:insane
Source:Nagi no Asukara
Tags:a lull in the sea anime japanese shiinoha kotone nagi-asu 凪のあすから
BeatmapID:2310066
BeatmapSetID:1105258

[Difficulty]
HPDrainRate:6
CircleSize:4
OverallDifficulty:7
ApproachRate:8.2
SliderMultiplier:1.5
SliderTickRate:1

[Events]
//Background and Video events
0,0,"w.jpg",0,0
//Break Periods
//Storyboard Layer 0 (Background)
//Storyboard Layer 1 (Fail)
//Storyboard Layer 2 (Pass)
//Storyboard Layer 3 (Foreground)
//Storyboard Layer 4 (Overlay)
//Storyboard Sound Samples

[TimingPoints]
1087,451.127819548872,4,2,1,56,1,0
8305,-90.9090909090909,4,2,1,56,0,0
15523,-100,4,2,1,56,0,0
29959,-90.9090909090909,4,2,1,56,0,0
57590,-90.9090909090909,4,2,1,5,0,0
57703,-76.9230769230769,4,2,1,56,0,0
58605,-66.6666666666667,4,2,1,56,0,0
59056,-50,4,2,1,56,0,0
59169,-50,4,2,1,5,0,0
59282,-41.6666666666667,4,2,1,56,0,0
59395,-41.6666666666667,4,2,1,5,0,0
59508,-35.7142857142857,4,2,1,56,0,0
59620,-35.7142857142857,4,2,1,5,0,0
59733,-100,4,2,1,56,0,0
60635,-76.9230769230769,4,2,1,56,0,0
87477,-100,4,2,1,56,0,0

[Colours]
Combo1 : 255,94,55
Combo2 : 173,255,95
Combo3 : 17,254,176
Combo4 : 255,88,100

[HitObjects]
443,65,1087,6,0,P|388:62|345:138,1,150,4|0,3:2|3:0,0:0:0:0:
407,188,1763,2,0,L|484:212,1,75,2|0,0:0|3:0,0:0:0:0:
338,246,2214,2,0,L|261:270,1,75,2|0,0:0|3:0,0:0:0:0:
176,380,2665,1,2,0:0:0:0:
176,380,2891,2,0,B|156:298|205:315|183:229,1,150,0|0,3:0|3:0,0:0:0:0:
23,105,3793,2,0,P|16:140|-3:180,1,75,2|0,3:2|0:0,0:0:0:0:
127,140,4244,2,0,L|202:124,1,75,2|0,3:2|0:0,0:0:0:0:
356,18,4696,5,2,3:2:0:0:
356,18,5147,1,0,3:0:0:0:
279,76,5372,2,0,P|304:103|322:136,1,75,2|0,0:0|3:0,0:0:0:0:
422,164,5823,2,0,P|396:191|378:224,1,75,2|0,0:0|3:0,0:0:0:0:
318,285,6274,1,2,0:0:0:0:
434,383,6500,5,0,3:0:0:0:
398,307,6726,1,2,0:0:0:0:
318,285,6951,1,0,3:0:0:0:
244,321,7177,1,2,0:0:0:0:
434,383,7402,1,0,3:0:0:0:
29,251,7853,2,0,L|8:260,6,18.75,2|0|2|0|2|0|2,3:2|0:0|0:0|0:0|0:0|0:0|0:0,0:0:0:0:
100,207,8305,6,0,P|116:244|119:299,1,82.5000025177003,4|0,3:2|0:0,0:0:0:0:
11,102,8756,2,0,L|91:79,1,82.5000025177003,8|0,0:0|0:0,0:0:0:0:
297,135,9207,1,0,3:0:0:0:
208,213,9432,1,2,0:0:0:0:
179,30,9658,2,0,B|195:69|195:69|189:115,1,82.5000025177003,8|0,0:0|0:0,0:0:0:0:
320,235,10109,6,0,L|369:254,3,41.2500012588501,0|0|2|0,3:2|0:0|0:2|0:0,0:0:0:0:
305,249,10560,2,0,B|289:288|289:288|295:334,1,82.5000025177003,8|0,0:0|0:0,0:0:0:0:
480,247,11011,1,0,3:0:0:0:
380,143,11237,1,2,0:0:0:0:
464,93,11462,1,8,0:0:0:0:
389,248,11688,1,2,0:0:0:0:
276,88,11914,6,0,L|191:66,1,82.5000025177003,0|2,3:2|0:0,0:0:0:0:
297,195,12365,1,8,0:0:0:0:
126,339,12590,2,0,P|172:279|259:296,1,165.000005035401,2|2,0:0|0:0,0:0:0:0:
351,363,13267,1,8,0:0:0:0:
220,133,13493,6,0,B|192:214|244:211|207:297,1,165.000005035401,4|0,3:2|3:0,0:0:0:0:
208,294,14056,1,0,3:0:0:0:
208,294,14169,1,8,0:0:0:0:
95,136,14395,6,0,P|112:150|135:160,1,41.2500012588501,0|0,3:0|3:0,0:0:0:0:
220,133,14620,1,0,3:0:0:0:
86,254,14846,2,0,P|45:271|11:299,1,82.5000025177003,4|8,3:2|0:0,0:0:0:0:
247,333,15297,5,0,3:0:0:0:
290,347,15410,1,0,3:0:0:0:
332,361,15523,2,0,B|421:350|382:310|481:311,1,150,4|0,3:2|3:0,0:0:0:0:
331,190,16199,2,0,P|321:223|303:262,1,75,2|0,0:0|3:0,0:0:0:0:
444,183,16650,2,0,P|428:148|417:113,1,75,2|0,0:0|3:0,0:0:0:0:
221,26,17102,1,2,0:0:0:0:
369,39,17327,6,0,P|333:87|239:97,1,150,0|0,3:0|3:0,0:0:0:0:
200,36,18004,1,2,0:0:0:0:
93,123,18229,5,0,3:0:0:0:
77,132,18455,1,2,0:0:0:0:
185,219,18680,5,0,3:0:0:0:
266,258,18906,2,0,L|276:304,1,37.5,2|0,0:0|0:0,0:0:0:0:
204,374,19132,6,0,P|131:369|100:298,1,150,2|0,3:2|3:0,0:0:0:0:
36,186,19808,2,0,L|11:262,1,75,2|0,0:0|3:0,0:0:0:0:
166,81,20259,1,2,0:0:0:0:
236,126,20485,2,0,L|261:202,1,75,0|2,3:0|0:0,0:0:0:0:
279,207,20823,5,2,0:0:0:0:
279,207,20936,2,0,P|311:192|352:183,1,75,0|0,3:2|0:0,0:0:0:0:
493,266,21387,1,0,3:0:0:0:
399,310,21613,2,0,L|378:385,1,75,2|0,0:0|3:0,0:0:0:0:
493,159,22064,1,2,0:0:0:0:
410,101,22290,2,0,L|393:27,1,75,0|2,3:0|0:0,0:0:0:0:
393,27,22628,5,2,0:0:0:0:
393,27,22741,2,0,P|330:39|272:103,1,150,2|0,3:2|3:0,0:0:0:0:
163,208,23417,2,0,P|185:177|191:140,1,75,2|0,0:0|3:0,0:0:0:0:
345,286,23868,2,0,P|323:255|317:218,1,75,2|0,0:0|3:0,0:0:0:0:
136,340,24320,1,2,0:0:0:0:
234,252,24545,6,0,P|248:303|257:366,1,112.5,0|0,3:0|0:0,0:0:0:0:
256,361,24996,2,0,L|332:378,1,75,0|2,3:2|0:0,0:0:0:0:
497,247,25447,5,0,3:0:0:0:
503,264,25673,1,2,0:0:0:0:
362,135,25899,5,0,3:0:0:0:
318,219,26124,2,0,L|312:261,1,37.5,2|0,0:0|0:0,0:0:0:0:
482,143,26350,6,0,P|471:80|425:2,1,150,2|0,3:2|3:0,0:0:0:0:
299,196,27026,2,0,P|292:229|270:270,1,75,2|0,0:0|3:0,0:0:0:0:
197,153,27477,2,0,P|190:120|168:79,1,75,2|0,0:0|3:0,0:0:0:0:
104,163,27929,2,0,P|97:196|75:237,1,75,2|0,0:0|3:0,0:0:0:0:
45,101,28380,5,2,3:2:0:0:
144,315,28605,1,8,0:0:0:0:
144,315,28831,1,0,3:2:0:0:
144,315,28944,1,0,3:0:0:0:
144,315,29056,1,2,3:2:0:0:
365,240,29282,1,8,0:0:0:0:
433,310,29508,2,0,L|462:318,6,18.75,8|0|0|0|0|0|0,3:2|0:0|0:0|0:0|0:0|0:0|0:0,0:0:0:0:
364,379,29959,6,0,P|392:284|401:218,1,165.000005035401,4|8,3:2|0:0,0:0:0:0:
347,77,30635,2,0,L|427:107,1,82.5000025177003,2|0,0:0|3:0,0:0:0:0:
231,213,31086,1,2,0:0:0:0:
152,172,31312,2,0,L|72:202,1,82.5000025177003,8|2,0:0|0:0,0:0:0:0:
57,194,31650,5,0,0:0:0:0:
57,194,31763,1,0,3:0:0:0:
185,278,31989,1,2,0:0:0:0:
8,369,32214,1,8,0:0:0:0:
185,278,32440,1,2,0:0:0:0:
299,317,32665,2,0,P|310:277|309:235,1,82.5000025177003,0|2,3:0|0:0,0:0:0:0:
158,103,33117,1,8,0:0:0:0:
332,2,33342,5,2,3:2:0:0:
340,29,33455,1,0,3:0:0:0:
348,56,33568,2,0,P|299:83|247:177,1,165.000005035401,2|8,3:2|0:0,0:0:0:0:
365,299,34244,2,0,P|401:276|445:263,1,82.5000025177003,2|0,0:0|3:0,0:0:0:0:
202,257,34696,1,2,0:0:0:0:
284,316,34921,1,8,0:0:0:0:
122,315,35147,6,0,P|101:309|63:289,2,41.2500012588501,2|0|0,0:0|0:0|3:2,0:0:0:0:
228,242,35598,1,2,0:0:0:0:
84,116,35823,2,0,L|106:199,1,82.5000025177003,8|2,0:0|0:0,0:0:0:0:
323,137,36274,5,0,3:0:0:0:
392,78,36500,1,2,0:0:0:0:
305,48,36726,1,8,0:0:0:0:
236,107,36952,5,2,0:0:0:0:
236,107,37064,1,0,0:0:0:0:
236,107,37177,1,0,3:2:0:0:
303,286,37402,1,2,0:0:0:0:
236,107,37628,2,0,P|199:120|156:132,1,82.5000025177003,8|2,0:0|0:0,0:0:0:0:
403,191,38079,2,0,P|440:178|483:166,1,82.5000025177003,0|2,3:0|0:0,0:0:0:0:
409,80,38530,1,8,0:0:0:0:
512,340,38756,5,2,0:0:0:0:
475,271,38981,2,0,P|423:285|385:350,1,123.75000377655,2|2,3:2|0:0,0:0:0:0:
323,281,39432,2,0,L|233:309,1,82.5000025177003,8|2,0:0|0:0,0:0:0:0:
82,235,39883,5,0,3:0:0:0:
62,309,40109,1,2,0:0:0:0:
183,170,40335,5,8,0:0:0:0:
222,287,40560,1,2,0:0:0:0:
69,127,40786,5,10,3:2:0:0:
80,83,40899,1,8,0:0:0:0:
90,39,41011,1,8,0:0:0:0:
90,39,41237,1,8,0:0:0:0:
0,235,41462,2,0,P|74:254|113:337,1,165.000005035401,10|10,3:2|0:0,0:0:0:0:
102,348,42026,1,2,0:0:0:0:
102,348,42139,1,8,0:0:0:0:
304,384,42365,1,2,3:2:0:0:
482,260,42703,5,8,0:0:0:0:
482,260,42816,1,0,3:0:0:0:
290,310,43041,1,0,3:0:0:0:
98,225,43267,6,0,P|108:180|115:129,1,82.5000025177003,8|0,0:0|3:0,0:0:0:0:
180,312,43718,1,8,0:0:0:0:
413,122,43944,2,0,L|329:139,1,82.5000025177003,4|8,3:2|0:0,0:0:0:0:
275,83,44282,5,8,0:0:0:0:
283,64,44395,1,0,3:2:0:0:
239,242,44620,2,0,P|304:275|341:373,2,165.000005035401,0|4|2,3:0|3:2|0:0,0:0:0:0:
132,295,45635,2,0,L|125:318,1,20.6250006294251,2|2,0:0|0:0,0:0:0:0:
114,300,45748,2,0,P|108:256|98:211,1,82.5000025177003,8|2,0:0|0:0,0:0:0:0:
205,131,46199,5,0,3:0:0:0:
15,68,46425,2,0,B|114:62|73:16|172:15,2,165.000005035401,0|4|2,3:0|3:2|0:0,0:0:0:0:
15,68,47440,2,0,L|29:27,1,41.2500012588501,2|0,0:0|3:0,0:0:0:0:
228,151,47778,2,0,L|241:190,1,41.2500012588501,2|0,0:0|0:0,0:0:0:0:
193,255,48004,5,4,3:2:0:0:
355,357,48229,2,0,P|435:352|463:276,2,165.000005035401,0|4|2,3:0|3:2|0:0,0:0:0:0:
337,346,49244,2,0,L|348:304,1,41.2500012588501,2|0,0:0|3:0,0:0:0:0:
417,141,49583,1,0,3:0:0:0:
428,162,49696,1,0,3:0:0:0:
439,183,49808,5,4,3:2:0:0:
184,302,50034,1,0,3:0:0:0:
195,282,50259,1,2,0:0:0:0:
439,183,50485,6,0,P|346:170|266:156,1,165.000005035401,4|0,3:2|0:0,0:0:0:0:
218,96,51049,1,2,0:0:0:0:
212,85,51162,2,0,L|221:58,2,20.6250006294251,0|0|0,3:0|0:0|0:0,0:0:0:0:
152,26,51387,2,0,L|145:6,2,20.6250006294251,0|0|0,3:0|0:0|0:0,0:0:0:0:
134,104,51613,6,0,P|92:119|49:127,1,82.5000025177003,4|2,3:2|0:0,0:0:0:0:
211,246,52064,1,8,0:0:0:0:
57,313,52290,1,2,3:2:0:0:
57,313,52402,1,0,3:0:0:0:
57,313,52515,2,0,L|87:234,1,82.5000025177003,0|2,3:0|0:0,0:0:0:0:
268,114,52966,1,8,0:0:0:0:
125,27,53192,1,2,0:0:0:0:
268,114,53417,6,0,P|307:111|348:97,1,82.5000025177003,0|2,3:0|0:0,0:0:0:0:
458,298,53868,2,0,P|461:257|474:219,1,82.5000025177003,8|2,0:0|0:0,0:0:0:0:
474,219,54207,1,0,3:0:0:0:
474,219,54320,1,0,3:0:0:0:
292,336,54545,1,2,0:0:0:0:
210,196,54771,2,0,P|251:199|289:212,1,82.5000025177003,8|0,0:0|0:0,0:0:0:0:
290,213,55109,2,0,L|279:275,1,41.2500012588501,2|4,0:0|3:2,0:0:0:0:
29,384,55673,5,8,0:0:0:0:
51,313,55899,1,2,0:0:0:0:
73,242,56124,1,8,3:2:0:0:
225,163,56350,2,0,L|305:181,2,82.5000025177003,2|8|2,0:0|0:0|0:0,0:0:0:0:
176,96,56914,5,2,0:0:0:0:
189,59,57026,1,10,3:2:0:0:
371,273,57252,2,0,L|236:309,1,123.75000377655,8|0,3:2|0:0,0:0:0:0:
212,379,57703,2,0,B|193:274|265:294|241:187,1,194.999991073609,12|0,3:2|3:0,0:0:0:0:
164,36,58380,1,8,3:2:0:0:
242,192,58605,5,4,3:2:0:0:
242,192,58718,2,0,P|318:183|343:123,1,140.625005364418,2|0,3:2|0:2,0:0:0:0:
347,105,59056,6,0,P|330:83|336:111,1,75,8|0,3:2|0:0,0:0:0:0:
228,176,59282,6,0,P|201:168|226:191,1,89.9999972534181,8|0,3:2|0:0,0:0:0:0:
162,326,59508,6,0,P|135:348|175:341,1,104.999996795654,8|0,3:2|0:0,0:0:0:0:
181,328,59733,1,8,3:2:0:0:
57,38,60184,2,0,L|34:51,4,18.75,2|2|2|2|2,0:0|0:0|0:0|0:0|0:0,0:0:0:0:
136,70,60523,5,2,0:0:0:0:
136,70,60635,2,0,B|251:48|211:111|332:89,1,194.999991073609,4|8,3:2|0:0,0:0:0:0:
508,173,61312,2,0,P|484:128|474:78,1,97.4999955368044,2|0,0:0|3:0,0:0:0:0:
266,208,61763,1,2,0:0:0:0:
351,286,61989,2,0,P|340:333|317:376,1,97.4999955368044,8|2,0:0|0:0,0:0:0:0:
266,208,62440,5,0,3:0:0:0:
404,119,62665,1,2,0:0:0:0:
512,289,62891,5,8,0:0:0:0:
512,289,63004,1,2,0:0:0:0:
512,289,63117,1,2,0:0:0:0:
374,200,63342,1,0,3:0:0:0:
200,326,63568,1,2,0:0:0:0:
89,225,63793,2,0,P|92:179|112:126,1,97.4999955368044,8|2,0:0|0:0,0:0:0:0:
222,43,64132,5,2,0:0:0:0:
222,43,64244,2,0,P|150:44|90:160,1,194.999991073609,4|8,3:2|0:0,0:0:0:0:
177,357,64921,2,0,L|82:324,1,97.4999955368044,2|0,0:0|3:0,0:0:0:0:
84,325,65259,5,0,0:0:0:0:
84,325,65372,1,2,0:0:0:0:
295,244,65598,1,8,0:0:0:0:
111,109,65823,1,2,0:0:0:0:
169,239,66049,5,0,3:0:0:0:
91,212,66274,5,2,0:0:0:0:
227,182,66500,1,8,0:0:0:0:
184,314,66726,1,2,0:0:0:0:
169,239,66951,5,0,3:0:0:0:
169,239,67064,1,2,0:2:0:0:
169,239,67177,1,2,0:2:0:0:
280,377,67402,2,0,P|326:361|374:360,1,97.4999955368044,8|2,0:0|0:0,0:0:0:0:
472,383,67741,5,2,0:0:0:0:
472,383,67853,2,0,B|447:305|496:317|466:231,1,146.249993305207,4|0,3:2|0:0,0:0:0:0:
469,240,68305,1,8,0:0:0:0:
322,79,68530,2,0,P|303:125|270:162,1,97.4999955368044,2|0,0:0|3:0,0:0:0:0:
508,82,68981,2,0,P|476:45|457:0,1,97.4999955368044,2|8,0:0|0:0,0:0:0:0:
343,233,69432,1,2,0:0:0:0:
407,126,69658,5,0,3:2:0:0:
417,126,69771,1,2,0:0:0:0:
414,136,69883,1,2,0:0:0:0:
225,242,70109,1,8,0:0:0:0:
427,352,70335,1,2,0:0:0:0:
225,242,70560,1,0,3:0:0:0:
95,314,70786,1,2,0:0:0:0:
22,263,71011,2,0,P|22:215|38:169,1,97.4999955368044,8|2,0:0|0:0,0:0:0:0:
101,121,71350,5,2,0:0:0:0:
110,126,71462,1,0,3:0:0:0:
9,69,71688,1,8,0:0:0:0:
119,298,71914,1,8,0:0:0:0:
305,183,72139,1,0,3:0:0:0:
305,183,72252,1,0,3:0:0:0:
305,183,72365,1,0,3:0:0:0:
149,109,72590,6,0,B|136:67|136:67|146:5,1,97.4999955368044,8|0,0:0|3:0,0:0:0:0:
0,230,73041,2,0,P|71:248|123:358,1,194.999991073609,4|0,3:2|3:0,0:0:0:0:
349,228,73718,5,8,0:0:0:0:
176,141,73944,1,2,0:0:0:0:
176,141,74056,1,0,3:0:0:0:
366,74,74282,1,0,3:0:0:0:
366,74,74395,1,2,0:0:0:0:
150,16,74620,2,0,P|103:24|59:50,1,97.4999955368044,8|2,0:0|0:0,0:0:0:0:
62,131,74959,5,2,0:0:0:0:
77,141,75071,2,0,B|193:143|147:194|254:209,1,194.999991073609,4|8,3:2|0:0,0:0:0:0:
421,284,75748,2,0,L|375:301,1,48.7499977684022,2|0,0:0|0:0,0:0:0:0:
276,384,75974,2,0,B|273:343|273:343|289:286,1,97.4999955368044,0|2,3:0|0:0,0:0:0:0:
461,157,76425,1,8,0:0:0:0:
360,71,76650,2,0,P|312:88|261:102,2,97.4999955368044,2|0|2,0:2|3:0|0:0,0:0:0:0:
180,70,77327,5,8,0:0:0:0:
381,209,77553,1,2,0:0:0:0:
141,257,77778,1,0,3:0:0:0:
131,299,77891,1,2,0:0:0:0:
122,342,78004,1,2,0:0:0:0:
259,210,78229,5,8,0:0:0:0:
144,173,78455,2,0,P|163:158|191:151,1,48.7499977684022,2|2,0:0|0:0,0:0:0:0:
348,295,78680,6,0,P|396:345|483:350,1,146.249993305207,4|0,3:2|0:0,0:0:0:0:
485,345,79132,1,8,0:0:0:0:
291,207,79357,1,2,0:0:0:0:
291,207,79470,1,0,3:0:0:0:
478,110,79696,1,0,3:0:0:0:
478,110,79808,1,0,3:0:0:0:
284,34,80034,5,8,0:0:0:0:
442,211,80259,2,0,B|409:113|485:124|454:18,1,194.999991073609,4|2,3:2|0:0,0:0:0:0:
247,143,80936,1,8,0:0:0:0:
480,297,81162,1,2,0:0:0:0:
379,69,81387,1,0,3:0:0:0:
303,266,81613,1,2,0:0:0:0:
397,179,81838,5,8,0:0:0:0:
179,299,82064,5,2,3:2:0:0:
180,323,82177,1,0,3:2:0:0:
191,344,82290,2,0,P|254:351|275:234,1,194.999991073609,4|8,3:2|0:0,0:0:0:0:
165,111,82966,1,2,0:0:0:0:
165,111,83079,1,2,0:0:0:0:
165,111,83192,2,0,P|123:129|67:146,1,97.4999955368044,0|2,3:0|0:0,0:0:0:0:
310,136,83643,2,0,B|334:93|334:93|340:40,1,97.4999955368044,8|2,0:0|0:0,0:0:0:0:
339,45,83981,5,2,0:0:0:0:
339,45,84094,1,0,3:0:0:0:
483,204,84320,1,2,0:0:0:0:
382,294,84545,2,0,P|333:301|286:323,1,97.4999955368044,8|2,0:0|0:0,0:0:0:0:
151,384,84996,1,0,3:0:0:0:
146,366,85109,1,2,0:0:0:0:
148,346,85222,1,2,0:0:0:0:
157,328,85335,1,2,0:0:0:0:
171,315,85447,1,8,0:0:0:0:
277,302,85673,2,0,P|272:278|260:249,1,48.7499977684022,2|0,0:0|0:0,0:0:0:0:
164,211,85899,5,0,3:2:0:0:
267,333,86124,5,4,3:2:0:0:
282,96,86350,1,8,0:0:0:0:
267,333,86575,2,0,P|315:340|361:354,1,97.4999955368044,2|0,0:0|3:0,0:0:0:0:
282,96,87026,2,0,P|233:88|187:74,1,97.4999955368044,2|8,0:0|0:0,0:0:0:0:
96,22,87477,6,0,L|106:65,2,37.5,2|0|0,0:0|0:0|3:0,0:0:0:0:
