osu file format v14

[General]
AudioFilename: audio.mp3
AudioLeadIn: 0
PreviewTime: 59966
Countdown: 0
SampleSet: Soft
StackLeniency: 0.7
Mode: 0
LetterboxInBreaks: 0
WidescreenStoryboard: 1

[Editor]
DistanceSpacing: 0.4
BeatDivisor: 4
GridSize: 16
TimelineZoom: 2

[Metadata]
Title:lull ~Soshite Bokura wa~ (TV Size)
TitleUnicode:lull 〜そして僕らは〜 (TV Size)
Artist:Ray
ArtistUnicode:Ray
Creator:tomadoi
Version:hard
Source:Nagi no Asukara
Tags:a lull in the sea anime japanese shiinoha kotone nagi-asu 凪のあすから
BeatmapID:2310594
BeatmapSetID:1105258

[Difficulty]
HPDrainRate:5
CircleSize:3.5
OverallDifficulty:6
ApproachRate:7.5
SliderMultiplier:1.4
SliderTickRate:1

[Events]
//Background and Video events
0,0,"w.jpg",0,0
//Break Periods
//Storyboard Layer 0 (Background)
//Storyboard Layer 1 (Fail)
//Storyboard Layer 2 (Pass)
//Storyboard Layer 3 (Foreground)
//Storyboard Layer 4 (Overlay)
//Storyboard Sound Samples

[TimingPoints]
1087,451.127819548872,4,2,1,56,1,0
8305,-90.9090909090909,4,2,1,56,0,0
15523,-100,4,2,1,56,0,0
29959,-90.9090909090909,4,2,1,56,0,0
57590,-90.9090909090909,4,2,1,5,0,0
57703,-90.9090909090909,4,2,1,56,0,0
59169,-90.9090909090909,4,2,1,5,0,0
59282,-90.9090909090909,4,2,1,56,0,0
59395,-90.9090909090909,4,2,1,5,0,0
59508,-90.9090909090909,4,2,1,56,0,0
59620,-90.9090909090909,4,2,1,5,0,0
59733,-90.9090909090909,4,2,1,56,0,0
60184,-111.111111111111,4,2,1,56,0,0
60635,-83.3333333333333,4,2,1,56,0,0

[Colours]
Combo1 : 255,94,55
Combo2 : 173,255,95
Combo3 : 17,254,176
Combo4 : 255,88,100

[HitObjects]
109,55,1087,6,0,P|94:122|74:191,1,140,4|0,3:2|3:0,0:0:0:0:
145,253,1763,2,0,P|180:247|213:229,1,70,2|0,0:0|3:0,0:0:0:0:
320,121,2214,2,0,L|386:144,2,70,2|0|2,0:0|3:0|0:0,0:0:0:0:
262,33,2891,2,0,P|224:58|226:170,2,140,0|0|2,3:0|3:0|3:2,0:0:0:0:
262,33,4244,1,2,3:2:0:0:
457,251,4696,6,0,P|416:264|358:343,1,140,2|0,3:2|3:0,0:0:0:0:
283,384,5372,2,0,L|213:370,1,70,2|0,0:0|3:0,0:0:0:0:
129,277,5823,2,0,B|131:246|131:246|152:206,1,70,2|0,0:0|3:0,0:0:0:0:
261,158,6274,2,0,B|279:192|279:192|281:223,1,70,2|0,0:0|3:0,0:0:0:0:
156,126,6726,5,2,0:0:0:0:
236,46,6951,1,0,3:0:0:0:
348,86,7177,1,2,0:0:0:0:
236,46,7402,2,0,B|161:21|178:57|87:49,1,140,0|2,3:0|3:2,0:0:0:0:
11,147,8079,5,2,0:0:0:0:
11,147,8192,1,2,0:0:0:0:
11,147,8305,2,0,P|26:178|37:233,1,77.0000023498536,4|0,3:2|0:0,0:0:0:0:
122,283,8756,2,0,P|130:245|146:210,1,77.0000023498536,8|0,0:0|0:0,0:0:0:0:
260,143,9207,2,0,P|325:147|348:232,1,154.000004699707,0|8,3:0|0:0,0:0:0:0:
283,290,9883,1,0,0:0:0:0:
421,372,10109,6,0,P|397:345|379:303,1,77.0000023498536,0|2,3:2|0:2,0:0:0:0:
454,218,10560,2,0,P|478:191|496:149,1,77.0000023498536,8|0,0:0|0:0,0:0:0:0:
475,120,10899,1,0,0:0:0:0:
475,120,11011,2,0,P|434:108|383:12,1,154.000004699707,0|8,3:0|0:0,0:0:0:0:
289,74,11688,2,0,L|300:115,1,38.5000011749268,2|0,0:0|0:0,0:0:0:0:
242,174,11914,6,0,L|166:193,2,77.0000023498536,0|2|8,3:2|0:0|0:0,0:0:0:0:
334,257,12590,1,2,0:0:0:0:
217,344,12816,2,0,P|235:309|242:268,1,77.0000023498536,0|2,3:0|0:0,0:0:0:0:
241,272,13154,1,0,0:0:0:0:
241,272,13267,1,8,0:0:0:0:
119,167,13493,6,0,B|66:180|66:180|18:269,1,154.000004699707,4|0,3:2|3:0,0:0:0:0:
213,171,14169,2,0,L|236:94,1,77.0000023498536,8|0,0:0|3:0,0:0:0:0:
222,66,14508,1,0,3:0:0:0:
222,66,14620,1,0,3:0:0:0:
313,192,14846,2,0,L|331:273,2,77.0000023498536,4|8|0,3:2|0:0|3:0,0:0:0:0:
328,156,15410,5,0,3:0:0:0:
328,156,15523,2,0,B|421:142|391:187|483:169,1,140,4|0,3:2|3:0,0:0:0:0:
239,266,16425,2,0,B|146:252|176:297|84:279,1,140,0|0,3:0|3:0,0:0:0:0:
7,216,17102,1,2,0:0:0:0:
84,176,17327,2,0,P|94:146|94:107,2,70,0|0|0,3:0|0:0|3:0,0:0:0:0:
7,216,18004,1,2,0:0:0:0:
102,281,18229,2,0,P|155:299|187:379,1,140,0|0,3:0|3:0,0:0:0:0:
280,274,18906,5,2,0:0:0:0:
274,246,19019,1,0,0:0:0:0:
267,218,19132,2,0,P|320:200|352:120,1,140,2|0,3:2|3:0,0:0:0:0:
344,40,19808,2,0,L|409:66,1,70,2|0,0:0|3:0,0:0:0:0:
260,119,20259,1,2,0:0:0:0:
260,119,20485,2,0,L|195:145,1,70,0|2,3:0|0:0,0:0:0:0:
68,186,20936,6,0,B|47:106|95:126|73:43,2,140,0|0|0,3:2|3:0|3:0,0:0:0:0:
142,274,22064,1,2,0:0:0:0:
75,317,22290,2,0,P|42:331|9:353,1,70,0|2,3:0|0:0,0:0:0:0:
224,230,22741,6,0,P|269:238|359:285,1,140,2|0,3:2|3:0,0:0:0:0:
461,340,23417,1,2,0:0:0:0:
461,340,23643,2,0,L|477:270,1,70,0|2,3:0|0:0,0:0:0:0:
370,262,24094,2,0,L|354:192,1,70,0|2,3:0|0:0,0:0:0:0:
347,62,24545,6,0,B|404:69|404:69|485:116,2,140,0|0|0,3:0|3:2|3:0,0:0:0:0:
269,122,25673,1,2,0:0:0:0:
286,2,25899,1,0,3:0:0:0:
205,52,26124,5,2,0:0:0:0:
205,52,26237,1,0,0:0:0:0:
205,52,26350,2,0,B|130:50|152:72|61:76,1,140,2|0,3:2|3:0,0:0:0:0:
303,190,27252,2,0,B|378:188|356:210|447:214,1,140,0|0,3:0|3:0,0:0:0:0:
366,305,27929,1,2,0:0:0:0:
475,367,28154,2,0,P|462:330|452:289,1,70,0|2,3:0|3:2,0:0:0:0:
512,166,28605,1,8,0:0:0:0:
448,103,28831,2,0,L|456:67,2,35,0|0|2,3:2|3:0|3:2,0:0:0:0:
341,175,29282,1,8,0:0:0:0:
286,105,29508,6,0,L|281:83,8,17.5,8|0|0|0|0|0|0|0|4,3:2|0:0|0:0|0:0|0:0|0:0|0:0|0:0|3:2,0:0:0:0:
125,57,30410,2,0,P|162:47|195:28,1,77.0000023498536,8|2,0:0|0:0,0:0:0:0:
171,184,30861,1,0,3:0:0:0:
171,184,31086,1,2,0:0:0:0:
87,214,31312,2,0,P|53:195|16:185,1,77.0000023498536,8|2,0:0|0:0,0:0:0:0:
167,349,31763,6,0,P|225:355|248:274,1,154.000004699707,0|8,3:0|0:0,0:0:0:0:
151,144,32440,1,2,0:0:0:0:
213,92,32665,2,0,P|271:86|294:167,1,154.000004699707,0|8,3:0|0:0,0:0:0:0:
383,267,33342,2,0,L|420:255,1,38.5000011749268,2|0,3:2|3:0,0:0:0:0:
479,190,33568,6,0,P|463:246|447:344,1,154.000004699707,2|8,3:2|0:0,0:0:0:0:
350,187,34244,2,0,L|331:109,1,77.0000023498536,2|0,0:0|3:0,0:0:0:0:
248,232,34696,1,2,0:0:0:0:
220,312,34921,1,8,0:0:0:0:
302,297,35147,1,2,0:0:0:0:
164,252,35372,6,0,P|116:255|56:340,1,154.000004699707,0|8,3:2|0:0,0:0:0:0:
56,334,36049,1,2,0:0:0:0:
14,216,36274,2,0,P|39:187|57:153,1,77.0000023498536,0|2,3:0|0:0,0:0:0:0:
141,110,36726,2,0,L|120:27,1,77.0000023498536,8|2,0:0|0:0,0:0:0:0:
154,7,37064,5,0,0:0:0:0:
154,7,37177,2,0,B|252:5|216:39|312:37,1,154.000004699707,0|8,3:2|0:0,0:0:0:0:
512,181,38079,2,0,B|414:179|450:213|354:211,1,154.000004699707,0|8,3:0|0:0,0:0:0:0:
318,351,38756,1,2,0:0:0:0:
253,300,38981,6,0,L|232:186,1,115.50000352478,2|2,3:2|0:0,0:0:0:0:
218,172,39432,2,0,P|183:158|152:128,1,77.0000023498536,8|2,0:0|0:0,0:0:0:0:
40,257,39883,2,0,P|67:230|103:216,1,77.0000023498536,0|2,3:0|0:0,0:0:0:0:
45,104,40335,1,8,0:0:0:0:
45,104,40560,1,2,0:0:0:0:
131,242,40786,6,0,L|122:285,2,38.5000011749268,10|8|8,3:2|0:0|0:0,0:0:0:0:
249,99,41237,2,0,L|230:19,1,77.0000023498536,8|10,0:0|3:2,0:0:0:0:
416,203,41914,1,10,0:0:0:0:
336,234,42139,2,0,L|318:308,1,77.0000023498536,8|2,0:0|3:2,0:0:0:0:
164,360,42703,5,8,0:0:0:0:
164,360,42816,1,0,3:0:0:0:
230,289,43041,1,0,3:0:0:0:
82,262,43267,2,0,P|101:193|113:106,1,154.000004699707,8|8,0:0|0:0,0:0:0:0:
68,27,43944,1,4,3:2:0:0:
218,140,44169,5,8,0:0:0:0:
218,140,44282,1,8,0:0:0:0:
218,140,44395,2,0,L|233:223,1,77.0000023498536,0|0,3:2|3:0,0:0:0:0:
512,123,45071,2,0,P|486:81|382:78,1,154.000004699707,4|2,3:2|0:0,0:0:0:0:
375,90,45635,1,2,0:0:0:0:
375,90,45748,2,0,P|347:112|304:117,1,77.0000023498536,8|2,0:0|0:0,0:0:0:0:
135,211,46199,5,0,3:0:0:0:
192,96,46425,2,0,P|206:125|222:170,1,77.0000023498536,0|0,3:0|0:0,0:0:0:0:
130,318,46876,2,0,P|65:322|37:238,1,154.000004699707,4|2,3:2|0:0,0:0:0:0:
32,249,47440,1,0,0:0:0:0:
32,249,47553,1,0,3:0:0:0:
237,283,47778,2,0,P|255:290|282:303,1,38.5000011749268,2|0,0:0|0:0,0:0:0:0:
340,353,48004,5,4,3:2:0:0:
340,353,48229,2,0,B|429:348|394:306|486:302,2,154.000004699707,0|4|2,3:0|3:2|0:0,0:0:0:0:
313,369,49244,1,2,0:0:0:0:
313,369,49357,1,0,3:0:0:0:
394,236,49583,5,0,3:0:0:0:
394,236,49696,1,0,3:0:0:0:
394,236,49808,2,0,P|381:197|375:157,2,77.0000023498536,4|0|2,3:2|3:0|0:0,0:0:0:0:
226,116,50485,2,0,P|252:70|352:74,1,154.000004699707,4|0,3:2|0:0,0:0:0:0:
369,86,51049,1,2,0:0:0:0:
382,78,51162,2,0,L|389:45,8,19.2500005874634,0|0|0|0|0|0|0|0|4,3:0|0:0|0:0|0:0|3:0|0:0|0:0|0:0|3:2,0:0:0:0:
274,192,51838,5,2,0:0:0:0:
201,122,52064,2,0,P|165:115|126:101,1,77.0000023498536,8|2,0:0|3:2,0:0:0:0:
18,222,52515,1,0,3:0:0:0:
18,222,52741,1,2,0:0:0:0:
137,293,52966,1,8,0:0:0:0:
111,201,53192,1,2,0:0:0:0:
42,310,53417,6,0,P|54:351|59:384,1,77.0000023498536,0|2,3:0|0:0,0:0:0:0:
185,283,53868,2,0,P|190:244|202:208,1,77.0000023498536,8|2,0:0|0:0,0:0:0:0:
281,141,54320,2,0,B|369:124|347:169|445:146,1,154.000004699707,0|8,3:0|0:0,0:0:0:0:
500,57,54996,1,0,0:0:0:0:
492,35,55109,1,2,0:0:0:0:
474,19,55222,6,0,P|445:42|402:57,1,77.0000023498536,4|0,3:2|0:0,0:0:0:0:
444,168,55673,2,0,P|479:181|510:204,2,77.0000023498536,8|2|8,0:0|0:0|3:2,0:0:0:0:
307,267,56350,1,2,0:0:0:0:
425,335,56575,2,0,L|405:258,1,77.0000023498536,8|2,0:0|0:0,0:0:0:0:
389,243,56914,5,2,0:0:0:0:
389,243,57026,1,10,3:2:0:0:
288,351,57252,2,0,B|198:333|229:389|134:372,1,154.000004699707,8|12,3:2|3:2,0:0:0:0:
11,289,58154,5,0,3:0:0:0:
127,240,58380,1,8,3:2:0:0:
30,185,58605,1,4,3:2:0:0:
30,185,58718,2,0,B|46:143|46:143|34:50,1,115.50000352478,2|8,3:2|3:2,0:0:0:0:
122,38,59282,1,8,3:2:0:0:
223,93,59508,1,8,3:2:0:0:
364,32,59733,1,8,3:2:0:0:
346,24,60184,2,0,P|319:47|317:103,1,94.499997116089,2|2,0:0|0:0,0:0:0:0:
271,180,60635,6,0,P|329:192|383:289,1,167.999994873047,4|8,3:2|0:0,0:0:0:0:
317,351,61312,1,2,0:0:0:0:
317,351,61425,1,0,0:0:0:0:
317,351,61538,2,0,L|239:320,1,83.9999974365235,0|2,3:0|0:0,0:0:0:0:
390,290,61989,2,0,L|468:259,1,83.9999974365235,8|2,0:0|0:0,0:0:0:0:
318,145,62440,6,0,P|312:184|296:231,2,83.9999974365235,0|2|8,3:0|0:0|0:0,0:0:0:0:
391,87,63117,1,2,0:0:0:0:
251,12,63342,2,0,P|217:30|170:44,1,83.9999974365235,0|2,3:0|0:0,0:0:0:0:
126,157,63793,2,0,P|92:139|45:125,1,83.9999974365235,8|2,0:0|0:0,0:0:0:0:
23,148,64132,5,2,0:0:0:0:
23,148,64244,2,0,B|42:212|42:212|30:317,1,167.999994873047,4|8,3:2|0:0,0:0:0:0:
135,370,64921,2,0,L|216:343,1,83.9999974365235,2|0,0:0|3:0,0:0:0:0:
340,248,65372,1,2,0:0:0:0:
267,192,65598,1,8,0:0:0:0:
375,92,65823,5,2,0:0:0:0:
375,92,66049,2,0,P|416:94|467:200,1,167.999994873047,0|8,3:0|0:0,0:0:0:0:
426,310,66726,2,0,P|433:331|439:356,2,41.9999987182618,2|0|0,0:0|0:0|3:0,0:0:0:0:
327,262,67177,1,2,0:2:0:0:
210,318,67402,2,0,P|218:276|238:235,1,83.9999974365235,8|2,0:0|0:0,0:0:0:0:
185,82,67853,6,0,B|129:101|129:101|105:140|105:140|29:175,1,167.999994873047,4|8,3:2|0:0,0:0:0:0:
0,239,68530,2,0,B|14:267|14:267|24:326,1,83.9999974365235,2|0,0:0|3:0,0:0:0:0:
149,381,68981,2,0,L|236:364,1,83.9999974365235,2|8,0:0|0:0,0:0:0:0:
275,281,69432,1,2,0:0:0:0:
375,377,69658,6,0,P|415:339|400:235,2,167.999994873047,0|8|0,3:2|0:0|3:0,0:0:0:0:
255,272,70786,1,2,0:0:0:0:
311,202,71011,2,0,P|316:165|329:119,1,83.9999974365235,8|2,0:0|0:0,0:0:0:0:
391,0,71462,5,0,3:0:0:0:
266,50,71688,1,8,0:0:0:0:
266,50,71914,1,8,0:0:0:0:
411,100,72139,1,0,3:0:0:0:
411,100,72252,2,0,P|432:144|426:225,1,125.999996154785,0|8,3:0|0:0,0:0:0:0:
353,270,72816,1,0,3:0:0:0:
467,366,73041,6,0,B|368:343|401:390|287:373,1,167.999994873047,4|0,3:2|3:0,0:0:0:0:
205,311,73718,2,0,L|239:232,1,83.9999974365235,8|2,0:0|0:0,0:0:0:0:
66,144,74169,2,0,L|99:221,1,83.9999974365235,2|2,3:2|0:0,0:0:0:0:
209,128,74620,1,8,0:0:0:0:
209,128,74733,1,0,0:0:0:0:
209,128,74846,1,2,0:0:0:0:
80,14,75071,6,0,P|48:47|32:172,1,167.999994873047,4|8,3:2|0:0,0:0:0:0:
140,251,75748,1,2,0:0:0:0:
3,323,75974,2,0,P|27:291|46:252,1,83.9999974365235,0|2,3:0|0:0,0:0:0:0:
20,174,76425,1,8,0:0:0:0:
147,344,76650,6,0,B|247:332|206:291|303:281,1,167.999994873047,2|2,0:2|0:0,0:0:0:0:
421,249,77327,2,0,P|409:285|390:328,1,83.9999974365235,8|2,0:0|0:0,0:0:0:0:
317,197,77778,2,0,P|299:158|286:118,1,83.9999974365235,0|2,3:0|0:0,0:0:0:0:
307,82,78117,1,0,0:0:0:0:
307,82,78229,2,0,L|396:106,1,83.9999974365235,8|2,0:0|0:0,0:0:0:0:
207,189,78680,6,0,P|167:165|169:42,1,167.999994873047,4|8,3:2|0:0,0:0:0:0:
46,218,79357,1,2,0:0:0:0:
113,278,79583,2,0,L|96:362,1,83.9999974365235,0|2,3:0|0:0,0:0:0:0:
273,297,80034,1,8,0:0:0:0:
198,233,80259,6,0,P|237:181|337:195,1,167.999994873047,4|2,3:2|0:0,0:0:0:0:
409,278,80936,2,0,P|391:313|375:364,1,83.9999974365235,8|2,0:0|0:0,0:0:0:0:
504,210,81387,2,0,P|486:174|470:124,1,83.9999974365235,0|2,3:0|0:0,0:0:0:0:
346,63,81838,1,8,0:0:0:0:
448,13,82064,6,0,P|444:35|436:55,2,41.9999987182618,2|0|4,3:2|3:2|3:2,0:0:0:0:
245,182,82741,2,0,P|227:142|222:96,1,83.9999974365235,8|2,0:0|0:0,0:0:0:0:
63,45,83192,1,0,3:0:0:0:
153,6,83417,1,2,0:0:0:0:
108,164,83643,1,8,0:0:0:0:
14,134,83868,6,0,B|-20:222|42:211|0:307,1,167.999994873047,2|2,0:0|0:0,0:0:0:0:
102,361,84545,1,8,0:0:0:0:
208,297,84771,1,2,0:0:0:0:
201,272,84883,1,0,0:0:0:0:
195,247,84996,2,0,P|232:235|279:232,1,83.9999974365235,0|2,3:0|0:0,0:0:0:0:
439,304,85447,1,8,0:0:0:0:
352,358,85673,6,0,B|342:315|342:315|370:246|370:246|350:185,1,167.999994873047,2|4,0:0|3:2,0:0:0:0:
446,153,86350,1,8,0:0:0:0:
295,71,86575,2,0,L|216:101,1,83.9999974365235,2|0,0:0|3:0,0:0:0:0:
391,170,87026,2,0,L|470:200,1,83.9999974365235,2|8,0:0|0:0,0:0:0:0:
306,279,87477,2,0,L|268:295,2,41.9999987182618,2|0|0,0:0|0:0|3:0,0:0:0:0:
