osu file format v14

[General]
AudioFilename: audio.mp3
AudioLeadIn: 0
PreviewTime: 59966
Countdown: 0
SampleSet: Soft
StackLeniency: 0.7
Mode: 0
LetterboxInBreaks: 0
WidescreenStoryboard: 1

[Editor]
DistanceSpacing: 1.2
BeatDivisor: 4
GridSize: 16
TimelineZoom: 2

[Metadata]
Title:lull ~Soshite Bokura wa~ (TV Size)
TitleUnicode:lull 〜そして僕らは〜 (TV Size)
Artist:Ray
ArtistUnicode:Ray
Creator:tomadoi
Version:normal
Source:Nagi no Asukara
Tags:a lull in the sea anime japanese shiinoha kotone nagi-asu 凪のあすから
BeatmapID:2310595
BeatmapSetID:1105258

[Difficulty]
HPDrainRate:4
CircleSize:3.3
OverallDifficulty:5
ApproachRate:5.5
SliderMultiplier:1.3
SliderTickRate:1

[Events]
//Background and Video events
0,0,"w.jpg",0,0
//Break Periods
//Storyboard Layer 0 (Background)
//Storyboard Layer 1 (Fail)
//Storyboard Layer 2 (Pass)
//Storyboard Layer 3 (Foreground)
//Storyboard Layer 4 (Overlay)
//Storyboard Sound Samples

[TimingPoints]
1087,451.127819548872,4,2,1,56,1,0
57590,-100,4,2,1,5,0,0
57703,-100,4,2,1,56,0,0
59169,-100,4,2,1,5,0,0
59282,-100,4,2,1,56,0,0
59395,-100,4,2,1,5,0,0
59508,-100,4,2,1,56,0,0
59620,-100,4,2,1,5,0,0
59733,-100,4,2,1,56,0,0
60635,-83.3333333333333,4,2,1,56,0,0

[Colours]
Combo1 : 255,94,55
Combo2 : 173,255,95
Combo3 : 17,254,176
Combo4 : 255,88,100

[HitObjects]
47,361,1087,6,0,B|35:286|68:305|53:234,1,130,4|0,3:2|3:0,0:0:0:0:
124,94,1989,2,0,P|174:103|210:175,1,130,0|0,3:0|3:0,0:0:0:0:
172,237,2665,1,2,0:0:0:0:
172,237,2891,2,0,B|226:224|226:224|311:251,1,130,0|0,3:0|3:0,0:0:0:0:
445,294,3793,2,0,L|427:229,1,65,2|0,3:2|0:0,0:0:0:0:
471,166,4244,2,0,L|489:101,1,65,2|0,3:2|0:0,0:0:0:0:
436,44,4696,6,0,B|389:37|389:37|344:53|344:53|281:44,1,130,2|0,3:2|3:0,0:0:0:0:
163,102,5598,2,0,L|181:171,1,65,0|2,3:0|0:0,0:0:0:0:
253,203,6049,1,0,3:0:0:0:
253,203,6274,2,0,P|211:207|158:274,1,130,2|2,0:0|0:0,0:0:0:0:
218,321,6951,2,0,P|209:349|203:384,2,65,0|2|0,3:0|0:0|3:0,0:0:0:0:
367,364,7853,6,0,B|450:358|426:385|504:380,1,130,2|4,3:2|3:2,0:0:0:0:
391,262,8756,1,8,0:0:0:0:
511,162,9207,2,0,P|500:134|494:96,1,65,0|2,3:0|0:0,0:0:0:0:
422,69,9658,2,0,L|358:88,1,65,8|0,0:0|0:0,0:0:0:0:
306,144,10109,2,0,B|292:69|338:85|315:9,2,130,0|8|0,3:2|0:0|3:0,0:0:0:0:
171,223,11462,2,0,B|174:246|174:246|190:289,1,65,8|2,0:0|0:0,0:0:0:0:
231,351,11914,6,0,P|288:354|361:327,1,130,0|8,3:2|0:0,0:0:0:0:
403,268,12590,2,0,P|435:312|441:386,2,130,2|2|4,0:0|0:0|3:2,0:0:0:0:
282,161,13944,1,0,3:0:0:0:
282,161,14169,2,0,L|303:96,1,65,8|0,0:0|3:0,0:0:0:0:
375,71,14620,2,0,B|299:73|327:32|245:33,1,130,0|8,3:0|0:0,0:0:0:0:
202,92,15297,1,0,3:0:0:0:
131,48,15523,6,0,P|92:53|32:125,1,130,4|0,3:2|3:0,0:0:0:0:
148,222,16425,2,0,P|187:227|247:299,1,130,0|0,3:0|3:0,0:0:0:0:
309,345,17102,1,2,0:0:0:0:
309,345,17327,2,0,B|233:332|264:373|181:368,1,130,0|0,3:0|3:0,0:0:0:0:
40,309,18229,2,0,B|25:260|25:260|42:173,1,130,0|0,3:0|3:0,0:0:0:0:
19,105,18906,1,2,0:0:0:0:
19,105,19132,6,0,P|43:60|132:59,1,130,2|0,3:2|3:0,0:0:0:0:
230,165,20034,2,0,P|254:210|343:211,1,130,0|0,3:0|3:0,0:0:0:0:
397,184,20711,1,2,0:0:0:0:
397,184,20936,2,0,P|381:126|364:58,2,130,0|0|0,3:2|3:0|3:0,0:0:0:0:
420,266,22064,1,2,0:0:0:0:
420,266,22290,1,0,3:0:0:0:
305,373,22741,6,0,P|276:339|184:335,1,130,2|0,3:2|3:0,0:0:0:0:
109,199,23643,2,0,P|80:233|-12:237,1,130,0|0,3:0|3:0,0:0:0:0:
16,169,24320,1,2,0:0:0:0:
16,169,24545,2,0,P|31:83|38:28,2,130,0|0|0,3:0|3:2|3:0,0:0:0:0:
103,298,25899,1,0,3:0:0:0:
167,254,26124,1,2,0:0:0:0:
215,315,26350,6,0,B|269:323|269:323|357:294,1,130,2|0,3:2|3:0,0:0:0:0:
441,180,27252,2,0,B|399:120|456:116|397:32,1,130,0|0,3:0|3:0,0:0:0:0:
341,21,27929,1,2,0:0:0:0:
341,21,28154,2,0,L|266:34,2,65,0|2|8,3:0|3:2|0:0,0:0:0:0:
475,112,29056,1,2,3:2:0:0:
507,182,29282,1,8,0:0:0:0:
449,234,29508,6,0,B|437:277|437:277|443:316|443:316|427:368,1,130,8|4,3:2|3:2,0:0:0:0:
277,367,30410,1,8,0:0:0:0:
277,367,30635,2,0,P|234:376|175:323,1,130,2|2,0:0|0:0,0:0:0:0:
106,283,31312,2,0,P|93:253|89:220,1,65,8|2,0:0|0:0,0:0:0:0:
95,143,31763,1,0,3:0:0:0:
234,224,32214,1,8,0:0:0:0:
234,224,32440,2,0,B|305:214|288:246|377:234,1,130,2|2,0:0|0:0,0:0:0:0:
413,172,33117,2,0,L|393:85,1,65,8|2,0:0|3:2,0:0:0:0:
351,46,33568,6,0,B|307:69|307:69|223:66,1,130,2|8,3:2|0:0,0:0:0:0:
160,24,34244,2,0,P|197:78|158:138,1,130,2|2,0:0|0:0,0:0:0:0:
102,164,34921,1,8,0:0:0:0:
102,164,35147,2,0,L|123:301,1,130,2|2,0:0|0:0,0:0:0:0:
135,369,35823,1,8,0:0:0:0:
273,304,36274,2,0,P|307:317|336:323,1,65,0|2,3:0|0:0,0:0:0:0:
393,270,36726,1,8,0:0:0:0:
393,270,36951,1,2,0:0:0:0:
338,206,37177,6,0,B|367:150|367:150|445:128,2,130,0|8|0,3:2|0:0|3:0,0:0:0:0:
245,80,38530,1,8,0:0:0:0:
142,197,38981,2,0,B|96:180|96:180|56:192|56:192|-6:173,2,130,2|8|0,3:2|0:0|3:0,0:0:0:0:
258,305,40335,1,8,0:0:0:0:
356,183,40786,6,0,L|409:174,2,32.5,10|8|8,3:2|0:0|0:0,0:0:0:0:
303,124,41237,2,0,L|234:136,1,65,8|10,0:0|3:2,0:0:0:0:
89,180,41914,1,10,0:0:0:0:
75,256,42139,2,0,P|94:295|99:329,1,65,8|2,0:0|3:2,0:0:0:0:
170,345,42590,2,0,P|210:334|295:358,1,130,2|0,0:0|3:0,0:0:0:0:
367,331,43267,1,8,0:0:0:0:
476,219,43718,2,0,P|463:189|455:156,1,65,8|4,0:0|3:2,0:0:0:0:
450,79,44169,1,8,0:0:0:0:
381,39,44395,6,0,P|350:49|316:55,1,65,0|0,3:2|3:0,0:0:0:0:
194,149,45071,2,0,P|155:121|67:114,1,130,4|2,3:2|0:0,0:0:0:0:
29,175,45748,1,8,0:0:0:0:
149,282,46199,5,0,3:0:0:0:
149,282,46425,1,0,3:0:0:0:
267,180,46876,2,0,L|418:196,1,130,4|2,3:2|0:0,0:0:0:0:
444,132,47553,2,0,B|536:124,1,65,0|2,3:0|0:0,0:0:0:0:
499,204,48004,6,0,P|510:239|512:268,1,65,4|0,3:2|3:0,0:0:0:0:
367,327,48680,2,0,B|292:330|321:358|240:358,1,130,4|2,3:2|0:0,0:0:0:0:
173,322,49357,1,0,3:0:0:0:
57,217,49808,2,0,B|69:194|69:194|82:152,1,65,4|0,3:2|3:0,0:0:0:0:
203,60,50485,2,0,B|251:47|251:47|272:24|272:24|326:6,1,130,4|0,3:2|0:0,0:0:0:0:
340,83,51162,6,0,P|351:146|384:202,1,130,0|4,3:0|3:2,0:0:0:0:
487,319,52064,1,8,0:0:0:0:
341,374,52515,2,0,L|279:353,1,65,0|2,3:0|0:0,0:0:0:0:
208,379,52966,1,8,0:0:0:0:
208,379,53192,2,0,P|141:353|74:336,1,130,2|2,0:0|0:0,0:0:0:0:
109,260,53868,1,8,0:0:0:0:
109,260,54094,2,0,B|92:186|129:203|108:119,1,130,2|2,0:0|0:0,0:0:0:0:
168,79,54771,1,8,0:0:0:0:
217,226,55222,6,0,P|253:246|346:260,1,130,4|8,3:2|0:0,0:0:0:0:
306,108,56124,2,0,P|303:77|290:40,2,65,8|2|8,3:2|0:0|0:0,0:0:0:0:
228,94,56801,1,2,0:0:0:0:
155,122,57026,2,0,P|121:129|85:142,1,65,10|8,3:2|3:2,0:0:0:0:
54,290,57703,2,0,P|92:317|181:335,1,130,12|0,3:2|3:0,0:0:0:0:
255,349,58380,1,8,3:2:0:0:
255,349,58605,2,0,B|244:275|282:289|263:211,1,130,4|8,3:2|3:2,0:0:0:0:
335,182,59282,1,8,3:2:0:0:
335,182,59508,1,8,3:2:0:0:
335,182,59733,1,8,3:2:0:0:
108,27,60635,6,0,P|64:26|0:118,1,155.999995239258,4|8,3:2|0:0,0:0:0:0:
22,198,61312,2,0,L|49:276,1,77.999997619629,2|0,0:0|3:0,0:0:0:0:
129,318,61763,1,2,0:0:0:0:
129,318,61989,2,0,P|175:314|259:391,1,155.999995239258,8|0,0:0|3:0,0:0:0:0:
440,348,62891,2,0,P|455:310|457:262,1,77.999997619629,8|2,0:0|0:0,0:0:0:0:
373,233,63342,2,0,P|358:196|354:158,1,77.999997619629,0|2,3:0|0:0,0:0:0:0:
286,101,63793,1,8,0:0:0:0:
286,101,64019,1,2,0:0:0:0:
321,15,64244,6,0,B|422:9|384:57|493:41,1,155.999995239258,4|8,3:2|0:0,0:0:0:0:
469,230,65147,2,0,B|368:224|406:272|297:256,1,155.999995239258,0|8,3:0|0:0,0:0:0:0:
226,244,65823,2,0,P|216:189|126:167,1,155.999995239258,2|2,0:0|0:0,0:0:0:0:
43,204,66500,2,0,P|35:239|24:280,1,77.999997619629,8|2,0:0|0:0,0:0:0:0:
75,358,66951,1,0,3:0:0:0:
260,333,67402,2,0,P|295:316|337:311,1,77.999997619629,8|2,0:0|0:0,0:0:0:0:
420,345,67853,6,0,B|440:260|390:272|416:187,1,155.999995239258,4|8,3:2|0:0,0:0:0:0:
325,164,68530,2,0,L|250:182,1,77.999997619629,2|0,0:0|3:0,0:0:0:0:
181,117,68981,2,0,B|190:91|190:91|175:34,1,77.999997619629,2|8,0:0|0:0,0:0:0:0:
95,84,69432,1,2,0:0:0:0:
95,84,69658,2,0,P|48:97|30:205,1,155.999995239258,0|8,3:2|0:0,0:0:0:0:
177,294,70560,2,0,L|192:379,2,77.999997619629,0|2|8,3:0|0:0|0:0,0:0:0:0:
165,200,71237,1,2,0:0:0:0:
226,129,71462,6,0,B|148:103|148:103|79:149,1,155.999995239258,0|8,3:0|0:0,0:0:0:0:
24,214,72139,2,0,L|42:294,1,77.999997619629,0|0,3:0|3:0,0:0:0:0:
119,341,72590,2,0,P|159:349|201:364,1,77.999997619629,8|0,0:0|3:0,0:0:0:0:
291,357,73041,1,4,3:2:0:0:
291,357,73267,2,0,P|279:311|348:227,1,155.999995239258,0|8,3:0|0:0,0:0:0:0:
503,141,74169,2,0,P|515:95|446:11,1,155.999995239258,0|8,3:0|0:0,0:0:0:0:
369,51,74846,1,2,0:0:0:0:
282,16,75071,6,0,B|203:5|224:37|122:35,1,155.999995239258,4|8,3:2|0:0,0:0:0:0:
157,220,75974,2,0,P|164:260|179:295,1,77.999997619629,0|2,3:0|0:0,0:0:0:0:
263,334,76425,1,8,0:0:0:0:
263,334,76650,2,0,B|170:325|198:365|103:353,1,155.999995239258,2|2,0:2|0:0,0:0:0:0:
45,286,77327,2,0,P|60:252|63:209,1,77.999997619629,8|2,0:0|0:0,0:0:0:0:
143,162,77778,2,0,P|111:103|99:5,1,155.999995239258,0|8,3:0|0:0,0:0:0:0:
278,66,78680,6,0,B|333:82|333:82|359:112|359:112|419:131,1,155.999995239258,4|8,3:2|0:0,0:0:0:0:
480,196,79357,2,0,P|465:240|460:276,1,77.999997619629,2|0,0:0|3:0,0:0:0:0:
396,339,79808,1,2,0:0:0:0:
396,339,80034,1,8,0:0:0:0:
314,292,80259,2,0,P|288:257|180:247,1,155.999995239258,4|2,3:2|0:0,0:0:0:0:
141,329,80936,2,0,L|115:175,2,155.999995239258,8|0|8,0:0|3:0|0:0,0:0:0:0:
252,177,82290,6,0,P|328:171|384:223,1,155.999995239258,4|8,3:2|0:0,0:0:0:0:
502,77,83192,2,0,L|407:50,1,77.999997619629,0|2,3:0|0:0,0:0:0:0:
339,78,83643,1,8,0:0:0:0:
339,78,83868,2,0,P|258:31|187:54,1,155.999995239258,2|2,0:0|0:0,0:0:0:0:
130,105,84545,1,8,0:0:0:0:
23,259,84996,2,0,P|42:301|47:335,1,77.999997619629,0|2,3:0|0:0,0:0:0:0:
135,361,85447,1,8,0:0:0:0:
216,314,85673,6,0,B|300:302|273:265|367:259,1,155.999995239258,2|4,0:0|3:2,0:0:0:0:
435,315,86350,1,8,0:0:0:0:
483,234,86575,2,0,P|496:198|502:160,1,77.999997619629,2|0,0:0|3:0,0:0:0:0:
418,117,87026,2,0,P|404:81|398:43,1,77.999997619629,2|8,0:0|0:0,0:0:0:0:
304,49,87477,2,0,L|266:37,2,38.9999988098145,2|0|0,0:0|0:0|3:0,0:0:0:0:
