osu file format v14

[General]
AudioFilename: Ray - lull ~Soshite Bokura wa~ (TV Size).mp3
AudioLeadIn: 0
PreviewTime: 59402
Countdown: 0
SampleSet: Soft
StackLeniency: 0.6
Mode: 3
LetterboxInBreaks: 0
SpecialStyle: 0
WidescreenStoryboard: 0

[Editor]
DistanceSpacing: 0.5
BeatDivisor: 4
GridSize: 4
TimelineZoom: 1

[Metadata]
Title:lull ~Soshite Bokura wa~ [TV Size]
TitleUnicode:lull~そして僕らは~ [TV Size]
Artist:Ray
ArtistUnicode:Ray
Creator:-[ AmiShici ]-
Version:4K Insane
Source:凪のあすから
Tags:Nagi no Asukara opening1 Kawada Mami Tomoyuki Nakazawa Dellvangel [Baim]
BeatmapID:818154
BeatmapSetID:373231

[Difficulty]
HPDrainRate:8
CircleSize:4
OverallDifficulty:8
ApproachRate:8
SliderMultiplier:1.9
SliderTickRate:2

[Events]
//Background and Video events
0,0,"moe.jpg",0,0
//Break Periods
//Storyboard Layer 0 (Background)
//Storyboard Layer 1 (Fail)
//Storyboard Layer 2 (Pass)
//Storyboard Layer 3 (Foreground)
//Storyboard Sound Samples

[TimingPoints]
530,451.127819548872,4,2,5,40,1,0
27823,-100,4,1,5,40,0,0
28951,-100,4,2,5,40,0,0
40229,-100,4,1,5,40,0,0
43838,-100,4,2,5,40,0,0
56469,-100,4,1,5,40,0,0
59627,-100,4,2,5,40,0,0
60078,-100,4,2,5,40,0,1
67296,-100,4,2,5,40,0,0
70905,-100,4,1,5,40,0,0
72484,-100,4,2,5,40,0,0
74514,-100,4,2,5,40,0,1
81733,-100,4,2,5,40,0,0

[HitObjects]
448,192,530,128,2,981:0:0:0:0:
192,192,530,1,0,0:0:0:0:
64,192,530,1,0,0:0:0:0:
320,192,981,128,2,1206:0:0:0:0:
64,192,981,1,0,0:0:0:0:
192,192,1206,128,0,1657:0:0:0:0:
64,192,1432,1,2,0:0:0:0:
448,192,1657,128,0,2108:0:0:0:0:
320,192,1883,1,2,0:0:0:0:
64,192,2108,128,0,3236:0:0:0:0:
192,192,2334,1,2,0:0:0:0:
448,192,2560,1,0,0:0:0:0:
192,192,2785,1,2,0:0:0:0:
448,192,3011,1,0,0:0:0:0:
192,192,3236,128,0,3687:0:0:0:0:
320,192,3236,1,2,0:0:0:0:
448,192,3687,128,0,4139:0:0:0:0:
64,192,3687,1,2,0:0:0:0:
64,192,4139,128,0,4590:0:0:0:0:
320,192,4139,1,2,0:0:0:0:
320,192,4590,128,0,4815:0:0:0:0:
448,192,4590,1,2,0:0:0:0:
192,192,4815,128,0,5266:0:0:0:0:
64,192,5041,1,2,0:0:0:0:
448,192,5266,128,0,5492:0:0:0:0:
320,192,5492,1,2,0:0:0:0:
192,192,5605,1,0,0:0:0:0:
320,192,5717,128,0,6845:0:0:0:0:
64,192,5717,1,0,0:0:0:0:
192,192,5943,1,2,0:0:0:0:
448,192,6169,1,0,0:0:0:0:
64,192,6394,1,2,0:0:0:0:
448,192,6620,1,0,0:0:0:0:
192,192,6845,128,0,7296:0:0:0:0:
64,192,6845,1,2,0:0:0:0:
320,192,7071,1,0,0:0:0:0:
448,192,7296,1,2,0:0:0:0:
320,192,7353,1,0,0:0:0:0:
64,192,7409,1,0,0:0:0:0:
192,192,7466,1,0,0:0:0:0:
448,192,7522,1,0,0:0:0:0:
320,192,7578,1,0,0:0:0:0:
64,192,7635,1,0,0:0:0:0:
192,192,7691,1,0,0:0:0:0:
320,192,7748,1,4,0:0:0:0:
64,192,7748,1,0,0:0:0:0:
448,192,7748,128,0,9101:0:0:0:0:
192,192,7973,1,2,0:0:0:0:
64,192,8199,1,8,0:0:0:0:
320,192,8199,1,0,0:0:0:0:
192,192,8424,1,2,0:0:0:0:
320,192,8537,1,0,0:0:0:0:
192,192,8650,1,0,0:0:0:0:
64,192,8650,1,2,0:0:0:0:
320,192,8763,1,0,0:0:0:0:
64,192,8875,1,8,0:0:0:0:
320,192,8988,1,0,0:0:0:0:
192,192,9101,1,8,0:0:0:0:
64,192,9101,128,0,9326:0:0:0:0:
320,192,9326,128,8,10905:0:0:0:0:
448,192,9326,1,0,0:0:0:0:
64,192,9552,1,0,0:0:0:0:
192,192,9552,1,0,0:0:0:0:
448,192,9778,1,2,0:0:0:0:
64,192,9890,1,0,0:0:0:0:
448,192,10003,1,8,0:0:0:0:
192,192,10003,1,0,0:0:0:0:
64,192,10229,1,2,0:0:0:0:
448,192,10342,1,0,0:0:0:0:
64,192,10454,1,0,0:0:0:0:
192,192,10454,1,0,0:0:0:0:
448,192,10567,1,0,0:0:0:0:
192,192,10680,1,8,0:0:0:0:
64,192,10793,1,0,0:0:0:0:
192,192,10905,1,8,0:0:0:0:
448,192,10905,128,0,11131:0:0:0:0:
64,192,11131,128,8,12936:0:0:0:0:
320,192,11131,1,0,0:0:0:0:
192,192,11244,1,0,0:0:0:0:
320,192,11357,1,2,0:0:0:0:
448,192,11357,1,0,0:0:0:0:
192,192,11582,1,8,0:0:0:0:
448,192,11695,1,0,0:0:0:0:
320,192,11808,1,8,0:0:0:0:
192,192,11808,1,0,0:0:0:0:
448,192,12033,1,8,0:0:0:0:
320,192,12146,1,0,0:0:0:0:
192,192,12259,1,0,0:0:0:0:
448,192,12259,1,0,0:0:0:0:
320,192,12484,1,8,0:0:0:0:
448,192,12710,1,8,0:0:0:0:
192,192,12710,1,0,0:0:0:0:
192,192,12936,1,4,0:0:0:0:
320,192,12936,1,0,0:0:0:0:
448,192,12936,1,0,0:0:0:0:
448,192,13387,1,8,0:0:0:0:
64,192,13387,1,0,0:0:0:0:
64,192,13612,1,4,0:0:0:0:
192,192,13612,1,8,0:0:0:0:
448,192,13612,1,0,0:0:0:0:
320,192,13838,1,0,0:0:0:0:
192,192,13838,1,0,0:0:0:0:
64,192,14063,1,0,0:0:0:0:
448,192,14063,1,0,0:0:0:0:
320,192,14289,1,4,0:0:0:0:
448,192,14289,1,0,0:0:0:0:
192,192,14514,1,4,0:0:0:0:
320,192,14514,1,8,0:0:0:0:
448,192,14514,1,0,0:0:0:0:
64,192,14740,1,0,0:0:0:0:
192,192,14740,1,0,0:0:0:0:
448,192,14853,1,0,0:0:0:0:
320,192,14853,1,0,0:0:0:0:
64,192,14966,1,4,0:0:0:0:
192,192,14966,1,8,0:0:0:0:
448,192,14966,128,0,16770:0:0:0:0:
320,192,15191,1,2,0:0:0:0:
192,192,15304,1,0,0:0:0:0:
320,192,15417,1,0,0:0:0:0:
64,192,15417,1,0,0:0:0:0:
192,192,15642,1,2,0:0:0:0:
64,192,15755,1,2,0:0:0:0:
192,192,15868,1,0,0:0:0:0:
320,192,15868,1,0,0:0:0:0:
64,192,16093,1,2,0:0:0:0:
320,192,16206,1,0,0:0:0:0:
64,192,16319,1,0,0:0:0:0:
192,192,16319,1,0,0:0:0:0:
320,192,16432,1,0,0:0:0:0:
192,192,16545,1,2,0:0:0:0:
320,192,16657,1,0,0:0:0:0:
64,192,16770,1,0,0:0:0:0:
192,192,16770,1,0,0:0:0:0:
320,192,16996,1,2,0:0:0:0:
448,192,17221,1,0,0:0:0:0:
64,192,17221,1,0,0:0:0:0:
320,192,17334,1,0,0:0:0:0:
192,192,17447,1,2,0:0:0:0:
448,192,17672,1,0,0:0:0:0:
320,192,17672,1,0,0:0:0:0:
192,192,17898,1,2,0:0:0:0:
320,192,18011,1,0,0:0:0:0:
64,192,18123,1,0,0:0:0:0:
448,192,18123,1,0,0:0:0:0:
320,192,18236,1,0,0:0:0:0:
192,192,18349,1,0,0:0:0:0:
448,192,18462,1,0,0:0:0:0:
320,192,18518,1,0,0:0:0:0:
192,192,18575,1,0,0:0:0:0:
64,192,18575,128,0,20154:0:0:0:0:
448,192,18575,1,0,0:0:0:0:
320,192,18800,1,2,0:0:0:0:
448,192,19026,1,0,0:0:0:0:
192,192,19026,1,0,0:0:0:0:
320,192,19139,1,0,0:0:0:0:
192,194,19251,1,2,0:0:0:0:
192,192,19477,1,0,0:0:0:0:
448,192,19477,1,0,0:0:0:0:
320,192,19702,1,2,0:0:0:0:
192,192,19815,1,0,0:0:0:0:
448,192,19928,1,0,0:0:0:0:
320,192,19928,1,0,0:0:0:0:
192,192,20154,1,2,0:0:0:0:
64,192,20379,1,0,0:0:0:0:
320,192,20379,1,0,0:0:0:0:
192,192,20605,1,0,0:0:0:0:
64,192,20830,128,2,21056:0:0:0:0:
448,192,20830,1,0,0:0:0:0:
320,192,20830,1,0,0:0:0:0:
192,192,20943,1,0,0:0:0:0:
448,192,21056,128,2,22184:0:0:0:0:
320,192,21056,1,0,0:0:0:0:
192,192,21169,1,0,0:0:0:0:
64,192,21281,1,2,0:0:0:0:
320,192,21281,1,0,0:0:0:0:
64,192,21507,1,2,0:0:0:0:
192,192,21620,1,0,0:0:0:0:
320,192,21733,1,2,0:0:0:0:
64,192,21733,1,0,0:0:0:0:
192,192,21845,1,0,0:0:0:0:
320,192,21958,1,2,0:0:0:0:
320,192,22184,1,4,0:0:0:0:
64,192,22184,1,2,0:0:0:0:
192,192,22184,1,0,0:0:0:0:
192,192,22409,1,2,0:0:0:0:
448,192,22635,1,0,0:0:0:0:
64,192,22635,1,0,0:0:0:0:
320,192,22748,1,0,0:0:0:0:
192,192,22860,1,2,0:0:0:0:
320,192,22973,1,0,0:0:0:0:
448,192,23086,1,0,0:0:0:0:
64,192,23086,1,0,0:0:0:0:
320,192,23311,1,2,0:0:0:0:
64,192,23424,1,2,0:0:0:0:
192,192,23537,1,0,0:0:0:0:
448,192,23537,1,0,0:0:0:0:
320,192,23650,1,0,0:0:0:0:
64,192,23763,1,2,0:0:0:0:
192,192,23988,1,0,0:0:0:0:
448,192,23988,1,0,0:0:0:0:
320,192,24101,1,0,0:0:0:0:
64,192,24214,1,2,0:0:0:0:
192,192,24214,128,0,24439:0:0:0:0:
64,192,24439,1,0,0:0:0:0:
320,192,24439,1,0,0:0:0:0:
448,192,24439,128,0,24665:0:0:0:0:
192,192,24552,1,0,0:0:0:0:
64,192,24665,128,2,24890:0:0:0:0:
320,192,24665,1,0,0:0:0:0:
320,192,24890,128,0,25116:0:0:0:0:
448,192,24890,1,0,0:0:0:0:
192,192,25116,128,2,25342:0:0:0:0:
448,192,25116,1,0,0:0:0:0:
64,192,25229,1,0,0:0:0:0:
448,192,25342,128,0,25567:0:0:0:0:
320,192,25342,1,0,0:0:0:0:
64,192,25454,1,0,0:0:0:0:
320,192,25567,128,2,25793:0:0:0:0:
192,192,25567,1,0,0:0:0:0:
448,192,25680,1,0,0:0:0:0:
64,192,25793,128,4,26018:0:0:0:0:
192,192,25793,1,0,0:0:0:0:
448,192,26018,128,2,26469:0:0:0:0:
320,192,26018,1,0,0:0:0:0:
64,192,26244,1,0,0:0:0:0:
192,192,26357,1,0,0:0:0:0:
320,192,26469,128,2,26920:0:0:0:0:
64,192,26469,1,0,0:0:0:0:
192,192,26582,1,0,0:0:0:0:
64,192,26695,1,0,0:0:0:0:
448,192,26695,1,0,0:0:0:0:
192,192,26920,128,2,27372:0:0:0:0:
448,192,26920,1,0,0:0:0:0:
448,192,27146,1,0,0:0:0:0:
64,192,27146,1,0,0:0:0:0:
64,192,27372,128,2,27823:0:0:0:0:
320,192,27372,1,0,0:0:0:0:
448,192,27597,1,0,0:0:0:0:
192,192,27597,1,0,0:0:0:0:
320,192,27710,1,0,0:0:0:0:
448,192,27823,1,8,0:0:0:0:
192,192,27823,1,0,0:0:0:0:
192,192,28048,1,8,0:0:0:0:
448,192,28048,1,0,0:0:0:0:
320,192,28161,1,0,0:0:0:0:
64,192,28274,128,2,28725:0:0:0:0:
192,192,28274,1,0,0:0:0:0:
448,192,28387,1,2,0:0:0:0:
192,192,28499,1,8,0:0:0:0:
320,192,28499,1,0,0:0:0:0:
192,192,28725,1,8,0:0:0:0:
448,192,28725,1,0,0:0:0:0:
320,192,28838,1,0,0:0:0:0:
64,193,28951,1,0,0:0:0:0:
192,193,29007,1,0,0:0:0:0:
448,193,29063,1,0,0:0:0:0:
320,193,29120,1,0,0:0:0:0:
64,193,29176,1,0,0:0:0:0:
192,193,29233,1,0,0:0:0:0:
448,193,29289,1,0,0:0:0:0:
320,192,29345,1,0,0:0:0:0:
192,192,29402,1,4,0:0:0:0:
64,192,29402,1,0,0:0:0:0:
320,192,29627,1,2,0:0:0:0:
192,192,29853,1,0,0:0:0:0:
64,192,29853,1,0,0:0:0:0:
448,192,29853,1,0,0:0:0:0:
320,192,29966,1,0,0:0:0:0:
192,192,30078,1,2,0:0:0:0:
448,192,30304,1,0,0:0:0:0:
64,192,30304,1,0,0:0:0:0:
320,192,30529,1,2,0:0:0:0:
192,192,30642,1,0,0:0:0:0:
64,192,30755,1,0,0:0:0:0:
320,192,30755,1,0,0:0:0:0:
448,192,30755,1,0,0:0:0:0:
192,192,30868,1,0,0:0:0:0:
448,192,30981,1,2,0:0:0:0:
192,192,31093,1,0,0:0:0:0:
64,192,31206,1,0,0:0:0:0:
448,192,31206,1,0,0:0:0:0:
320,192,31432,1,2,0:0:0:0:
192,192,31657,1,0,0:0:0:0:
320,192,31657,1,0,0:0:0:0:
448,192,31657,1,0,0:0:0:0:
64,192,31770,1,0,0:0:0:0:
320,192,31883,1,2,0:0:0:0:
448,192,32108,1,0,0:0:0:0:
192,192,32108,1,0,0:0:0:0:
64,192,32334,1,2,0:0:0:0:
448,192,32447,1,0,0:0:0:0:
320,192,32560,1,0,0:0:0:0:
192,192,32560,1,0,0:0:0:0:
64,192,32560,1,0,0:0:0:0:
448,192,32672,1,0,0:0:0:0:
64,192,32785,1,2,0:0:0:0:
192,192,32898,1,0,0:0:0:0:
448,192,33011,128,0,34590:0:0:0:0:
320,192,33011,1,0,0:0:0:0:
192,192,33236,1,2,0:0:0:0:
64,192,33462,1,0,0:0:0:0:
320,192,33462,1,0,0:0:0:0:
192,192,33575,1,0,0:0:0:0:
320,192,33687,1,2,0:0:0:0:
192,192,33800,1,0,0:0:0:0:
320,192,33913,1,0,0:0:0:0:
64,192,33913,1,0,0:0:0:0:
192,192,34139,1,2,0:0:0:0:
64,192,34251,1,0,0:0:0:0:
320,192,34364,1,0,0:0:0:0:
192,192,34364,1,0,0:0:0:0:
64,192,34590,1,0,0:0:0:0:
320,192,34590,1,0,0:0:0:0:
448,192,34815,1,0,0:0:0:0:
64,192,34815,1,0,0:0:0:0:
320,192,35041,1,2,0:0:0:0:
192,192,35266,1,0,0:0:0:0:
448,192,35266,1,0,0:0:0:0:
320,192,35266,1,0,0:0:0:0:
64,192,35379,1,0,0:0:0:0:
320,192,35492,1,2,0:0:0:0:
64,192,35717,1,0,0:0:0:0:
448,192,35717,1,0,0:0:0:0:
192,192,35943,1,2,0:0:0:0:
320,192,36056,1,0,0:0:0:0:
448,192,36169,1,0,0:0:0:0:
64,192,36169,1,0,0:0:0:0:
192,192,36169,1,0,0:0:0:0:
320,192,36394,1,2,0:0:0:0:
192,192,36620,1,0,0:0:0:0:
448,192,36620,1,0,0:0:0:0:
64,192,36845,1,2,0:0:0:0:
192,192,37071,1,0,0:0:0:0:
320,192,37071,1,0,0:0:0:0:
448,192,37071,1,0,0:0:0:0:
64,192,37184,1,0,0:0:0:0:
320,192,37296,1,2,0:0:0:0:
448,192,37522,1,0,0:0:0:0:
64,192,37522,1,0,0:0:0:0:
320,192,37748,1,2,0:0:0:0:
192,192,37860,1,0,0:0:0:0:
64,192,37973,1,0,0:0:0:0:
448,192,37973,1,0,0:0:0:0:
320,192,37973,1,0,0:0:0:0:
192,192,38086,1,0,0:0:0:0:
320,192,38199,1,2,0:0:0:0:
192,192,38424,1,0,0:0:0:0:
448,192,38424,128,0,38650:0:0:0:0:
320,192,38537,1,0,0:0:0:0:
64,192,38650,1,2,0:0:0:0:
192,192,38763,128,0,38988:0:0:0:0:
448,192,38875,1,8,0:0:0:20:
320,192,38875,1,0,0:0:0:0:
64,192,38988,1,0,0:0:0:0:
320,192,39101,128,2,39326:0:0:0:0:
448,192,39101,1,0,0:0:0:0:
448,192,39326,128,0,39552:0:0:0:0:
64,192,39326,1,0,0:0:0:0:
192,192,39552,1,0,0:0:0:0:
320,192,39665,1,0,0:0:0:0:
64,192,39778,128,8,40003:0:0:0:20:
448,192,39778,1,0,0:0:0:0:
320,192,39890,1,0,0:0:0:0:
448,192,40003,1,2,0:0:0:0:
64,192,40229,1,2,0:0:0:0:
448,192,40229,1,8,0:0:0:0:
192,192,40342,1,8,0:0:0:0:
64,192,40454,1,2,0:0:0:0:
448,192,40454,1,8,0:0:0:0:
448,192,40680,1,8,0:0:0:0:
64,192,40680,1,2,0:0:0:0:
320,192,40793,1,0,0:0:0:0:
64,192,40905,1,2,0:0:0:0:
448,192,40905,1,8,0:0:0:0:
192,192,41018,1,0,0:0:0:0:
320,192,41131,1,0,0:0:0:0:
448,192,41131,1,0,0:0:0:0:
64,192,41357,128,8,41582:0:0:0:0:
448,192,41357,1,8,0:0:0:0:
320,192,41582,128,8,41808:0:0:0:0:
192,192,41582,1,0,0:0:0:0:
192,192,41808,128,0,42033:0:0:0:0:
448,192,41808,1,0,0:0:0:0:
448,192,42033,128,0,42259:0:0:0:0:
64,192,42033,1,0,0:0:0:0:
320,192,42146,1,8,0:0:0:0:
64,192,42259,128,8,42484:0:0:0:0:
192,192,42259,1,0,0:0:0:0:
192,192,42484,128,8,42710:0:0:0:0:
320,192,42484,1,0,0:0:0:0:
64,192,42710,1,8,0:0:0:0:
448,192,42710,128,0,43161:0:0:0:0:
320,192,42936,1,0,0:0:0:0:
192,192,42936,1,0,0:0:0:0:
64,192,43161,1,8,0:0:0:0:
192,192,43161,1,4,0:0:0:0:
64,192,43387,1,8,0:0:0:0:
192,192,43387,1,2,0:0:0:0:
448,192,43612,1,8,0:0:0:0:
320,192,43612,1,2,0:0:0:0:
192,192,43725,1,8,0:0:0:0:
64,192,43725,1,0,0:0:0:0:
320,192,43838,1,4,0:0:0:0:
448,192,43838,1,2,0:0:0:0:
320,192,44063,1,0,0:0:0:0:
448,192,44063,1,0,0:0:0:0:
64,192,44289,1,2,0:0:0:0:
448,192,44514,128,0,44966:0:0:0:0:
320,192,44514,128,0,44966:0:0:0:0:
64,192,44966,1,2,0:0:0:0:
192,192,45078,1,0,0:0:0:0:
448,192,45191,1,8,0:0:0:20:
64,192,45191,1,0,0:0:0:0:
320,192,45417,1,2,0:0:0:0:
64,192,45529,1,2,0:0:0:0:
192,192,45642,1,0,0:0:0:0:
448,192,45642,1,0,0:0:0:0:
449,192,45868,1,2,0:0:0:0:
193,192,45868,1,0,0:0:0:0:
320,192,46093,1,8,0:0:0:20:
64,192,46319,128,0,46770:0:0:0:0:
192,192,46319,128,0,46770:0:0:0:0:
448,192,46770,1,0,0:0:0:0:
320,192,46883,1,0,0:0:0:0:
448,192,46996,1,8,0:0:0:20:
64,192,46996,1,0,0:0:0:0:
192,192,47221,1,2,0:0:0:0:
320,192,47334,1,0,0:0:0:0:
448,192,47447,128,4,47898:0:0:0:0:
64,192,47447,1,0,0:0:0:0:
192,192,47447,1,0,0:0:0:0:
190,192,47672,1,2,0:0:0:0:
62,192,47672,1,0,0:0:0:0:
320,192,47898,1,2,0:0:0:0:
192,192,48123,128,2,48575:0:0:0:0:
448,192,48123,128,0,48575:0:0:0:0:
64,192,48575,1,0,0:0:0:0:
320,192,48687,1,0,0:0:0:0:
64,192,48800,1,0,0:0:0:0:
448,192,48800,1,0,0:0:0:0:
320,192,49026,1,2,0:0:0:0:
192,192,49139,1,2,0:0:0:0:
448,192,49251,1,0,0:0:0:0:
64,192,49251,1,0,0:0:0:0:
64,192,49477,1,0,0:0:0:0:
448,192,49477,1,0,0:0:0:0:
320,192,49702,1,0,0:0:0:0:
64,192,49928,128,0,50379:0:0:0:0:
448,192,49928,128,0,50379:0:0:0:0:
320,192,50379,1,0,0:0:0:0:
192,192,50492,1,0,0:0:0:0:
448,192,50605,1,0,0:0:0:0:
320,192,50661,1,0,0:0:0:0:
64,192,50717,1,0,0:0:0:0:
192,192,50774,1,0,0:0:0:0:
448,192,50830,1,0,0:0:0:0:
320,192,50887,1,0,0:0:0:0:
64,192,50943,1,0,0:0:0:0:
192,192,50999,1,0,0:0:0:0:
320,192,51056,1,4,0:0:0:0:
448,192,51056,1,8,0:0:0:0:
64,192,51056,128,0,52635:0:0:0:0:
192,192,51281,1,2,0:0:0:0:
320,192,51507,1,8,0:0:0:30:
448,192,51507,1,0,0:0:0:0:
320,192,51733,1,2,0:0:0:0:
192,192,51958,1,0,0:0:0:30:
448,192,51958,1,0,0:0:0:0:
448,192,52184,1,8,0:0:0:30:
320,192,52409,1,8,0:0:0:30:
192,192,52409,1,0,0:0:0:0:
192,192,52635,1,8,0:0:0:30:
448,192,52635,128,0,53311:0:0:0:0:
320,192,52860,1,0,0:0:0:0:
64,192,52860,1,0,0:0:0:0:
192,192,53086,1,2,0:0:0:0:
320,192,53311,128,8,53763:0:0:0:30:
64,192,53311,1,0,0:0:0:0:
448,192,53537,1,8,0:0:0:0:
192,192,53763,128,0,54214:0:0:0:0:
64,192,53763,1,0,0:0:0:0:
448,192,53988,1,2,0:0:0:0:
64,192,54214,128,0,54665:0:0:0:0:
320,192,54214,1,0,0:0:0:0:
192,192,54439,1,8,0:0:0:30:
448,192,54665,128,4,56018:0:0:0:0:
320,192,54665,1,8,0:0:0:0:
192,192,54665,1,0,0:0:0:0:
64,192,54890,1,2,0:0:0:0:
320,192,55003,1,0,0:0:0:0:
192,192,55116,1,8,0:0:0:0:
64,192,55116,1,0,0:0:0:0:
320,192,55342,1,2,0:0:0:0:
192,192,55454,1,0,0:0:0:0:
64,192,55567,1,8,0:0:0:0:
320,192,55567,1,0,0:0:0:0:
192,192,55793,1,2,0:0:0:0:
320,192,55905,1,0,0:0:0:0:
192,192,56018,1,2,0:0:0:0:
64,192,56018,1,8,0:0:0:0:
64,192,56244,1,2,0:0:0:0:
448,192,56244,1,8,0:0:0:0:
192,192,56357,1,8,0:0:0:0:
64,192,56469,1,2,0:0:0:0:
448,192,56469,1,8,0:0:0:0:
320,192,56469,1,0,0:0:0:0:
192,192,56695,1,2,0:0:0:0:
320,192,56695,1,8,0:0:0:0:
448,192,56920,1,2,0:0:0:0:
64,192,57146,128,8,57597:0:0:0:0:
192,192,57146,128,0,57597:0:0:0:0:
448,192,57597,1,8,0:0:0:0:
320,192,57597,1,2,0:0:0:0:
192,192,57823,1,2,0:0:0:0:
320,192,57823,1,8,0:0:0:0:
64,192,58048,128,8,58499:0:0:0:0:
448,192,58048,1,2,0:0:0:0:
192,192,58274,128,0,58499:0:0:0:0:
320,192,58499,1,8,0:0:0:0:
448,192,58499,1,2,0:0:0:0:
192,192,58725,1,2,0:0:0:0:
64,192,58725,1,8,0:0:0:0:
192,192,58951,1,2,0:0:0:0:
320,192,58951,1,8,0:0:0:0:
448,192,59176,128,0,59402:0:0:0:0:
320,192,59176,128,0,59402:0:0:0:0:
64,192,59627,1,0,0:0:0:0:
192,192,59684,1,0,0:0:0:0:
320,192,59740,1,0,0:0:0:0:
448,192,59796,1,0,0:0:0:0:
64,192,59853,1,0,0:0:0:0:
192,192,59909,1,0,0:0:0:0:
320,192,59966,1,0,0:0:0:0:
448,192,60022,1,0,0:0:0:0:
192,192,60078,1,4,0:0:0:0:
320,192,60078,1,0,0:0:0:0:
64,192,60078,128,0,61657:0:0:0:0:
448,192,60304,1,2,0:0:0:0:
320,192,60417,1,0,0:0:0:0:
192,192,60529,1,8,0:0:0:0:
448,192,60529,1,0,0:0:0:0:
320,192,60755,1,2,0:0:0:0:
192,192,60981,1,0,0:0:0:0:
448,192,60981,1,0,0:0:0:0:
320,192,61206,1,2,0:0:0:0:
192,192,61319,1,2,0:0:0:0:
320,192,61432,1,8,0:0:0:0:
448,192,61432,1,0,0:0:0:0:
192,192,61657,1,2,0:0:0:0:
448,192,61657,1,0,0:0:0:0:
320,192,61883,1,0,0:0:0:0:
64,192,61883,1,0,0:0:0:0:
192,192,62108,1,2,0:0:0:0:
320,192,62221,1,0,0:0:0:0:
448,192,62334,128,8,62785:0:0:0:0:
64,192,62334,1,0,0:0:0:0:
192,192,62334,1,0,0:0:0:0:
320,192,62560,1,8,0:0:0:0:
192,192,62785,128,0,63236:0:0:0:0:
64,192,62785,1,0,0:0:0:0:
320,192,62898,1,8,0:0:0:0:
448,192,63011,1,8,0:0:0:0:
320,192,63123,1,0,0:0:0:0:
64,192,63236,128,8,63687:0:0:0:0:
448,192,63236,1,0,0:0:0:0:
320,192,63462,1,2,0:0:0:0:
448,192,63687,128,0,65266:0:0:0:0:
192,192,63687,1,0,0:0:0:0:
320,192,63913,1,2,0:0:0:0:
192,192,64026,1,0,0:0:0:0:
64,192,64139,1,8,0:0:0:0:
320,192,64139,1,0,0:0:0:0:
192,192,64364,1,2,0:0:0:0:
64,192,64590,1,0,0:0:0:0:
320,192,64590,1,0,0:0:0:0:
192,192,64702,1,0,0:0:0:0:
320,192,64815,1,2,0:0:0:0:
192,192,64928,1,0,0:0:0:0:
64,192,65041,1,8,0:0:0:0:
320,192,65041,1,0,0:0:0:0:
192,192,65266,1,2,0:0:0:0:
64,192,65266,128,0,66845:0:0:0:0:
320,192,65492,1,0,0:0:0:0:
448,192,65492,1,0,0:0:0:0:
192,192,65717,1,2,0:0:0:0:
320,192,65830,1,0,0:0:0:0:
448,192,65943,1,8,0:0:0:0:
192,192,65943,1,0,0:0:0:0:
320,192,66169,1,2,0:0:0:0:
448,192,66394,1,0,0:0:0:0:
192,192,66394,1,0,0:0:0:0:
320,192,66507,1,0,0:0:0:0:
192,192,66620,1,2,0:0:0:0:
320,192,66733,1,0,0:0:0:0:
448,192,66845,1,8,0:0:0:0:
192,192,66845,1,0,0:0:0:0:
320,192,67071,1,2,0:0:0:0:
64,192,67296,128,4,68875:0:0:0:0:
192,192,67296,1,0,0:0:0:0:
448,192,67296,1,0,0:0:0:0:
320,192,67522,1,2,0:0:0:0:
192,192,67635,1,0,0:0:0:0:
320,192,67748,1,8,0:0:0:0:
448,192,67748,1,0,0:0:0:0:
192,192,67973,1,2,0:0:0:0:
320,192,68199,1,0,0:0:0:0:
448,192,68199,1,0,0:0:0:0:
192,192,68311,1,0,0:0:0:0:
448,192,68424,1,2,0:0:0:0:
320,192,68537,1,2,0:0:0:0:
192,192,68650,1,8,0:0:0:0:
448,192,68650,1,0,0:0:0:0:
320,192,68875,1,8,0:0:0:0:
448,192,68875,128,0,70454:0:0:0:0:
192,192,69101,1,0,0:0:0:0:
64,192,69101,1,0,0:0:0:0:
320,192,69326,1,2,0:0:0:0:
192,192,69439,1,0,0:0:0:0:
64,192,69552,1,8,0:0:0:0:
320,192,69552,1,0,0:0:0:0:
192,192,69778,1,2,0:0:0:0:
64,192,70003,1,0,0:0:0:0:
320,192,70003,1,0,0:0:0:0:
192,192,70116,1,0,0:0:0:0:
320,192,70229,1,2,0:0:0:0:
192,192,70342,1,2,0:0:0:0:
64,192,70454,1,8,0:0:0:0:
320,192,70454,1,0,0:0:0:0:
192,192,70680,1,2,0:0:0:0:
64,192,70905,1,0,0:0:0:0:
320,192,70905,1,0,0:0:0:0:
192,192,71131,1,8,0:0:0:0:
448,192,71131,1,0,0:0:0:0:
192,192,71357,1,8,0:0:0:0:
448,192,71357,1,0,0:0:0:0:
192,192,71582,1,8,0:0:0:0:
448,192,71582,1,0,0:0:0:0:
320,192,71695,1,8,0:0:0:0:
64,192,71808,1,8,0:0:0:0:
192,192,71808,1,0,0:0:0:0:
192,192,72033,1,8,0:0:0:0:
448,192,72033,1,0,0:0:0:0:
192,192,72259,1,8,0:0:0:0:
448,192,72259,1,0,0:0:0:0:
64,192,72484,128,0,72710:0:0:0:0:
320,192,72484,1,0,0:0:0:0:
448,192,72597,1,2,0:0:0:0:
320,192,72710,128,2,72936:0:0:0:0:
192,192,72710,1,4,0:0:0:0:
192,192,72936,128,2,73161:0:0:0:0:
448,192,72936,1,8,0:0:0:0:
448,192,73161,128,8,73387:0:0:0:0:
64,192,73161,1,2,0:0:0:0:
64,192,73387,128,8,73612:0:0:0:0:
320,192,73387,1,0,0:0:0:0:
320,192,73612,128,8,73838:0:0:0:0:
192,192,73612,1,0,0:0:0:0:
192,192,73838,128,4,74063:0:0:0:40:
448,192,73838,1,0,0:0:0:0:
448,192,74063,128,4,74289:0:0:0:0:
64,192,74063,1,0,0:0:0:0:
64,192,74289,128,8,74514:0:0:0:0:
320,192,74289,1,0,0:0:0:0:
192,192,74514,128,4,74966:0:0:0:0:
448,192,74514,1,0,0:0:0:0:
448,192,74740,1,2,0:0:0:0:
320,192,74853,1,0,0:0:0:0:
64,192,74966,1,0,0:0:0:0:
448,192,74966,1,0,0:0:0:0:
320,192,75191,1,2,0:0:0:0:
192,192,75417,1,0,0:0:0:0:
64,192,75417,1,0,0:0:0:0:
320,192,75529,1,0,0:0:0:0:
448,192,75642,1,2,0:0:0:0:
320,192,75755,1,2,0:0:0:0:
64,192,75868,1,8,0:0:0:0:
192,192,75868,1,0,0:0:0:0:
448,192,76093,1,2,0:0:0:0:
192,192,76093,1,0,0:0:0:0:
64,192,76319,1,0,0:0:0:0:
320,192,76319,1,0,0:0:0:0:
192,192,76432,1,0,0:0:0:0:
448,192,76545,128,8,76770:0:0:0:0:
64,192,76545,1,0,0:0:0:0:
192,192,76657,1,0,0:0:0:0:
320,192,76770,128,8,76996:0:0:0:0:
64,192,76770,1,0,0:0:0:0:
192,192,76996,128,0,77672:0:0:0:0:
448,192,76996,1,0,0:0:0:0:
64,192,77221,1,0,0:0:0:0:
320,192,77221,1,0,0:0:0:0:
448,192,77334,1,0,0:0:0:0:
64,192,77447,1,2,0:0:0:0:
320,192,77560,1,0,0:0:0:0:
64,192,77672,128,8,78123:0:0:0:0:
448,192,77672,1,0,0:0:0:0:
320,192,77898,1,2,0:0:0:0:
448,192,78123,128,0,78575:0:0:0:0:
192,192,78123,1,0,0:0:0:0:
320,192,78349,1,2,0:0:0:0:
192,192,78462,1,0,0:0:0:0:
64,192,78575,1,8,0:0:0:0:
320,192,78575,1,0,0:0:0:0:
192,192,78800,1,2,0:0:0:0:
64,192,78913,1,0,0:0:0:0:
320,192,79026,1,0,0:0:0:0:
448,192,79026,1,0,0:0:0:0:
64,192,79139,1,0,0:0:0:0:
448,192,79251,1,0,0:0:0:0:
192,192,79364,1,2,0:0:0:0:
320,192,79477,1,8,0:0:0:0:
64,192,79477,1,0,0:0:0:0:
192,192,79702,1,2,0:0:0:0:
448,192,79702,128,0,80379:0:0:0:0:
320,192,79928,1,0,0:0:0:0:
64,192,79928,1,0,0:0:0:0:
192,192,80154,1,2,0:0:0:0:
64,192,80266,1,0,0:0:0:0:
320,192,80379,128,8,80830:0:0:0:0:
192,192,80379,1,0,0:0:0:0:
64,192,80605,1,2,0:0:0:0:
192,192,80830,128,0,81281:0:0:0:0:
448,192,80830,1,0,0:0:0:0:
64,192,80943,1,0,0:0:0:0:
320,192,81056,1,2,0:0:0:0:
448,192,81169,1,0,0:0:0:0:
64,192,81281,128,8,81733:0:0:0:0:
320,192,81281,1,0,0:0:0:0:
448,192,81507,128,2,81733:0:0:0:0:
320,192,81733,128,4,83311:0:0:0:0:
192,192,81733,1,0,0:0:0:0:
192,192,81958,1,2,0:0:0:0:
64,192,82071,1,0,0:0:0:0:
192,192,82184,1,8,0:0:0:0:
448,192,82184,1,0,0:0:0:0:
64,192,82409,1,2,0:0:0:0:
192,192,82522,1,2,0:0:0:0:
448,192,82635,1,0,0:0:0:0:
64,192,82635,1,0,0:0:0:0:
192,192,82748,1,0,0:0:0:0:
448,192,82860,1,2,0:0:0:0:
192,192,82973,1,0,0:0:0:0:
64,192,83086,1,8,0:0:0:0:
448,192,83086,1,0,0:0:0:0:
192,192,83311,128,2,84890:0:0:0:0:
64,192,83311,1,0,0:0:0:0:
448,192,83537,1,0,0:0:0:0:
64,192,83537,1,0,0:0:0:0:
320,192,83763,1,2,0:0:0:0:
64,192,83875,1,0,0:0:0:0:
320,192,83988,1,8,0:0:0:0:
448,192,83988,1,0,0:0:0:0:
64,192,84214,1,2,0:0:0:0:
320,192,84439,1,0,0:0:0:0:
448,192,84439,1,0,0:0:0:0:
64,192,84552,1,0,0:0:0:0:
448,192,84665,1,2,0:0:0:0:
64,192,84778,1,0,0:0:0:0:
320,192,84890,1,8,0:0:0:0:
448,192,84890,1,0,0:0:0:0:
64,192,85116,1,2,0:0:0:0:
448,192,85342,128,0,87146:0:0:0:0:
320,192,85342,1,0,0:0:0:0:
192,192,85342,1,0,0:0:0:0:
64,192,85567,1,4,0:0:0:40:
320,192,85567,1,2,0:0:0:0:
192,192,85567,128,0,85793:0:0:0:0:
64,192,85793,1,2,0:0:0:0:
320,192,85793,1,4,0:0:0:40:
64,192,86018,128,2,86244:0:0:0:0:
192,192,86018,1,0,0:0:0:0:
320,192,86244,1,0,0:0:0:0:
64,192,86469,1,2,0:0:0:0:
192,192,86469,128,0,86695:0:0:0:0:
320,192,86695,1,8,0:0:0:0:
64,192,86695,1,0,0:0:0:0:
320,192,86920,128,0,87146:0:0:0:0:
192,192,86920,1,0,0:0:0:0:
64,192,87146,1,0,0:0:0:0:
192,192,87146,1,0,0:0:0:0:
448,192,87372,128,0,87823:0:0:0:0:
64,192,87823,128,0,88048:0:0:0:0:
320,192,88048,128,0,88274:0:0:0:0:
192,192,88274,128,0,88499:0:0:0:0:
448,192,88499,128,0,88725:0:0:0:0:
64,192,88725,128,0,89402:0:0:0:0:
