osu file format v14

[General]
AudioFilename: audio.mp3
AudioLeadIn: 0
PreviewTime: 57375
Countdown: 0
SampleSet: Soft
StackLeniency: 0.7
Mode: 0
LetterboxInBreaks: 0
WidescreenStoryboard: 0

[Editor]
DistanceSpacing: 1.3
BeatDivisor: 4
GridSize: 4
TimelineZoom: 1.7

[Metadata]
Title:km/h (TV Size)
TitleUnicode:♡km/h (TV Size)
Artist:Ray
ArtistUnicode:Ray
Creator:Sotarks
Version:Shunao's Hard
Source:ろんぐらいだぁす!
Tags:opening op long riders! heart kilometer per hour kmh armin a_r_m_i_n akitoshi corinn -laura- charlotte irohas mugiwarasekai kalibe kyuukai yaleufeu lami intoon snownino_ owens ron shunao shogunmoon [r]
BeatmapID:1736335
BeatmapSetID:828757

[Difficulty]
HPDrainRate:5
CircleSize:3.7
OverallDifficulty:6
ApproachRate:8
SliderMultiplier:1.3
SliderTickRate:1

[Events]
//Background and Video events
0,0,"BG.jpg",0,0
//Break Periods
//Storyboard Layer 0 (Background)
//Storyboard Layer 1 (Fail)
//Storyboard Layer 2 (Pass)
//Storyboard Layer 3 (Foreground)
//Storyboard Sound Samples

[TimingPoints]
984,324.324324324324,4,2,1,40,1,0
984,-111.111111111111,4,2,1,40,0,0
6173,-100,4,2,1,45,0,0
8767,-100,4,2,1,50,0,0
11038,-100,4,2,1,40,0,0
11281,-100,4,2,1,5,0,0
11362,-100,4,2,1,60,0,0
20767,-100,4,2,1,40,0,0
21740,-111.111111111111,4,2,1,50,0,0
26929,-100,4,2,1,55,0,0
31794,-100,4,2,1,50,0,0
32119,-100,4,2,1,60,0,0
42497,-100,4,2,1,55,0,0
52875,-100,4,2,1,60,0,0
58065,-86.9565217391304,4,2,1,70,0,1
68119,-86.9565217391304,4,2,1,60,0,0
68443,-86.9565217391304,4,2,1,70,0,1
76713,-86.9565217391304,4,2,1,60,0,0
77200,-86.9565217391304,4,2,1,70,0,1
77686,-86.9565217391304,4,2,1,60,0,0
78011,-86.9565217391304,4,2,1,70,0,1
78659,-86.9565217391304,4,2,1,60,0,0
78821,-86.9565217391304,4,2,1,70,0,1
80281,-86.9565217391304,4,2,1,60,0,0
81092,-86.9565217391304,4,2,1,70,0,0
81335,-86.9565217391304,4,2,1,5,0,0
81416,-100,4,2,1,30,0,0
86605,-100,4,2,1,10,0,0
89038,-100,4,2,1,10,0,0

[Colours]
Combo1 : 106,45,168
Combo2 : 57,45,168
Combo3 : 252,114,12

[HitObjects]
79,127,984,6,0,P|87:187|101:252,1,116.999996429443,2|0,0:0|0:0,0:0:0:0:
140,319,1470,2,0,P|192:292|254:308,1,116.999996429443,2|0,0:0|0:0,0:0:0:0:
320,351,1956,2,0,L|393:345,1,58.4999982147217,2|0,0:0|0:0,0:0:0:0:
454,301,2281,5,2,0:0:0:0:
490,221,2443,2,0,P|483:167|478:96,1,116.999996429443,2|2,0:0|0:0,0:0:0:0:
412,46,2929,2,0,P|355:42|303:83,1,116.999996429443,2|0,0:0|0:0,0:0:0:0:
275,158,3416,1,8,0:1:0:0:
236,249,3578,6,0,L|108:239,1,116.999996429443,10|0,0:1|0:0,0:0:0:0:
83,320,4065,2,0,L|216:330,1,116.999996429443,10|0,0:1|0:0,0:0:0:0:
236,249,4551,2,0,P|241:217|254:173,1,58.4999982147217,0|8,3:0|0:1,0:0:0:0:
292,116,4875,5,8,0:1:0:0:
361,62,5038,2,0,P|418:47|472:86,1,116.999996429443,0|0,0:0|0:0,0:0:0:0:
477,162,5524,2,0,P|481:193|488:230,1,58.4999982147217,10|8,0:0|0:3,0:0:0:0:
412,267,5848,2,0,P|407:302|399:330,1,58.4999982147217,8|8,0:1|0:1,0:0:0:0:
300,372,6173,6,0,P|251:335|176:346,1,130,14|0,0:1|0:0,0:0:0:0:
106,370,6659,1,10,0:1:0:0:
35,324,6821,2,0,B|18:277|18:277|38:192,1,130,8|2,0:0|0:0,0:0:0:0:
24,115,7308,1,8,0:2:0:0:
128,60,7470,6,0,B|196:45|192:91|267:66,1,130,14|8,0:1|0:1,0:0:0:0:
338,59,7956,2,0,P|355:121|337:190,1,130,2|8,0:0|0:1,0:0:0:0:
257,202,8443,2,0,L|262:275,1,65,10|0,0:0|0:0,0:0:0:0:
323,366,8767,6,0,B|371:359|371:359|402:369|402:369|467:356,1,130,14|8,0:1|0:1,0:0:0:0:
499,288,9254,1,8,0:1:0:0:
487,204,9416,2,0,L|491:135,1,65,8|8,0:1|0:1,0:0:0:0:
406,139,9740,2,0,P|374:142|333:136,1,65,8|8,0:1|0:1,0:0:0:0:
272,69,10065,6,0,L|263:-4,2,65,10|10|10,0:0|0:0|0:0,0:0:0:0:
203,117,10551,1,10,0:0:0:0:
203,117,10713,1,10,0:0:0:0:
118,117,10875,1,10,0:0:0:0:
42,78,11038,1,10,0:0:0:0:
18,244,11362,6,0,P|81:227|140:282,1,130,12|8,0:1|0:0,0:0:0:0:
184,326,11848,1,0,0:0:0:0:
253,374,12011,2,0,L|328:366,1,65,8|8,0:1|0:1,0:0:0:0:
386,318,12335,2,0,L|469:326,1,65,8|0,0:0|0:0,0:0:0:0:
469,241,12659,6,0,P|478:177|493:109,2,130,10|10|10,0:1|0:0|0:1,0:0:0:0:
450,324,13470,1,8,0:1:0:0:
382,369,13632,2,0,P|346:365|309:368,1,65,10|8,0:0|0:1,0:0:0:0:
264,292,13956,6,0,P|271:231|235:161,1,130,10|8,0:1|0:0,0:0:0:0:
168,129,14443,1,0,0:0:0:0:
98,81,14605,2,0,L|231:73,1,130,10|8,0:1|0:0,0:0:0:0:
310,54,15092,1,0,0:0:0:0:
392,36,15254,6,0,L|475:42,2,65,10|2|10,0:1|0:0|0:0,0:0:0:0:
310,54,15740,2,0,P|267:93|262:174,1,130,2|10,0:0|0:0,0:0:0:0:
283,242,16227,2,0,L|335:238,3,32.5,8|8|8|0,0:0|0:0|0:1|0:0,0:0:0:0:
350,216,16551,6,0,L|487:226,1,130,14|8,0:1|0:0,0:0:0:0:
501,307,17038,1,0,0:0:0:0:
434,358,17200,2,0,L|365:352,1,65,8|8,0:1|0:1,0:0:0:0:
286,370,17524,2,0,L|217:364,1,65,8|0,0:0|0:0,0:0:0:0:
146,325,17848,6,0,P|141:265|131:185,1,130,10|8,0:1|0:0,0:0:0:0:
85,125,18335,1,0,0:0:0:0:
132,195,18497,2,0,P|167:199|205:193,1,65,8|8,0:1|0:1,0:0:0:0:
278,175,18821,2,0,P|312:168|349:174,1,65,8|0,0:0|0:0,0:0:0:0:
424,154,19146,6,0,L|431:80,2,65,10|2|10,0:1|0:0|0:1,0:0:0:0:
467,226,19632,1,10,0:1:0:0:
428,300,19794,2,0,P|397:304|363:300,1,65,10|8,0:0|0:0,0:0:0:0:
280,283,20119,1,8,0:0:0:0:
280,283,20281,1,8,0:0:0:0:
51,174,20767,6,0,L|48:136,2,32.5,2|0|0,3:2|0:0|0:0,0:0:0:0:
476,67,21740,6,0,P|467:120|461:194,1,116.999996429443,12|10,0:1|0:1,0:0:0:0:
349,318,22389,2,0,P|294:300|233:310,1,116.999996429443,10|8,0:1|0:1,0:0:0:0:
151,329,22875,1,2,0:0:0:0:
66,353,23038,6,0,L|-4:341,2,58.4999982147217,10|2|8,0:1|0:0|0:1,0:0:0:0:
151,329,23524,2,0,P|157:268|154:189,1,116.999996429443,2|0,0:0|0:0,0:0:0:0:
84,161,24011,2,0,P|79:127|77:83,1,58.4999982147217,10|0,0:1|0:0,0:0:0:0:
149,34,24335,6,0,P|207:32|249:88,1,116.999996429443,12|10,0:1|0:1,0:0:0:0:
300,238,24983,2,0,L|434:228,1,116.999996429443,10|8,0:1|0:1,0:0:0:0:
479,167,25470,1,2,0:0:0:0:
429,94,25632,6,0,P|435:65|446:28,2,58.4999982147217,10|2|8,0:1|0:0|0:1,0:0:0:0:
344,118,26119,2,0,P|353:167|360:235,1,116.999996429443,2|0,0:0|0:0,0:0:0:0:
299,297,26605,2,0,P|293:334|290:369,1,58.4999982147217,10|0,0:0|0:0,0:0:0:0:
181,369,26929,6,0,P|126:343|59:364,1,130,14|0,0:1|0:0,0:0:0:0:
12,284,27416,1,8,0:0:0:0:
64,209,27578,2,0,L|58:126,1,65,0|0,0:0|0:0,0:0:0:0:
82,56,27902,2,0,P|114:46|152:44,1,65,10|0,0:0|0:0,0:0:0:0:
223,91,28227,6,0,P|283:102|366:98,1,130,10|0,0:1|0:0,0:0:0:0:
433,60,28713,1,8,0:0:0:0:
487,132,28875,2,0,L|483:203,1,65,0|0,0:0|0:0,0:0:0:0:
434,274,29200,2,0,P|400:279|360:270,1,65,8|2,0:0|0:0,0:0:0:0:
282,217,29524,6,0,L|273:75,1,130,14|8,0:1|0:1,0:0:0:0:
213,18,30011,1,8,0:1:0:0:
126,45,30173,2,0,L|121:124,1,65,10|8,0:0|0:0,0:0:0:0:
56,173,30497,1,8,0:0:0:0:
56,173,30659,1,8,0:0:0:0:
43,263,30821,5,14,0:1:0:0:
124,303,30983,1,14,0:1:0:0:
386,50,31632,1,2,0:0:0:0:
386,50,31713,1,2,0:0:0:0:
386,50,31794,2,0,P|419:54|467:72,1,65,14|0,0:0|0:0,0:0:0:0:
491,159,32119,6,0,L|481:309,1,130,8|10,0:1|0:0,0:0:0:0:
412,347,32605,1,0,0:0:0:0:
342,288,32767,2,0,P|306:282|271:286,1,65,10|0,0:1|0:0,0:0:0:0:
199,332,33092,2,0,P|162:339|124:332,1,65,8|2,0:0|0:0,0:0:0:0:
76,266,33416,5,10,0:1:0:0:
76,266,33578,2,0,L|68:125,1,130,10|10,0:1|0:1,0:0:0:0:
158,117,34065,1,0,0:0:0:0:
158,117,34227,1,8,0:1:0:0:
235,164,34389,2,0,L|239:239,1,65,10|0,0:0|0:0,0:0:0:0:
320,269,34713,6,0,P|383:269|434:215,1,130,8|10,0:1|0:0,0:0:0:0:
456,138,35200,1,0,0:0:0:0:
391,73,35362,2,0,L|318:69,1,65,10|0,0:1|0:0,0:0:0:0:
244,30,35686,2,0,L|164:35,1,65,8|2,0:0|0:0,0:0:0:0:
102,80,36011,5,10,0:1:0:0:
102,80,36173,2,0,B|111:163,1,65,10|8,0:1|0:0,0:0:0:0:
179,202,36497,2,0,L|172:285,1,65,10|0,0:1|0:0,0:0:0:0:
194,355,36821,1,8,0:1:0:0:
283,370,36983,1,10,0:0:0:0:
352,310,37146,1,10,0:0:0:0:
352,310,37227,1,8,0:0:0:0:
352,310,37308,6,0,P|407:282|483:307,1,130,8|8,0:1|0:0,0:0:0:0:
498,210,37794,1,0,0:0:0:0:
466,124,37956,2,0,P|456:87|451:50,1,65,0|8,0:0|0:1,0:0:0:0:
367,26,38281,2,0,P|362:59|351:95,1,65,10|2,0:0|0:0,0:0:0:0:
270,126,38605,6,0,P|214:110|146:152,1,130,8|8,0:1|0:0,0:0:0:0:
103,217,39092,1,0,0:0:0:0:
63,298,39254,2,0,L|68:377,1,65,0|2,0:0|0:0,0:0:0:0:
157,366,39578,2,0,L|162:290,1,65,10|2,0:0|0:0,0:0:0:0:
238,253,39902,5,8,0:1:0:0:
317,207,40065,1,8,0:1:0:0:
317,207,40146,1,8,0:1:0:0:
317,207,40227,2,0,P|350:203|397:190,1,65,14|0,0:1|0:0,0:0:0:0:
460,151,40551,2,0,P|433:195|426:282,1,130,14|8,0:1|0:0,0:0:0:0:
372,347,41038,1,8,0:0:0:0:
372,347,41119,1,8,0:0:0:0:
372,347,41200,6,0,P|311:330|248:364,1,130,14|8,0:1|0:0,0:0:0:0:
162,360,41686,2,0,P|154:297|150:222,1,130,14|8,0:1|0:1,0:0:0:0:
168,140,42173,1,10,0:0:0:0:
349,123,42497,6,0,P|345:163|338:195,1,65,12|12,0:1|0:1,0:0:0:0:
277,253,42821,2,0,P|338:236|397:271,1,130,2|10,0:0|0:1,0:0:0:0:
459,330,43308,1,8,0:1:0:0:
459,330,43470,1,8,0:1:0:0:
496,239,43632,6,0,P|491:179|476:96,1,130,14|10,0:1|0:1,0:0:0:0:
415,44,44119,2,0,L|348:49,1,65,10|8,0:0|0:1,0:0:0:0:
295,121,44443,2,0,L|166:112,1,130,10|8,0:0|0:0,0:0:0:0:
74,116,44929,1,8,0:1:0:0:
74,116,45011,1,0,0:0:0:0:
74,116,45092,6,0,P|72:150|65:202,1,65,12|12,0:1|0:1,0:0:0:0:
116,258,45416,2,0,L|110:303,2,32.5,2|0|8,0:0|0:0|0:3,0:0:0:0:
156,237,45659,2,0,L|152:192,2,32.5,8|10|0,0:3|0:3|0:0,0:0:0:0:
198,253,45902,1,8,0:1:0:0:
264,315,46065,1,8,0:0:0:0:
304,226,46227,6,0,P|310:167|324:85,1,130,14|10,0:1|0:1,0:0:0:0:
380,28,46713,2,0,P|438:33|479:92,1,130,10|8,0:0|0:0,0:0:0:0:
488,178,47200,1,8,0:0:0:0:
488,178,47281,1,8,0:0:0:0:
488,178,47362,2,0,P|484:214|481:259,1,65,8|0,0:0|0:0,0:0:0:0:
445,326,47686,6,0,B|392:322|392:322|370:331|370:331|308:325,1,130,12|2,0:1|0:0,0:0:0:0:
231,293,48173,1,8,0:0:0:0:
167,228,48335,2,0,P|159:184|165:145,1,65,10|8,0:1|0:1,0:0:0:0:
131,77,48659,2,0,P|98:63|64:61,1,65,10|0,0:0|0:0,0:0:0:0:
16,134,48983,6,0,L|27:274,1,130,12|10,0:1|0:1,0:0:0:0:
70,343,49470,1,8,0:0:0:0:
159,327,49632,2,0,P|194:323|227:329,1,65,10|8,0:1|0:1,0:0:0:0:
308,358,49956,2,0,P|340:362|386:356,1,65,10|8,0:0|0:1,0:0:0:0:
450,310,50281,5,12,0:1:0:0:
425,222,50443,1,0,0:0:0:0:
425,222,50524,1,0,0:0:0:0:
425,222,50605,2,0,P|419:182|413:137,1,65,10|8,0:1|0:0,0:0:0:0:
368,79,50929,2,0,P|336:84|301:78,1,65,10|8,0:1|0:1,0:0:0:0:
215,57,51254,1,10,0:0:0:0:
215,57,51416,1,0,0:0:0:0:
125,37,51578,6,0,P|60:60|41:127,1,130,10|8,0:0|0:1,0:0:0:0:
63,201,52065,1,10,0:0:0:0:
103,282,52227,2,0,L|147:277,3,32.5,8|0|8|8,0:1|0:0|0:0|0:0,0:0:0:0:
178,261,52551,2,0,L|222:266,3,32.5,10|8|8|8,0:1|0:1|0:0|0:0,0:0:0:0:
252,246,52875,6,0,P|265:175|302:125,1,130,14|8,0:1|0:1,0:0:0:0:
372,75,53362,1,10,0:1:0:0:
443,130,53524,2,0,P|478:183|488:247,1,130,10|8,0:1|0:0,0:0:0:0:
472,337,54011,1,8,0:1:0:0:
385,365,54173,6,0,L|309:359,1,65,8|8,0:0|0:0,0:0:0:0:
265,287,54497,2,0,L|195:293,1,65,8|8,0:0|0:0,0:0:0:0:
150,368,54821,2,0,L|70:359,1,65,8|8,0:0|0:0,0:0:0:0:
11,306,55146,1,8,0:0:0:0:
11,306,55308,1,8,0:0:0:0:
0,215,55470,5,14,0:1:0:0:
60,147,55632,1,14,0:1:0:0:
422,109,56281,2,0,L|418:176,1,65,8|10,0:1|0:0,0:0:0:0:
386,259,56605,6,0,P|325:275|259:229,1,130,14|8,0:1|0:1,0:0:0:0:
245,155,57092,2,0,L|240:78,1,65,8|0,0:0|0:0,0:0:0:0:
164,40,57416,2,0,L|125:36,3,32.5,10|8|8|0,0:0|0:0|0:0|0:0,0:0:0:0:
89,54,57740,2,0,L|81:131,1,65,10|0,0:0|0:0,0:0:0:0:
30,210,58065,6,0,L|43:363,1,149.500002851486,14|8,0:1|0:0,0:0:0:0:
139,384,58551,1,0,0:0:0:0:
231,337,58713,2,0,P|298:306|381:348,1,149.500002851486,10|10,0:1|0:0,0:0:0:0:
455,368,59200,6,0,P|466:286|483:220,1,149.500002851486,2|0,0:0|0:0,0:0:0:0:
448,130,59686,1,8,0:0:0:0:
448,130,59848,1,0,0:0:0:0:
360,85,60011,2,0,P|318:82|279:101,1,74.7500014257431,10|8,0:1|0:1,0:0:0:0:
213,155,60335,2,0,P|172:152|135:133,1,74.7500014257431,10|0,0:0|0:0,0:0:0:0:
71,70,60659,6,0,B|41:114|41:114|51:223,1,149.500002851486,10|8,0:1|0:0,0:0:0:0:
104,290,61146,1,2,0:0:0:0:
192,249,61308,2,0,B|270:220|263:285|352:252,1,149.500002851486,10|10,0:1|0:0,0:0:0:0:
413,197,61794,6,0,P|381:225|388:338,1,149.500002851486,2|0,0:0|0:0,0:0:0:0:
464,279,62281,1,10,0:0:0:0:
464,279,62443,1,2,0:0:0:0:
378,325,62605,2,0,L|303:328,1,74.7500014257431,14|8,0:1|0:1,0:0:0:0:
217,281,62929,1,10,0:0:0:0:
192,196,63092,1,8,0:0:0:0:
192,196,63173,1,8,0:0:0:0:
192,196,63254,6,0,P|122:202|57:134,1,149.500002851486,14|8,0:1|0:0,0:0:0:0:
59,56,63740,1,0,0:0:0:0:
154,36,63902,2,0,B|205:31|205:31|251:40|251:40|327:31,1,149.500002851486,10|8,0:1|0:0,0:0:0:0:
399,36,64389,1,2,0:0:0:0:
477,92,64551,6,0,P|472:129|469:186,1,74.7500014257431,10|2,0:1|0:0,0:0:0:0:
374,144,64875,2,0,P|379:183|382:237,1,74.7500014257431,8|0,0:0|0:0,0:0:0:0:
452,284,65200,2,0,P|386:259|318:305,1,149.500002851486,10|10,0:1|0:0,0:0:0:0:
251,363,65686,1,0,0:0:0:0:
158,334,65848,6,0,L|79:328,2,74.7500014257431,10|0|8,0:1|0:0|0:0,0:0:0:0:
218,257,66335,1,10,0:1:0:0:
266,173,66497,2,0,L|353:162,2,74.7500014257431,8|8|8,0:0|0:1|0:0,0:0:0:0:
180,127,66983,1,8,0:1:0:0:
105,190,67146,6,0,B|75:222|75:222|83:333,1,149.500002851486,12|8,0:1|0:0,0:0:0:0:
164,378,67632,1,8,0:1:0:0:
183,282,67794,1,14,0:1:0:0:
268,340,67956,1,8,0:1:0:0:
268,340,68119,2,0,P|306:331|354:340,1,74.7500014257431,10|0,0:0|0:0,0:0:0:0:
445,294,68443,6,0,B|457:244|457:244|430:147,1,149.500002851486,14|8,0:1|0:0,0:0:0:0:
366,77,68929,1,8,0:1:0:0:
291,139,69092,2,0,L|281:228,1,74.7500014257431,10|8,0:0|0:1,0:0:0:0:
193,251,69416,1,8,0:0:0:0:
120,188,69578,1,10,0:1:0:0:
146,87,69740,6,0,P|68:97|22:156,1,149.500002851486,10|8,0:0|0:0,0:0:0:0:
23,246,70227,1,8,0:1:0:0:
107,294,70389,2,0,L|101:398,2,74.7500014257431,10|8|10,0:0|0:1|0:0,0:0:0:0:
193,251,70875,1,8,0:1:0:0:
279,205,71038,6,0,B|355:182|351:243|432:210,1,149.500002851486,8|8,0:0|0:0,0:0:0:0:
491,143,71524,1,10,0:1:0:0:
423,213,71686,2,0,L|430:305,1,74.7500014257431,10|8,0:0|0:1,0:0:0:0:
368,364,72011,1,8,0:0:0:0:
271,370,72173,1,10,0:1:0:0:
189,318,72335,6,0,P|182:269|148:163,1,149.500002851486,10|8,0:0|0:0,0:0:0:0:
73,117,72821,1,8,0:1:0:0:
139,46,72983,2,0,P|182:38|226:45,2,74.7500014257431,12|10|10,0:1|0:1|0:0,0:0:0:0:
73,117,73470,1,10,0:0:0:0:
73,117,73551,1,8,0:0:0:0:
73,117,73632,6,0,L|65:196,1,74.7500014257431,12|0,0:1|0:0,0:0:0:0:
65,288,73956,2,0,P|99:277|148:284,1,74.7500014257431,8|8,0:1|0:0,0:0:0:0:
224,324,74281,2,0,P|266:328|313:313,1,74.7500014257431,0|0,0:0|0:0,0:0:0:0:
376,264,74605,1,10,0:0:0:0:
309,193,74767,6,0,P|374:167|457:217,1,149.500002851486,2|0,0:0|0:0,0:0:0:0:
376,264,75254,2,0,L|371:353,1,74.7500014257431,8|8,0:1|0:0,0:0:0:0:
276,318,75578,2,0,B|221:302|221:302|161:317,2,112.125002138615,10|2|10,0:1|0:0|0:1,0:0:0:0:
301,208,76227,6,0,P|305:130|321:50,1,149.500002851486,14|8,0:1|0:1,0:0:0:0:
229,23,76713,2,0,P|174:68|76:52,1,149.500002851486,10|8,0:0|0:0,0:0:0:0:
32,136,77200,6,0,B|10:169|10:169|35:298,1,149.500002851486,14|8,0:1|0:1,0:0:0:0:
116,323,77686,2,0,B|194:288|189:357|268:323,1,149.500002851486,10|10,0:0|0:0,0:0:0:0:
348,284,78173,2,0,P|354:244|373:201,1,74.7500014257431,10|10,0:1|0:0,0:0:0:0:
447,159,78497,1,8,0:1:0:0:
447,159,78659,1,10,0:0:0:0:
375,74,78821,6,0,P|336:62|283:67,1,74.7500014257431,12|0,0:1|0:0,0:0:0:0:
213,103,79146,2,0,L|218:149,3,37.3750007128716,8|0|8|0,0:1|0:0|0:1|0:0,0:0:0:0:
243,180,79470,2,0,L|237:226,3,37.3750007128716,8|0|8|0,0:0|0:0|0:0|0:0,0:0:0:0:
214,259,79794,2,0,L|219:308,3,37.3750007128716,8|0|8|0,0:0|0:0|0:0|0:0,0:0:0:0:
225,344,80119,5,14,0:1:0:0:
128,354,80281,2,0,P|86:337|37:328,1,74.7500014257431,14|0,0:1|0:0,0:0:0:0:
23,239,80605,2,0,P|14:169|75:104,1,149.500002851486,0|0,0:0|0:0,0:0:0:0:
147,65,81092,1,8,0:0:0:0:
242,83,81254,1,0,0:0:0:0:
243,180,81416,5,4,0:0:0:0:
256,192,81497,12,2,86605,0:0:0:0:
256,192,86686,12,2,89038,0:0:0:0:
