osu file format v14

[General]
AudioFilename: audio.mp3
AudioLeadIn: 0
PreviewTime: 57375
Countdown: 0
SampleSet: Soft
StackLeniency: 0.6
Mode: 0
LetterboxInBreaks: 0
WidescreenStoryboard: 0

[Editor]
Bookmarks: 68443,89038
DistanceSpacing: 0.7
BeatDivisor: 4
GridSize: 16
TimelineZoom: 2.4

[Metadata]
Title:km/h (TV Size)
TitleUnicode:♡km/h (TV Size)
Artist:Ray
ArtistUnicode:Ray
Creator:Sotarks
Version:Owens' Extra
Source:ろんぐらいだぁす!
Tags:opening op long riders! heart kilometer per hour kmh armin a_r_m_i_n akitoshi corinn -laura- charlotte irohas mugiwarasekai kalibe kyuukai yaleufeu lami intoon snownino_ owens ron shunao shogunmoon [r]
BeatmapID:1737489
BeatmapSetID:828757

[Difficulty]
HPDrainRate:6
CircleSize:3.6
OverallDifficulty:9
ApproachRate:9.2
SliderMultiplier:1.50000000596046
SliderTickRate:1

[Events]
//Background and Video events
0,0,"BG.jpg",0,0
//Break Periods
//Storyboard Layer 0 (Background)
//Storyboard Layer 1 (Fail)
//Storyboard Layer 2 (Pass)
//Storyboard Layer 3 (Foreground)
//Storyboard Sound Samples

[TimingPoints]
984,324.324324324324,4,2,1,40,1,0
984,-133.333333333333,4,2,1,40,0,0
6173,-133.333333333333,4,2,1,45,0,0
8767,-133.333333333333,4,2,1,50,0,0
11038,-66.6666666666667,4,2,1,40,0,0
11281,-66.6666666666667,4,2,1,40,0,0
11362,-100,4,2,1,60,0,0
20767,-200,4,2,1,40,0,0
21740,-142.857142857143,4,2,1,50,0,0
26929,-111.111111111111,4,2,1,55,0,0
31794,-111.111111111111,4,2,1,50,0,0
32119,-100,4,2,1,60,0,0
40227,-71.4285714285714,4,2,1,60,0,0
41200,-133.333333333333,4,2,1,60,0,0
42497,-133.333333333333,4,2,1,55,0,0
47200,-105.263157894736,4,2,1,55,0,0
47686,-100,4,2,1,55,0,0
52875,-100,4,2,1,60,0,0
55632,-133.333333333333,4,2,1,60,0,0
56605,-83.3333333333333,4,2,1,60,0,0
57092,-66.6666666666667,4,2,1,60,0,0
57740,-200,4,2,1,60,0,0
58065,-83.3333333333333,4,2,1,70,0,1
58389,-90.9090909090909,4,2,1,70,0,1
67146,-71.4285714285714,4,2,1,70,0,1
68119,-58.8235294117647,4,2,1,60,0,0
68443,-83.3333333333333,4,2,1,70,0,1
73632,-100,4,2,1,70,0,0
75578,-125,4,2,1,70,0,0
76227,-66.6666666666667,4,2,1,70,0,0
76713,-66.6666666666667,4,2,1,60,0,0
77200,-66.6666666666667,4,2,1,70,0,0
77686,-71.4285714285714,4,2,1,60,0,0
78011,-125,4,2,1,70,0,0
78659,-125,4,2,1,60,0,0
78821,-83.3333333333333,4,2,1,70,0,1
80281,-100,4,2,1,60,0,0
81092,-57.1428571428571,4,2,1,70,0,1
81335,-100,4,2,1,5,0,1
81416,-181.818181818181,4,2,1,30,0,0
86605,-200,4,2,1,10,0,0

[Colours]
Combo1 : 136,196,255
Combo2 : 255,128,128
Combo3 : 255,255,128

[HitObjects]
96,272,984,6,0,P|104:241|128:214,1,56.2500023692847,2|0,0:0|0:0,0:0:0:0:
81,139,1308,1,0,0:0:0:0:
81,139,1470,2,0,P|111:130|146:137,1,56.2500023692847,0|0,0:0|0:0,0:0:0:0:
188,60,1794,1,0,0:0:0:0:
188,60,1956,6,0,P|210:82|221:116,1,56.2500023692847,0|0,0:0|0:0,0:0:0:0:
310,113,2281,1,0,0:0:0:0:
310,113,2443,2,0,P|301:143|277:170,1,56.2500023692847,0|0,0:0|0:0,0:0:0:0:
208,224,2767,1,0,0:0:0:0:
208,224,2929,6,0,P|268:260|332:252,1,112.500004738569,0|0,0:0|0:0,0:0:0:0:
416,224,3416,1,8,0:1:0:0:
421,168,3578,6,0,L|413:248,1,56.2500023692847,8|0,0:1|0:0,0:0:0:0:
336,272,3902,1,0,0:0:0:0:
336,272,4065,2,0,L|344:352,1,56.2500023692847,8|0,0:1|0:0,0:0:0:0:
272,160,4389,1,0,0:0:0:0:
272,160,4551,6,0,L|264:240,1,56.2500023692847,0|8,0:0|0:1,0:0:0:0:
208,288,4875,2,0,B|168:304|168:304|80:272,1,112.500004738569,8|0,0:1|0:0,0:0:0:0:
16,240,5362,1,0,0:0:0:0:
95,186,5524,5,8,0:0:0:0:
102,280,5686,1,8,0:3:0:0:
88,92,5848,1,8,0:1:0:0:
80,288,6011,1,8,0:1:0:0:
112,80,6173,6,0,P|176:64|224:80,1,112.500004738569,12|0,0:1|0:0,0:0:0:0:
224,256,6659,1,8,0:1:0:0:
224,256,6821,2,0,P|178:208|168:159,1,112.500004738569,8|0,0:0|0:0,0:0:0:0:
268,165,7308,1,8,0:2:0:0:
268,165,7389,1,8,0:2:0:0:
268,165,7470,6,0,L|384:160,1,112.500004738569,12|8,0:1|0:1,0:0:0:0:
480,272,7956,1,0,0:0:0:0:
480,272,8119,2,0,L|400:256,1,56.2500023692847,8|8,0:0|0:1,0:0:0:0:
288,336,8443,2,0,L|368:320,1,56.2500023692847,8|0,0:0|0:0,0:0:0:0:
288,224,8767,5,12,0:1:0:0:
288,224,9092,5,8,0:1:0:0:
208,112,9254,1,8,0:1:0:0:
128,160,9416,5,8,0:1:0:0:
304,128,9578,1,8,0:1:0:0:
192,16,9740,5,8,0:1:0:0:
208,192,9902,1,8,0:1:0:0:
288,32,10065,5,8,0:0:0:0:
96,176,10227,1,8,0:0:0:0:
304,128,10389,5,8,0:0:0:0:
80,80,10551,1,8,0:0:0:0:
360,72,10713,5,8,0:0:0:0:
24,136,10875,1,8,0:0:0:0:
32,144,11038,6,0,B|48:176|32:208|32:208|48:224|48:224|32:256|48:304,1,168.750007107854,2|0,0:0|0:0,0:0:0:0:
64,384,11362,6,0,P|96:320|192:304,1,150.000000596046,12|8,0:1|0:0,0:0:0:0:
264,368,11848,1,0,0:0:0:0:
384,336,12011,2,0,L|368:256,1,75.000000298023,8|8,0:1|0:1,0:0:0:0:
480,144,12335,2,0,L|465:217,1,75.000000298023,8|0,0:0|0:0,0:0:0:0:
352,272,12659,6,0,B|303:255|303:255|205:271,1,150.000000596046,8|8,0:1|0:0,0:0:0:0:
112,312,13146,1,0,0:0:0:0:
144,200,13308,2,0,P|160:152|160:120,1,75.000000298023,8|8,0:1|0:1,0:0:0:0:
0,88,13632,2,0,P|33:125|61:141,1,75.000000298023,8|0,0:0|0:0,0:0:0:0:
96,40,13956,6,0,P|176:24|256:72,1,150.000000596046,8|8,0:1|0:0,0:0:0:0:
276,152,14443,1,0,0:0:0:0:
384,112,14605,2,0,L|368:208,1,75.000000298023,8|0,0:1|0:0,0:0:0:0:
304,336,14929,2,0,L|291:262,1,75.000000298023,8|0,0:0|0:0,0:0:0:0:
400,288,15254,5,10,0:1:0:0:
272,256,15416,1,2,0:0:0:0:
432,208,15578,1,10,0:0:0:0:
240,336,15740,2,0,B|208:352|208:352|144:352,1,75.000000298023,2|8,0:0|0:1,0:0:0:0:
48,288,16065,5,8,0:0:0:0:
51,260,16146,1,8,0:0:0:0:
55,232,16227,1,8,0:0:0:0:
59,204,16308,1,8,0:0:0:0:
64,176,16389,2,0,L|72:124,1,37.5000001490115,8|8,0:1|0:1,0:0:0:0:
80,64,16551,6,0,P|96:112|192:96,1,150.000000596046,12|8,0:1|0:0,0:0:0:0:
256,32,17038,1,0,0:0:0:0:
272,144,17200,2,0,L|352:128,1,75.000000298023,8|8,0:1|0:1,0:0:0:0:
432,240,17524,2,0,L|352:224,1,75.000000298023,8|0,0:0|0:0,0:0:0:0:
436,96,17848,6,0,P|452:160|420:256,1,150.000000596046,8|8,0:1|0:0,0:0:0:0:
366,318,18335,1,0,0:0:0:0:
256,320,18497,2,0,P|268:268|300:232,1,75.000000298023,8|8,0:1|0:1,0:0:0:0:
439,305,18821,2,0,P|387:320|340:310,1,75.000000298023,8|0,0:0|0:0,0:0:0:0:
224,304,19146,5,10,0:1:0:0:
272,176,19308,1,2,0:0:0:0:
304,256,19470,5,10,0:1:0:0:
240,96,19632,1,10,0:1:0:0:
176,208,19794,5,8,0:0:0:0:
400,128,19956,1,8,0:0:0:0:
412,124,20038,1,0,0:0:0:0:
424,124,20119,1,8,0:0:0:0:
112,112,20281,5,8,0:0:0:0:
160,224,20605,5,0,0:0:0:0:
160,224,20767,2,0,P|192:208|240:208,1,75.000000298023,2|2,0:0|0:0,0:0:0:0:
256,128,21254,2,0,P|285:147|309:189,1,75.000000298023,2|0,0:0|0:0,0:0:0:0:
288,288,21740,5,12,0:1:0:0:
480,224,22065,6,0,L|496:160,1,52.4999986064433,8|0,0:1|0:0,0:0:0:0:
400,176,22389,2,0,P|400:112|368:64,1,104.999997212887,8|8,0:1|0:1,0:0:0:0:
272,32,22875,1,0,0:0:0:0:
272,32,23038,2,0,L|288:96,1,52.4999986064433,8|0,0:1|0:0,0:0:0:0:
256,176,23362,1,8,0:1:0:0:
256,176,23524,2,0,B|216:160|216:160|144:176,1,104.999997212887,0|0,0:0|0:0,0:0:0:0:
16,176,24011,2,0,P|32:160|80:144,1,52.4999986064433,8|0,0:1|0:0,0:0:0:0:
88,232,24335,6,0,P|144:260|204:248,1,104.999997212887,12|8,0:1|0:1,0:0:0:0:
224,336,24821,1,0,0:0:0:0:
224,336,24983,2,0,P|268:310|320:311,1,104.999997212887,8|8,0:1|0:1,0:0:0:0:
416,336,25470,1,0,0:0:0:0:
416,336,25632,2,0,P|416:304|424:272,1,52.4999986064433,8|0,0:1|0:0,0:0:0:0:
352,224,25956,1,8,0:1:0:0:
352,224,26119,2,0,P|368:160|368:112,1,104.999997212887,0|0,0:0|0:0,0:0:0:0:
352,32,26605,1,8,0:0:0:0:
336,16,26929,6,0,P|328:32|312:52,1,33.7499991041421,12|0,0:1|0:0,0:0:0:0:
208,112,27092,1,0,0:0:0:0:
224,16,27254,1,0,0:0:0:0:
288,192,27416,6,0,P|272:193|255:192,1,33.7499991041421,8|0,0:0|0:0,0:0:0:0:
128,168,27578,1,0,0:0:0:0:
320,96,27740,1,0,0:0:0:0:
144,48,27902,6,0,P|143:64|144:81,1,33.7499991041421,8|0,0:0|0:0,0:0:0:0:
176,240,28065,1,0,0:0:0:0:
353,91,28227,5,8,0:1:0:0:
96,144,28389,1,0,0:0:0:0:
96,144,28470,1,0,0:0:0:0:
96,144,28551,1,0,0:0:0:0:
272,192,28713,1,8,0:0:0:0:
160,320,28876,5,0,0:0:0:0:
336,368,29038,1,0,0:0:0:0:
144,304,29200,2,0,P|136:256|140:224,1,67.4999982082842,8|0,0:0|0:0,0:0:0:0:
160,64,29524,5,12,0:1:0:0:
304,144,29686,1,0,0:0:0:0:
192,176,29848,5,8,0:1:0:0:
336,48,30011,1,8,0:1:0:0:
384,224,30173,5,8,0:0:0:0:
240,32,30335,1,8,0:0:0:0:
464,64,30497,5,8,0:0:0:0:
256,240,30659,1,8,0:0:0:0:
336,48,30821,5,12,0:1:0:0:
480,272,30983,1,12,0:1:0:0:
480,288,31632,6,0,L|432:304,1,33.7499991041421,2|2,0:0|0:0,0:0:0:0:
336,368,31794,2,0,L|303:357,1,33.7499991041421,12|0,0:0|0:0,0:0:0:0:
192,288,31956,1,0,0:0:0:0:
176,295,32037,1,0,0:0:0:0:
160,304,32119,6,0,B|128:320|128:320|64:304,1,75.000000298023,8|0,0:1|0:0,0:0:0:0:
32,160,32443,2,0,P|16:208|32:256,1,75.000000298023,8|0,0:0|0:0,0:0:0:0:
112,208,32767,2,0,P|128:160|80:80,1,150.000000596046,8|8,0:1|0:0,0:0:0:0:
32,160,33254,1,0,0:0:0:0:
112,208,33416,6,0,L|192:192,1,75.000000298023,8|8,0:1|0:1,0:0:0:0:
272,240,33740,1,8,0:0:0:0:
235,108,33902,2,0,P|279:167|271:240,1,150.000000596046,8|8,0:1|0:1,0:0:0:0:
208,336,34389,2,0,P|256:332|288:344,1,75.000000298023,8|0,0:0|0:0,0:0:0:0:
384,384,34713,6,0,B|400:336|400:336|384:208,1,150.000000596046,8|8,0:1|0:0,0:0:0:0:
326,160,35200,1,0,0:0:0:0:
464,176,35362,2,0,P|400:144|312:172,1,150.000000596046,8|8,0:1|0:0,0:0:0:0:
288,256,35848,1,0,0:0:0:0:
192,160,36011,6,0,L|200:248,1,75.000000298023,8|8,0:1|0:1,0:0:0:0:
96,208,36335,1,8,0:0:0:0:
96,112,36497,2,0,P|144:64|240:64,1,150.000000596046,8|8,0:1|0:1,0:0:0:0:
336,96,36983,2,0,P|336:144|344:188,1,75.000000298023,8|8,0:0|0:0,0:0:0:0:
352,208,37227,1,8,0:0:0:0:
352,208,37308,5,8,0:1:0:0:
496,240,37470,2,0,L|448:256,1,37.5000001490115,0|0,0:0|0:0,0:0:0:0:
288,304,37632,1,8,0:0:0:0:
384,336,37794,1,8,0:1:0:0:
256,216,37956,2,0,L|272:112,1,75.000000298023,0|8,0:0|0:1,0:0:0:0:
288,32,38281,1,8,0:0:0:0:
368,112,38443,1,0,0:0:0:0:
176,64,38605,5,8,0:1:0:0:
272,144,38767,1,0,0:0:0:0:
216,0,38929,1,8,0:0:0:0:
136,128,39092,2,0,B|116:168|116:168|126:281,1,150.000000596046,8|2,0:1|0:0,0:0:0:0:
176,368,39578,1,10,0:0:0:0:
176,368,39740,1,2,0:0:0:0:
304,320,39902,6,0,L|308:256,1,37.5000001490115,8|0,0:1|0:0,0:0:0:0:
314,130,40065,1,8,0:1:0:0:
315,111,40146,1,8,0:1:0:0:
316,90,40227,6,0,P|389:89|392:6,1,157.49999581933,12|0,0:1|0:0,0:0:0:0:
240,32,40551,2,0,B|224:80|224:80|240:192,1,157.49999581933,12|0,0:1|0:0,0:0:0:0:
256,288,40875,1,8,0:0:0:0:
64,320,41038,5,8,0:0:0:0:
64,320,41119,1,8,0:0:0:0:
64,320,41200,2,0,P|80:256|80:208,1,112.500004738569,12|8,0:1|0:0,0:0:0:0:
80,96,41686,2,0,P|127:141|168:165,1,112.500004738569,12|8,0:1|0:1,0:0:0:0:
266,221,42173,2,0,P|221:233|192:250,1,56.2500023692846,8|0,0:0|0:0,0:0:0:0:
272,320,42497,5,12,0:1:0:0:
256,96,42659,1,12,0:1:0:0:
480,112,43146,5,8,0:1:0:0:
368,160,43308,1,8,0:1:0:0:
472,236,43470,1,8,0:1:0:0:
476,256,43551,1,0,0:0:0:0:
480,272,43632,2,0,B|440:264|440:264|352:288,1,112.500004738569,12|8,0:1|0:1,0:0:0:0:
224,320,44119,5,8,0:0:0:0:
256,144,44281,1,8,0:1:0:0:
320,336,44443,5,8,0:0:0:0:
192,224,44605,1,8,0:1:0:0:
128,304,44767,5,8,0:0:0:0:
288,240,44929,1,8,0:1:0:0:
288,240,45011,1,0,0:0:0:0:
288,240,45092,5,12,0:1:0:0:
80,200,45254,1,12,0:1:0:0:
256,144,45416,6,0,L|248:64,1,56.2500023692846,0|8,0:0|0:3,0:0:0:0:
248,64,45659,1,8,0:3:0:0:
248,64,45741,1,8,0:3:0:0:
160,144,45902,1,8,0:1:0:0:
336,48,46065,1,8,0:0:0:0:
96,64,46227,6,0,P|60:124|64:176,1,112.500004738569,12|8,0:1|0:1,0:0:0:0:
96,288,46713,1,8,0:0:0:0:
240,224,46875,1,8,0:1:0:0:
192,112,47038,1,8,0:0:0:0:
192,320,47200,5,8,0:0:0:0:
218,332,47281,1,8,0:0:0:0:
248,336,47362,1,8,0:0:0:0:
277,331,47443,1,0,0:0:0:0:
303,317,47524,1,8,0:1:0:0:
324,296,47605,1,0,0:0:0:0:
337,269,47686,6,0,L|332:185,1,75.000000298023,12|0,0:1|0:0,0:0:0:0:
332,194,47929,1,0,0:0:0:0:
332,194,48011,1,8,0:1:0:0:
440,264,48173,1,8,0:0:0:0:
448,160,48335,2,0,L|453:76,1,75.000000298023,8|8,0:1|0:1,0:0:0:0:
328,119,48659,2,0,L|332:193,1,75.000000298023,8|0,0:0|0:0,0:0:0:0:
368,32,48983,6,0,P|304:24|272:44,1,75.000000298023,12|0,0:1|0:0,0:0:0:0:
296,27,49227,1,0,0:0:0:0:
296,27,49308,1,8,0:1:0:0:
184,64,49470,1,8,0:0:0:0:
144,144,49632,2,0,P|208:152|240:132,1,75.000000298023,8|8,0:1|0:1,0:0:0:0:
48,112,49956,2,0,L|64:208,1,75.000000298023,8|8,0:0|0:1,0:0:0:0:
80,288,50281,5,12,0:1:0:0:
208,256,50443,1,0,0:0:0:0:
226,255,50524,1,0,0:0:0:0:
245,257,50605,1,8,0:1:0:0:
216,368,50767,1,8,0:0:0:0:
240,160,50929,2,0,P|288:128|320:128,1,75.000000298023,8|8,0:1|0:1,0:0:0:0:
416,240,51254,2,0,P|364:214|348:186,1,75.000000298023,8|0,0:0|0:0,0:0:0:0:
432,32,51578,6,0,B|460:76|460:76|440:160,1,112.500000447034,8|8,0:0|0:0,0:0:0:0:
432,152,51902,1,8,0:1:0:0:
448,0,52065,1,8,0:0:0:0:
304,64,52227,6,0,L|240:72,1,37.5000001490115,8|0,0:1|0:0,0:0:0:0:
112,128,52389,2,0,L|176:136,1,37.5000001490115,8|8,0:0|0:0,0:0:0:0:
336,176,52551,2,0,L|272:184,1,37.5000001490115,8|8,0:1|0:1,0:0:0:0:
96,240,52713,5,8,0:0:0:0:
94,258,52794,1,8,0:0:0:0:
97,277,52875,1,12,0:1:0:0:
128,64,53200,5,8,0:1:0:0:
81,151,53362,1,8,0:1:0:0:
220,212,53524,5,8,0:1:0:0:
166,142,53686,1,8,0:1:0:0:
186,294,53848,5,8,0:0:0:0:
307,200,54010,1,8,0:1:0:0:
133,222,54173,5,8,0:0:0:0:
241,364,54335,1,8,0:0:0:0:
255,131,54497,5,8,0:0:0:0:
186,294,54659,1,8,0:0:0:0:
362,273,54821,5,8,0:0:0:0:
203,62,54983,1,8,0:0:0:0:
100,306,55146,5,8,0:0:0:0:
366,108,55308,1,8,0:0:0:0:
122,39,55470,5,12,0:1:0:0:
154,374,55632,1,12,0:1:0:0:
176,352,56119,6,0,P|240:336|256:336,1,56.2500023692846,0|8,0:0|0:1,0:0:0:0:
432,320,56443,1,8,0:0:0:0:
304,271,56605,2,0,P|320:319|448:287,1,179.999995222091,12|8,0:1|0:1,0:0:0:0:
395,218,57092,6,0,P|383:243|378:271,1,56.2500023692846,8|0,0:0|0:0,0:0:0:0:
464,160,57254,2,0,P|458:132|447:106,1,56.2500023692846,0|0,0:0|0:0,0:0:0:0:
368,48,57416,1,8,0:0:0:0:
326,55,57497,1,8,0:0:0:0:
284,63,57578,1,8,0:0:0:0:
243,70,57659,1,8,0:0:0:0:
201,78,57740,6,0,B|195:119|206:147,1,56.2500002235172,8|0,0:0|0:0,0:0:0:0:
256,192,58065,6,0,P|208:176|96:256,1,179.999995222091,12|8,0:1|0:0,0:0:0:0:
200,280,58551,1,0,0:0:0:0:
304,320,58713,2,0,L|384:304,1,82.5000028455256,8|8,0:1|0:1,0:0:0:0:
512,240,59038,2,0,L|432:224,1,82.5000028455256,8|0,0:0|0:0,0:0:0:0:
336,160,59362,6,0,B|320:80|320:80|352:0,1,165.000005691051,8|8,0:1|0:0,0:0:0:0:
464,80,59848,1,0,0:0:0:0:
336,160,60011,2,0,P|256:176|224:160,1,82.5000028455256,8|8,0:1|0:1,0:0:0:0:
112,128,60335,2,0,P|192:112|224:128,1,82.5000028455256,8|0,0:0|0:0,0:0:0:0:
80,224,60659,6,0,P|24:176|32:72,1,165.000005691051,8|8,0:1|0:0,0:0:0:0:
96,16,61146,1,0,0:0:0:0:
192,64,61308,2,0,L|208:160,1,82.5000028455256,8|8,0:1|0:1,0:0:0:0:
66,305,61632,2,0,L|79:223,1,82.5000028455256,8|0,0:0|0:0,0:0:0:0:
192,256,61956,6,0,P|272:272|352:240,1,165.000005691051,10|10,0:1|0:0,0:0:0:0:
448,176,62443,1,2,0:0:0:0:
352,48,62605,2,0,L|360:168,1,82.5000028455256,12|8,0:1|0:1,0:0:0:0:
360,152,62848,1,8,0:0:0:0:
360,152,62929,1,8,0:0:0:0:
232,16,63092,1,8,0:0:0:0:
238,35,63173,1,8,0:0:0:0:
241,55,63254,6,0,L|224:240,1,165.000005691051,12|8,0:1|0:0,0:0:0:0:
129,270,63740,1,0,0:0:0:0:
48,192,63902,2,0,P|16:252|20:296,1,82.5000028455256,8|8,0:1|0:1,0:0:0:0:
176,336,64227,2,0,P|140:278|99:259,1,82.5000028455256,8|0,0:0|0:0,0:0:0:0:
192,368,64551,6,0,B|256:384|256:384|352:352,1,165.000005691051,10|10,0:1|0:0,0:0:0:0:
448,320,65038,1,0,0:0:0:0:
477,142,65200,2,0,L|464:224,1,82.5000028455256,10|8,0:1|0:1,0:0:0:0:
336,96,65524,2,0,L|322:14,1,82.5000028455256,10|0,0:0|0:0,0:0:0:0:
384,176,65848,6,0,P|348:188|284:172,1,82.5000028455256,8|0,0:1|0:0,0:0:0:0:
128,112,66173,5,8,0:0:0:0:
208,32,66335,1,8,0:1:0:0:
208,160,66497,5,8,0:0:0:0:
128,0,66659,1,8,0:1:0:0:
128,0,66740,1,8,0:1:0:0:
128,0,66821,5,8,0:0:0:0:
48,192,66983,1,8,0:1:0:0:
32,16,67146,6,0,P|32:48|48:96,1,52.4999986064433,12|0,0:1|0:0,0:0:0:0:
112,288,67308,2,0,P|112:256|128:208,1,52.4999986064433,8|0,0:1|0:0,0:0:0:0:
272,96,67470,1,8,0:0:0:0:
272,69,67551,1,8,0:0:0:0:
267,44,67632,1,8,0:1:0:0:
128,112,67794,5,12,0:1:0:0:
288,240,67956,1,8,0:1:0:0:
272,96,68119,1,8,0:0:0:0:
128,256,68281,1,0,0:0:0:0:
400,304,68443,6,0,P|416:224|368:128,1,179.999995222091,12|8,0:1|0:0,0:0:0:0:
208,32,68929,1,8,0:1:0:0:
140,162,69092,2,0,P|180:182|232:180,1,89.9999976110456,8|8,0:0|0:1,0:0:0:0:
461,156,69416,2,0,P|421:135|369:138,1,89.9999976110456,8|8,0:0|0:1,0:0:0:0:
240,352,69740,6,0,B|208:304|208:304|225:182,1,179.999995222091,8|8,0:0|0:0,0:0:0:0:
400,224,70227,1,8,0:1:0:0:
272,32,70389,1,8,0:0:0:0:
128,128,70551,1,8,0:1:0:0:
107,137,70632,1,0,0:0:0:0:
85,143,70713,1,8,0:0:0:0:
80,16,70875,1,8,0:1:0:0:
144,272,71038,6,0,P|224:288|320:256,1,179.999995222091,10|8,0:0|0:0,0:0:0:0:
224,176,71524,1,8,0:1:0:0:
288,368,71686,2,0,L|384:352,1,89.9999976110456,8|8,0:0|0:1,0:0:0:0:
512,192,72011,2,0,L|416:176,1,89.9999976110456,8|8,0:0|0:1,0:0:0:0:
256,208,72335,6,0,P|270:104|341:27,1,179.999995222091,8|8,0:0|0:0,0:0:0:0:
512,0,72821,1,8,0:1:0:0:
420,181,72983,1,12,0:1:0:0:
314,45,73146,1,8,0:1:0:0:
292,38,73227,1,8,0:0:0:0:
270,35,73308,1,8,0:0:0:0:
128,128,73470,1,8,0:0:0:0:
149,134,73551,1,8,0:0:0:0:
171,135,73632,6,0,P|176:164|175:210,1,75.000000298023,12|0,0:1|0:0,0:0:0:0:
160,320,73956,1,8,0:1:0:0:
160,320,74119,2,0,P|182:301|222:279,1,75.000000298023,8|0,0:0|0:0,0:0:0:0:
320,224,74443,1,0,0:0:0:0:
416,208,74605,1,8,0:0:0:0:
382,300,74767,1,0,0:0:0:0:
354,132,74929,6,0,P|352:72|368:32,1,75.000000298023,8|0,0:1|0:0,0:0:0:0:
448,96,75254,1,8,0:1:0:0:
320,144,75416,1,8,0:0:0:0:
208,48,75578,2,0,P|216:104|208:152,1,90.0000003576276,8|8,0:1|0:1,0:0:0:0:
208,160,75902,1,0,0:0:0:0:
96,96,76065,1,8,0:1:0:0:
152,256,76227,6,0,B|182:291|236:273|236:273|254:286|254:286|308:268|373:314,1,225.000009477138,12|8,0:1|0:1,0:0:0:0:
432,352,76713,1,8,0:0:0:0:
304,176,77038,5,8,0:0:0:0:
304,176,77119,1,8,0:0:0:0:
304,176,77200,6,0,P|288:128|432:96,1,225.000009477138,12|8,0:1|0:1,0:0:0:0:
364,129,77686,1,8,0:0:0:0:
112,144,78011,5,8,0:0:0:0:
112,144,78092,1,0,0:0:0:0:
112,144,78173,1,8,0:1:0:0:
217,113,78335,1,8,0:0:0:0:
189,223,78497,1,8,0:1:0:0:
112,144,78659,2,0,L|104:97,1,30.0000001192092,8|0,0:0|0:0,0:0:0:0:
81,252,78821,5,12,0:1:0:0:
217,113,78984,1,0,0:0:0:0:
29,63,79146,5,8,0:1:0:0:
189,223,79308,1,8,0:1:0:0:
247,4,79470,5,8,0:0:0:0:
81,252,79632,1,8,0:0:0:0:
298,194,79794,5,8,0:0:0:0:
139,34,79957,1,8,0:0:0:0:
159,330,80119,5,12,0:1:0:0:
247,4,80281,1,12,0:1:0:0:
159,330,81092,6,0,P|206:277|240:368,1,196.875002659857,8|0,0:0|0:0,0:0:0:0:
144,320,81416,6,0,P|144:272|160:240,1,82.5000028455256,4|2,0:0|0:0,0:0:0:0:
64,240,81902,2,0,P|64:192|48:160,1,82.5000028455256,0|2,0:0|0:0,0:0:0:0:
144,144,82389,6,0,P|176:144|224:168,1,82.5000028455256,0|2,0:0|0:0,0:0:0:0:
240,256,82875,2,0,P|276:275|316:277,1,82.5000028455256,0|0,0:0|0:0,0:0:0:0:
416,256,83362,6,0,L|432:208,1,41.2500014227628,2|0,0:0|0:0,0:0:0:0:
352,160,83686,2,0,L|352:112,1,41.2500014227628,2|0,0:0|0:0,0:0:0:0:
256,96,84011,6,0,P|224:80|176:80,1,82.5000028455256,2|0,0:0|0:0,0:0:0:0:
184,240,84497,2,0,P|200:208|200:160,1,82.5000028455256,2|0,0:0|0:0,0:0:0:0:
40,168,84983,6,0,P|72:184|120:184,1,82.5000028455256,2|2,0:0|0:0,0:0:0:0:
112,24,85470,2,0,P|96:55|96:103,1,82.5000028455256,0|0,0:0|0:0,0:0:0:0:
178,79,85956,6,0,L|232:72,1,41.2500014227628,2|0,0:0|0:0,0:0:0:0:
320,56,86281,1,2,0:0:0:0:
352,136,86443,1,0,0:0:0:0:
336,224,86605,6,0,L|288:216,1,37.5000001490115,2|0,0:0|0:0,0:0:0:0:
232,272,86929,1,0,0:0:0:0:
232,272,87092,2,0,L|214:226,1,37.5000001490115,2|0,0:0|0:0,0:0:0:0:
138,205,87416,5,0,0:0:0:0:
138,205,87578,2,0,L|168:167,1,37.5000001490115,2|0,0:0|0:0,0:0:0:0:
149,90,87902,1,0,0:0:0:0:
149,90,88065,2,0,L|197:98,1,37.5000001490115,2|0,0:0|0:0,0:0:0:0:
255,42,88389,1,0,0:0:0:0:
336,96,88551,5,2,0:0:0:0:
368,88,88713,1,2,0:0:0:0:
400,80,88875,1,2,0:0:0:0:
480,128,89038,5,2,0:0:0:0:
