osu file format v14

[General]
AudioFilename: audio.mp3
AudioLeadIn: 0
PreviewTime: 57375
Countdown: 0
SampleSet: Soft
StackLeniency: 0.4
Mode: 0
LetterboxInBreaks: 0
WidescreenStoryboard: 1

[Editor]
Bookmarks: 68443,81416,89038
DistanceSpacing: 1.5
BeatDivisor: 4
GridSize: 4
TimelineZoom: 1.7

[Metadata]
Title:km/h (TV Size)
TitleUnicode:♡km/h (TV Size)
Artist:Ray
ArtistUnicode:Ray
Creator:Sotarks
Version:Lami's Extreme
Source:ろんぐらいだぁす!
Tags:opening op long riders! heart kilometer per hour kmh armin a_r_m_i_n akitoshi corinn -laura- charlotte irohas mugiwarasekai kalibe kyuukai yaleufeu lami intoon snownino_ owens ron shunao shogunmoon [r]
BeatmapID:1736333
BeatmapSetID:828757

[Difficulty]
HPDrainRate:6
CircleSize:3.8
OverallDifficulty:9.3
ApproachRate:9.3
SliderMultiplier:1.78
SliderTickRate:1

[Events]
//Background and Video events
0,0,"BG.jpg",0,0
//Break Periods
//Storyboard Layer 0 (Background)
//Storyboard Layer 1 (Fail)
//Storyboard Layer 2 (Pass)
//Storyboard Layer 3 (Foreground)
//Storyboard Sound Samples

[TimingPoints]
984,324.324324324324,4,2,1,40,1,0
984,-142.857142857143,4,2,1,40,0,0
6173,-125,4,2,1,45,0,0
8767,-125,4,2,1,50,0,0
11038,-83.3333333333333,4,2,1,40,0,0
11281,-83.3333333333333,4,2,1,5,0,0
11362,-100,4,2,1,60,0,0
20767,-125,4,2,1,40,0,0
21740,-133.333333333333,4,2,1,50,0,0
26929,-133.333333333333,4,2,1,55,0,0
31632,-90.9090909090909,4,2,1,55,0,0
31794,-76.9230769230769,4,2,1,50,0,0
32119,-100,4,2,1,60,0,0
40227,-71.4285714285714,4,2,1,60,0,0
41200,-100,4,2,1,60,0,0
42497,-100,4,2,1,55,0,0
47686,-111.111111111111,4,2,1,55,0,0
52875,-100,4,2,1,60,0,0
56605,-100,4,2,1,60,0,0
57740,-83.3333333333333,4,2,1,60,0,0
58065,-95.2380952380952,4,2,1,70,0,1
68119,-95.2380952380952,4,2,1,60,0,0
68443,-95.2380952380952,4,2,1,70,0,1
73632,-100,4,2,1,70,0,0
76227,-95.2380952380952,4,2,1,70,0,0
76713,-95.2380952380952,4,2,1,60,0,0
77200,-95.2380952380952,4,2,1,70,0,0
77686,-95.2380952380952,4,2,1,60,0,0
78011,-95.2380952380952,4,2,1,70,0,0
78659,-95.2380952380952,4,2,1,60,0,0
78821,-95.2380952380952,4,2,1,70,0,1
80281,-95.2380952380952,4,2,1,60,0,0
81092,-80,4,2,1,70,0,1
81335,-125,4,2,1,5,0,1
81416,-125,4,2,1,30,0,0
86605,-125,4,2,1,10,0,0

[Colours]
Combo1 : 136,196,255
Combo2 : 255,128,128
Combo3 : 255,255,128

[HitObjects]
213,226,984,6,0,P|221:192|236:151,1,62.2999980987549,2|0,0:0|0:0,0:0:0:0:
299,45,1308,1,0,0:0:0:0:
327,139,1470,1,2,0:0:0:0:
201,72,1632,2,0,P|171:62|141:55,1,62.2999980987549,0|0,0:0|0:0,0:0:0:0:
70,175,1956,2,0,P|99:165|129:158,1,62.2999980987549,2|0,0:0|0:0,0:0:0:0:
310,242,2281,5,2,0:0:0:0:
164,304,2443,1,2,0:0:0:0:
212,210,2605,1,0,0:0:0:0:
262,336,2767,1,2,0:0:0:0:
408,274,2929,2,0,P|405:201|357:150,1,124.59999619751,2|0,0:0|0:0,0:0:0:0:
212,210,3416,1,8,0:1:0:0:
164,304,3578,6,0,P|133:296|104:287,1,62.2999980987549,10|0,0:1|0:0,0:0:0:0:
10,191,3902,2,0,P|39:181|69:174,1,62.2999980987549,0|10,0:0|0:1,0:0:0:0:
212,210,4227,1,0,0:0:0:0:
242,106,4389,1,0,0:0:0:0:
310,242,4551,1,0,3:0:0:0:
256,138,4713,1,8,0:1:0:0:
164,304,4875,6,0,P|154:333|147:363,1,62.2999980987549,8|0,0:1|0:0,0:0:0:0:
326,301,5200,2,0,P|318:270|309:241,1,62.2999980987549,0|0,0:0|0:0,0:0:0:0:
154,86,5524,1,10,0:0:0:0:
359,155,5686,1,8,0:3:0:0:
212,210,5848,1,8,0:1:0:0:
274,73,6011,1,8,0:1:0:0:
310,242,6173,6,0,P|389:251|441:214,1,142.4,14|0,0:1|0:0,0:0:0:0:
498,154,6659,1,10,0:1:0:0:
498,154,6821,2,0,L|479:311,1,142.4,8|2,0:0|0:0,0:0:0:0:
298,355,7308,5,8,0:2:0:0:
298,355,7389,1,8,0:2:0:0:
298,355,7470,2,0,B|254:344|254:344|202:356|202:356|155:343,1,142.4,14|8,0:1|0:1,0:0:0:0:
182,187,7956,1,2,0:0:0:0:
181,186,8119,2,0,P|192:220|192:256,1,71.2,8|8,0:0|0:1,0:0:0:0:
63,370,8443,2,0,P|61:334|72:300,1,71.2,10|0,0:0|0:0,0:0:0:0:
275,131,8767,5,14,0:1:0:0:
181,186,8929,1,0,0:0:0:0:
132,94,9092,5,8,0:1:0:0:
302,139,9254,1,8,0:1:0:0:
97,252,9416,5,8,0:1:0:0:
153,64,9578,1,8,0:1:0:0:
329,264,9740,5,8,0:1:0:0:
257,32,9902,1,8,0:1:0:0:
55,162,10065,5,10,0:0:0:0:
375,63,10227,1,10,0:0:0:0:
148,341,10389,5,10,0:0:0:0:
460,134,10551,1,10,0:0:0:0:
118,13,10713,5,10,0:0:0:0:
248,374,10875,1,10,0:0:0:0:
360,158,11038,6,0,L|326:149,7,26.6999991851807,10|0|0|0|0|0|0|0,0:0|0:0|0:0|0:0|0:0|0:0|0:0|0:0,0:0:0:0:
314,240,11362,6,0,P|236:252|169:184,2,178,12|8|8,0:1|0:0|0:1,0:0:0:0:
432,97,12173,1,8,0:1:0:0:
455,233,12335,2,0,P|446:287|424:333,1,89,8|0,0:0|0:0,0:0:0:0:
235,384,12659,6,0,P|226:341|222:294,1,89,10|0,0:1|0:0,0:0:0:0:
347,63,12983,2,0,P|343:107|334:150,1,89,10|8,0:0|0:1,0:0:0:0:
147,108,13308,2,0,P|191:111|231:130,1,89,10|8,0:1|0:1,0:0:0:0:
432,318,13632,2,0,P|391:336|347:340,1,89,10|8,0:0|0:1,0:0:0:0:
135,268,13956,6,0,P|190:214|286:229,1,178,10|8,0:1|0:0,0:0:0:0:
347,340,14443,1,0,0:0:0:0:
449,160,14605,2,0,P|462:117|464:73,1,89,10|0,0:1|0:0,0:0:0:0:
245,189,14929,2,0,P|247:233|260:275,1,89,8|0,0:0|0:0,0:0:0:0:
335,107,15254,5,10,0:1:0:0:
354,218,15416,1,2,0:0:0:0:
464,73,15578,1,10,0:0:0:0:
245,189,15740,2,0,L|160:163,1,89,2|8,0:0|0:1,0:0:0:0:
44,314,16065,1,10,0:0:0:0:
66,280,16146,1,8,0:0:0:0:
96,261,16227,1,8,0:0:0:0:
126,255,16308,1,8,0:0:0:0:
152,255,16389,1,8,0:1:0:0:
172,263,16470,1,0,0:0:0:0:
187,271,16551,6,0,P|271:287|335:230,1,178,14|8,0:1|0:0,0:0:0:0:
379,2,17038,1,0,0:0:0:0:
440,190,17200,1,8,0:1:0:0:
480,67,17362,1,8,0:1:0:0:
335,229,17524,2,0,P|291:221|232:215,1,89,8|0,0:0|0:0,0:0:0:0:
62,70,17848,6,0,P|125:12|210:28,1,178,10|8,0:1|0:0,0:0:0:0:
299,117,18335,1,0,0:0:0:0:
255,317,18497,2,0,P|211:307|172:286,1,89,8|8,0:1|0:1,0:0:0:0:
62,70,18821,1,8,0:0:0:0:
247,216,18983,1,0,0:0:0:0:
247,216,19065,1,8,0:0:0:0:
247,216,19146,5,10,0:1:0:0:
61,254,19308,1,2,0:0:0:0:
299,117,19470,5,10,0:1:0:0:
348,363,19632,1,10,0:1:0:0:
153,110,19794,5,10,0:0:0:0:
441,277,19956,1,8,0:0:0:0:
93,360,20119,5,8,0:0:0:0:
424,126,20281,1,8,0:0:0:0:
424,126,20767,6,0,L|434:159,3,23.7333333333333,2|0|0|0,3:2|0:0|0:0|0:0,0:0:0:0:
57,322,21740,6,0,P|79:346|107:364,1,66.7500025463105,12|0,0:1|0:0,0:0:0:0:
146,273,22065,2,0,P|138:240|123:210,1,66.7500025463105,10|0,0:1|0:0,0:0:0:0:
45,151,22389,2,0,P|104:114|164:123,1,133.500005092621,10|8,0:1|0:1,0:0:0:0:
244,187,22875,1,2,0:0:0:0:
308,55,23038,6,0,L|373:44,1,66.7500025463105,10|2,0:1|0:0,0:0:0:0:
472,30,23362,1,8,0:1:0:0:
457,182,23524,2,0,P|392:190|337:154,1,133.500005092621,2|0,0:0|0:0,0:0:0:0:
204,28,24011,2,0,L|139:17,1,66.7500025463105,10|0,0:1|0:0,0:0:0:0:
38,243,24335,5,12,0:1:0:0:
38,243,24659,2,0,P|43:211|57:177,1,66.7500025463105,10|0,0:1|0:0,0:0:0:0:
149,232,24983,2,0,P|213:240|268:204,1,133.500005092621,10|8,0:1|0:1,0:0:0:0:
308,110,25470,1,2,0:0:0:0:
355,255,25632,6,0,L|344:320,1,66.7500025463105,10|2,0:1|0:0,0:0:0:0:
265,383,25956,1,8,0:1:0:0:
184,257,26119,2,0,L|52:234,1,133.500005092621,2|0,0:0|0:0,0:0:0:0:
95,381,26605,2,0,P|131:372|159:358,1,66.7500025463105,10|0,0:0|0:0,0:0:0:0:
215,109,26929,5,14,0:1:0:0:
398,179,27092,1,0,0:0:0:0:
275,301,27254,1,0,0:0:0:0:
354,79,27416,5,8,0:0:0:0:
512,193,27578,1,0,0:0:0:0:
362,279,27740,1,0,0:0:0:0:
474,50,27902,5,10,0:0:0:0:
452,279,28065,1,0,0:0:0:0:
331,73,28227,5,10,0:1:0:0:
148,143,28389,1,0,0:0:0:0:
271,265,28551,1,0,0:0:0:0:
192,43,28713,5,8,0:0:0:0:
34,157,28875,1,0,0:0:0:0:
184,243,29038,1,0,0:0:0:0:
75,13,29200,5,8,0:0:0:0:
93,247,29362,1,2,0:0:0:0:
326,190,29524,5,14,0:1:0:0:
209,330,29686,1,0,0:0:0:0:
135,164,29848,5,8,0:1:0:0:
357,282,30011,1,8,0:1:0:0:
393,70,30173,5,10,0:0:0:0:
296,354,30335,1,8,0:0:0:0:
144,69,30497,5,8,0:0:0:0:
444,261,30659,1,8,0:0:0:0:
209,0,30821,5,14,0:1:0:0:
100,361,30983,1,14,0:1:0:0:
100,361,31632,6,0,L|114:304,1,48.9500014938355,2|2,0:0|0:0,0:0:0:0:
132,234,31794,2,0,P|183:214|274:291,1,173.549992055512,14|0,0:0|0:0,0:0:0:0:
282,363,32119,6,0,P|329:353|373:346,1,89,8|0,0:1|0:0,0:0:0:0:
455,173,32443,2,0,P|408:163|364:156,1,89,10|0,0:0|0:0,0:0:0:0:
189,297,32767,1,10,0:1:0:0:
353,254,32929,1,0,0:0:0:0:
230,110,33092,2,0,P|237:153|246:197,1,89,8|2,0:0|0:0,0:0:0:0:
443,287,33416,5,10,0:1:0:0:
367,156,33578,1,10,0:1:0:0:
282,363,33740,1,8,0:0:0:0:
246,197,33902,2,0,P|169:182|84:254,1,178,10|8,0:1|0:1,0:0:0:0:
282,363,34389,2,0,P|325:354|369:346,1,89,10|0,0:0|0:0,0:0:0:0:
384,78,34713,6,0,P|366:165|351:253,2,178,8|10|10,0:1|0:0|0:1,0:0:0:0:
460,274,35524,1,0,0:0:0:0:
282,363,35686,2,0,P|245:331|225:287,1,89,8|2,0:0|0:0,0:0:0:0:
300,82,36011,5,10,0:1:0:0:
352,253,36173,1,10,0:1:0:0:
471,73,36335,1,8,0:0:0:0:
262,182,36497,2,0,P|174:164|86:149,1,178,10|8,0:1|0:1,0:0:0:0:
174,366,36983,1,10,0:0:0:0:
352,253,37146,5,10,0:0:0:0:
352,253,37227,1,8,0:0:0:0:
352,253,37308,2,0,P|374:208|371:148,1,89,8|0,0:1|0:0,0:0:0:0:
210,11,37632,2,0,P|188:56|191:116,1,89,8|0,0:0|0:0,0:0:0:0:
460,92,37956,2,0,P|419:62|359:55,1,89,0|8,0:0|0:1,0:0:0:0:
262,182,38281,1,10,0:0:0:0:
382,54,38443,1,2,0:0:0:0:
461,219,38605,6,0,P|470:262|478:306,1,89,8|0,0:1|0:0,0:0:0:0:
304,384,38929,1,8,0:0:0:0:
239,284,39092,2,0,P|173:272|107:263,1,133.5,0|0,0:0|0:0,0:0:0:0:
32,247,39416,5,2,0:0:0:0:
96,90,39578,1,10,0:0:0:0:
175,170,39740,1,2,0:0:0:0:
0,130,39902,1,8,0:1:0:0:
197,79,40065,5,8,0:1:0:0:
197,79,40146,1,8,0:1:0:0:
197,79,40227,2,0,P|263:138|241:235,1,186.899994296265,14|0,0:1|0:0,0:0:0:0:
165,319,40551,2,0,B|220:314|259:368|259:368|291:349|291:349|343:360|379:288,1,249.19999239502,14|8,0:1|0:0,0:0:0:0:
494,68,41038,5,8,0:0:0:0:
494,68,41119,1,8,0:0:0:0:
494,68,41200,2,0,P|406:49|319:33,1,178,14|8,0:1|0:0,0:0:0:0:
247,227,41686,2,0,P|349:221|398:158,1,178,14|8,0:1|0:1,0:0:0:0:
221,9,42173,1,10,0:0:0:0:
221,9,42254,1,0,0:0:0:0:
221,9,42335,1,0,0:0:0:0:
44,245,42497,5,12,0:1:0:0:
292,125,42659,1,12,0:1:0:0:
292,125,43146,1,10,0:1:0:0:
232,253,43308,1,8,0:1:0:0:
136,91,43470,1,8,0:1:0:0:
345,229,43632,6,0,P|399:169|395:76,1,178,14|10,0:1|0:1,0:0:0:0:
136,91,44119,1,10,0:0:0:0:
232,253,44281,1,8,0:1:0:0:
292,125,44443,5,10,0:0:0:0:
112,224,44605,1,8,0:1:0:0:
112,224,44686,1,0,0:0:0:0:
112,224,44767,1,8,0:0:0:0:
48,34,44929,1,8,0:1:0:0:
345,229,45092,5,12,0:1:0:0:
60,321,45254,1,12,0:1:0:0:
60,321,45578,2,0,L|12:305,2,44.5,8|8|10,0:3|0:3|0:3,0:0:0:0:
112,224,45902,1,8,0:1:0:0:
200,381,46065,1,8,0:0:0:0:
344,228,46227,6,0,P|350:142|294:76,1,178,14|10,0:1|0:1,0:0:0:0:
78,127,46713,1,10,0:0:0:0:
241,180,46875,1,8,0:1:0:0:
29,244,47038,1,8,0:0:0:0:
176,57,47200,1,8,0:0:0:0:
176,57,47281,1,8,0:0:0:0:
176,57,47362,1,8,0:0:0:0:
344,228,47524,5,0,0:0:0:0:
344,228,47605,1,0,0:0:0:0:
344,228,47686,2,0,P|382:219|422:212,1,80.0999975555421,12|0,0:1|0:0,0:0:0:0:
507,287,48011,1,2,0:0:0:0:
474,112,48173,1,8,0:0:0:0:
354,338,48335,2,0,P|316:329|276:322,1,80.0999975555421,10|8,0:1|0:1,0:0:0:0:
165,140,48659,1,10,0:0:0:0:
181,261,48821,5,0,0:0:0:0:
181,261,48902,1,0,0:0:0:0:
181,261,48983,2,0,P|174:300|164:339,1,80.0999975555421,12|0,0:1|0:0,0:0:0:0:
152,372,49227,1,0,0:0:0:0:
152,372,49308,1,10,0:1:0:0:
81,220,49470,1,8,0:0:0:0:
275,321,49632,2,0,P|298:286|302:231,1,80.0999975555421,10|8,0:1|0:1,0:0:0:0:
261,77,49956,1,10,0:0:0:0:
170,149,50119,5,8,0:1:0:0:
170,149,50200,1,0,0:0:0:0:
170,149,50281,2,0,P|131:139|91:131,1,80.0999975555421,12|0,0:1|0:0,0:0:0:0:
58,130,50524,1,0,0:0:0:0:
58,130,50605,1,10,0:1:0:0:
50,305,50767,1,8,0:0:0:0:
232,219,50929,2,0,P|271:226|304:248,1,80.0999975555421,10|8,0:1|0:1,0:0:0:0:
393,382,51254,1,10,0:0:0:0:
434,281,51416,5,0,0:0:0:0:
434,281,51497,1,0,0:0:0:0:
434,281,51578,2,0,P|427:242|417:203,1,80.0999975555421,10|8,0:0|0:0,0:0:0:0:
405,170,51821,1,8,0:0:0:0:
405,170,51902,1,8,0:1:0:0:
313,28,52065,1,10,0:0:0:0:
287,157,52227,5,8,0:1:0:0:
261,187,52308,1,0,0:0:0:0:
224,200,52389,1,8,0:0:0:0:
185,193,52470,1,8,0:0:0:0:
156,167,52551,1,10,0:1:0:0:
144,129,52632,1,8,0:1:0:0:
153,90,52713,1,8,0:0:0:0:
181,62,52794,1,8,0:0:0:0:
219,52,52875,1,14,0:1:0:0:
219,52,53200,5,8,0:1:0:0:
287,157,53362,1,10,0:1:0:0:
144,129,53524,5,10,0:1:0:0:
312,66,53686,1,8,0:1:0:0:
262,248,53848,5,8,0:0:0:0:
125,39,54011,1,8,0:1:0:0:
378,133,54173,5,8,0:0:0:0:
124,283,54335,1,8,0:0:0:0:
224,19,54497,5,8,0:0:0:0:
328,315,54659,1,8,0:0:0:0:
404,43,54821,5,8,0:0:0:0:
236,338,54983,1,8,0:0:0:0:
125,39,55146,5,8,0:0:0:0:
420,292,55308,1,8,0:0:0:0:
43,384,55470,5,14,0:1:0:0:
468,159,55632,1,14,0:1:0:0:
468,159,56281,5,8,0:1:0:0:
328,315,56443,1,10,0:0:0:0:
277,88,56605,2,0,P|211:31|124:38,1,178,14|8,0:1|0:1,0:0:0:0:
29,286,57092,1,8,0:0:0:0:
178,140,57254,1,0,0:0:0:0:
277,363,57416,5,10,0:0:0:0:
277,363,57497,1,8,0:0:0:0:
277,363,57578,1,8,0:0:0:0:
355,147,57740,2,0,P|419:135|406:209,1,160.199995111084,10|0,0:0|0:0,0:0:0:0:
330,228,58065,6,0,P|292:202|317:73,1,186.899994296265,14|8,0:1|0:0,0:0:0:0:
505,253,58551,1,0,0:0:0:0:
368,381,58713,2,0,P|323:370|276:362,1,93.4499971481324,10|8,0:1|0:1,0:0:0:0:
84,265,59038,1,10,0:0:0:0:
138,113,59200,1,2,0:0:0:0:
330,228,59362,6,0,P|374:240|469:144,1,186.899994296265,8|8,0:1|0:0,0:0:0:0:
385,13,59848,1,0,0:0:0:0:
244,159,60011,1,10,0:1:0:0:
191,23,60173,1,8,0:1:0:0:
117,191,60335,2,0,P|71:179|25:172,1,93.4499971481324,10|0,0:0|0:0,0:0:0:0:
155,350,60659,6,0,P|245:327|337:312,1,186.899994296265,10|8,0:1|0:0,0:0:0:0:
445,120,61146,1,2,0:0:0:0:
328,189,61308,2,0,P|273:180|238:153,1,93.4499971481324,10|8,0:1|0:1,0:0:0:0:
165,38,61632,1,10,0:0:0:0:
113,223,61794,1,2,0:0:0:0:
312,95,61956,5,10,0:1:0:0:
139,131,62119,1,0,0:0:0:0:
350,276,62281,5,10,0:0:0:0:
207,244,62443,1,2,0:0:0:0:
417,169,62605,5,14,0:1:0:0:
443,352,62767,1,8,0:1:0:0:
443,352,62848,1,8,0:0:0:0:
443,352,62929,1,10,0:0:0:0:
512,134,63092,5,8,0:0:0:0:
512,134,63173,1,8,0:0:0:0:
512,134,63254,2,0,P|454:75|336:108,1,186.899994296265,14|8,0:1|0:0,0:0:0:0:
257,237,63740,1,0,0:0:0:0:
153,151,63902,2,0,P|107:139|61:132,1,93.4499971481324,10|8,0:1|0:1,0:0:0:0:
126,308,64227,1,8,0:0:0:0:
257,237,64389,6,0,P|282:198|287:152,1,93.4499971481324,2|10,0:0|0:1,0:0:0:0:
240,16,64713,1,2,0:0:0:0:
153,151,64875,1,8,0:0:0:0:
114,38,65038,1,0,0:0:0:0:
287,152,65200,2,0,P|333:140|379:133,1,93.4499971481324,10|8,0:1|0:1,0:0:0:0:
272,338,65524,2,0,P|225:332|187:307,1,93.4499971481324,10|0,0:0|0:0,0:0:0:0:
114,38,65848,5,10,0:1:0:0:
114,38,66173,5,8,0:0:0:0:
353,137,66335,1,10,0:1:0:0:
86,221,66497,5,8,0:0:0:0:
231,27,66659,1,8,0:1:0:0:
231,27,66740,1,8,0:1:0:0:
231,27,66821,1,8,0:0:0:0:
362,263,66983,1,8,0:1:0:0:
130,134,67146,5,12,0:1:0:0:
348,29,67308,1,0,0:0:0:0:
173,265,67470,1,8,0:0:0:0:
173,265,67551,1,8,0:0:0:0:
173,265,67632,1,8,0:1:0:0:
114,38,67794,5,14,0:1:0:0:
387,136,67956,1,8,0:1:0:0:
91,318,68119,1,10,0:0:0:0:
91,318,68443,6,0,P|75:269|90:215,1,93.4499971481324,14|0,0:1|0:0,0:0:0:0:
340,54,68767,5,8,0:0:0:0:
173,265,68929,1,8,0:1:0:0:
232,24,69092,5,10,0:0:0:0:
266,304,69254,1,8,0:1:0:0:
447,83,69416,5,8,0:0:0:0:
361,343,69578,1,10,0:1:0:0:
152,102,69740,5,10,0:0:0:0:
349,251,69902,1,0,0:0:0:0:
79,226,70065,5,8,0:0:0:0:
340,54,70227,1,8,0:1:0:0:
456,382,70389,5,10,0:0:0:0:
254,204,70551,1,8,0:1:0:0:
254,204,70632,1,0,0:0:0:0:
254,204,70713,1,10,0:0:0:0:
447,83,70875,1,8,0:1:0:0:
266,304,71038,6,0,P|220:292|174:285,1,93.4499971481324,8|0,0:0|0:0,0:0:0:0:
43,111,71362,5,8,0:0:0:0:
254,204,71524,1,10,0:1:0:0:
76,337,71686,5,10,0:0:0:0:
152,102,71848,1,8,0:1:0:0:
345,372,72011,5,8,0:0:0:0:
261,93,72173,1,10,0:1:0:0:
76,337,72335,5,10,0:0:0:0:
353,154,72497,1,0,0:0:0:0:
43,111,72659,5,8,0:0:0:0:
266,304,72821,1,8,0:1:0:0:
371,25,72983,5,12,0:1:0:0:
146,218,73146,1,10,0:1:0:0:
146,218,73227,1,8,0:0:0:0:
146,218,73308,1,10,0:0:0:0:
443,344,73470,1,10,0:0:0:0:
443,344,73551,1,8,0:0:0:0:
443,344,73632,6,0,P|466:299|461:251,1,89,12|0,0:1|0:0,0:0:0:0:
334,147,73956,1,8,0:1:0:0:
232,236,74119,2,0,P|187:224|143:217,1,89,8|0,0:0|0:0,0:0:0:0:
81,35,74443,1,0,0:0:0:0:
19,191,74605,1,10,0:0:0:0:
168,103,74767,1,2,0:0:0:0:
223,327,74929,6,0,P|266:320|308:291,1,89,10|0,0:1|0:0,0:0:0:0:
352,60,75254,2,0,P|340:103|333:146,1,89,8|8,0:1|0:0,0:0:0:0:
481,275,75578,2,0,P|470:209|453:144,2,133.5,10|2|10,0:1|0:0|0:1,0:0:0:0:
297,384,76227,6,0,P|222:334|223:245,1,186.899994296265,14|8,0:1|0:1,0:0:0:0:
352,60,76713,1,10,0:0:0:0:
352,60,77038,2,0,L|342:108,1,46.7249985740662,8|8,0:0|0:0,0:0:0:0:
284,168,77200,6,0,P|193:144|101:129,1,186.899994296265,14|8,0:1|0:1,0:0:0:0:
113,326,77686,1,10,0:0:0:0:
113,326,78011,1,10,0:0:0:0:
291,255,78173,5,10,0:1:0:0:
181,234,78335,1,10,0:0:0:0:
291,255,78497,1,8,0:1:0:0:
113,326,78659,1,10,0:0:0:0:
262,145,78821,5,12,0:1:0:0:
328,358,78983,1,0,0:0:0:0:
363,122,79146,5,8,0:1:0:0:
217,341,79308,1,8,0:1:0:0:
294,46,79470,5,8,0:0:0:0:
438,379,79632,1,8,0:0:0:0:
397,24,79794,5,8,0:0:0:0:
113,326,79956,1,8,0:0:0:0:
497,2,80119,5,14,0:1:0:0:
7,309,80281,1,14,0:1:0:0:
7,309,81092,2,0,P|12:224|99:251,1,166.875,8|0,0:0|0:0,0:0:0:0:
114,324,81416,6,0,P|149:314|186:308,1,71.2,4|0,0:0|0:0,0:0:0:0:
253,190,81740,1,2,0:0:0:0:
253,190,81902,1,2,0:0:0:0:
288,290,82065,2,0,P|282:324|272:358,1,71.2,0|2,0:0|0:0,0:0:0:0:
355,209,82389,2,0,P|347:175|340:140,1,71.2,2|0,0:0|0:0,0:0:0:0:
414,9,82713,5,0,0:0:0:0:
414,9,82875,1,2,0:0:0:0:
313,43,83038,2,0,P|278:33|244:27,1,71.2,2|2,0:0|0:0,0:0:0:0:
178,145,83362,2,0,P|212:135|247:129,1,71.2,0|0,0:0|0:0,0:0:0:0:
313,247,83686,2,0,P|279:237|245:231,1,71.2,0|0,0:0|0:0,0:0:0:0:
131,307,84011,6,0,P|141:274|147:239,1,71.2,2|0,0:0|0:0,0:0:0:0:
94,91,84335,1,2,0:0:0:0:
94,91,84497,1,2,0:0:0:0:
37,180,84659,2,0,P|43:214|53:248,1,71.2,0|2,0:0|0:0,0:0:0:0:
178,145,84983,2,0,P|188:111|194:76,1,71.2,0|0,0:0|0:0,0:0:0:0:
360,138,85308,6,0,P|327:128|292:122,1,71.2,2|2,0:0|0:0,0:0:0:0:
347,245,85632,2,0,P|367:236|415:229,1,71.2,2|2,0:0|0:0,0:0:0:0:
445,81,85956,1,2,0:0:0:0:
445,81,86119,1,0,0:0:0:0:
491,174,86281,2,0,P|501:207|507:242,1,71.2,2|2,0:0|0:0,0:0:0:0:
391,382,86605,5,2,0:0:0:0:
296,338,86767,1,0,0:0:0:0:
391,382,86929,1,2,0:0:0:0:
317,238,87092,1,2,0:0:0:0:
200,369,87254,5,0,0:0:0:0:
221,270,87416,1,2,0:0:0:0:
125,301,87578,1,2,0:0:0:0:
200,369,87740,1,0,0:0:0:0:
145,201,87902,5,2,0:0:0:0:
296,338,88065,1,2,0:0:0:0:
317,238,88227,1,0,0:0:0:0:
200,369,88389,1,2,0:0:0:0:
145,201,88551,5,2,0:0:0:0:
296,338,88713,1,2,0:0:0:0:
338,138,88875,1,2,0:0:0:0:
125,301,89038,1,2,0:0:0:0:
