osu file format v14

[General]
AudioFilename: audio.mp3
AudioLeadIn: 0
PreviewTime: 57375
Countdown: 0
SampleSet: Soft
StackLeniency: 0.3
Mode: 0
LetterboxInBreaks: 0
WidescreenStoryboard: 0

[Editor]
DistanceSpacing: 1.6
BeatDivisor: 4
GridSize: 32
TimelineZoom: 2.1

[Metadata]
Title:km/h (TV Size)
TitleUnicode:♡km/h (TV Size)
Artist:Ray
ArtistUnicode:Ray
Creator:Sotarks
Version:Irohas' Insane
Source:ろんぐらいだぁす!
Tags:opening op long riders! heart kilometer per hour kmh armin a_r_m_i_n akitoshi corinn -laura- charlotte irohas mugiwarasekai kalibe kyuukai yaleufeu lami intoon snownino_ owens ron shunao shogunmoon [r]
BeatmapID:1736330
BeatmapSetID:828757

[Difficulty]
HPDrainRate:6
CircleSize:4.1
OverallDifficulty:8.7
ApproachRate:9.1
SliderMultiplier:1.7
SliderTickRate:1

[Events]
//Background and Video events
0,0,"BG.jpg",0,0
//Break Periods
//Storyboard Layer 0 (Background)
//Storyboard Layer 1 (Fail)
//Storyboard Layer 2 (Pass)
//Storyboard Layer 3 (Foreground)
//Storyboard Sound Samples

[TimingPoints]
984,324.324324324324,4,2,7,30,1,0
984,-142.857142857143,4,2,7,30,0,0
3578,-142.857142857143,4,2,7,30,0,0
5524,-125,4,2,7,30,0,0
6173,-125,4,2,7,45,0,0
8767,-100,4,2,7,50,0,0
11038,-83.3333333333333,4,2,7,70,0,0
11281,-83.3333333333333,4,2,7,5,0,0
11362,-100,4,2,7,60,0,0
20281,-125,4,2,7,60,0,0
20686,-125,4,2,7,5,0,0
20767,-133.333333333333,4,2,7,40,0,0
21254,-153.846153846153,4,2,7,40,0,0
21659,-153.846153846153,4,2,7,5,0,0
21740,-133.333333333333,4,2,7,50,0,0
26281,-83.3333333333333,4,2,7,50,0,0
26524,-83.3333333333333,4,2,7,5,0,0
26605,-86.9565217391303,4,2,7,50,0,0
26686,-86.9565217391303,4,2,7,5,0,0
26929,-100,4,2,7,55,0,0
31794,-76.9230769230769,4,2,7,50,0,0
32038,-76.9230769230769,4,2,7,5,0,0
32119,-100,4,2,7,60,0,0
32362,-100,4,2,7,5,0,0
32443,-100,4,2,7,60,0,0
40470,-100,4,2,7,5,0,0
40551,-100,4,2,7,60,0,0
40794,-100,4,2,7,5,0,0
40875,-100,4,2,7,60,0,0
41443,-100,4,2,7,5,0,0
41524,-100,4,2,7,60,0,0
42497,-100,4,2,7,55,0,0
42821,-125,4,2,7,55,0,0
43632,-100,4,2,7,55,0,0
45416,-125,4,2,7,55,0,0
46227,-100,4,2,7,55,0,0
47686,-133.333333333333,4,2,7,55,0,0
48983,-117.647058823529,4,2,7,55,0,0
50605,-105.263157894737,4,2,7,55,0,0
51578,-105.263157894737,4,2,7,55,0,0
52875,-178.571428571429,4,2,7,60,0,0
53443,-178.571428571429,4,2,7,5,0,0
53524,-133.333333333333,4,2,7,30,0,0
54173,-100,4,2,7,40,0,0
54497,-100,4,2,7,50,0,0
54821,-100,4,2,7,60,0,0
55146,-100,4,2,7,60,0,0
56119,-125,4,2,7,60,0,0
56443,-100,4,2,7,60,0,0
57740,-62.5,4,2,7,70,0,0
57983,-62.5,4,2,7,5,0,0
58065,-100,4,2,7,80,0,1
58389,-100,4,2,7,70,0,1
63497,-100,4,2,7,5,0,1
63578,-100,4,2,7,70,0,1
65767,-100,4,2,7,5,0,1
65848,-100,4,2,7,70,0,1
68119,-100,4,2,7,80,0,0
68362,-100,4,2,7,5,0,0
68443,-100,4,2,7,70,0,1
73632,-125,4,2,7,70,0,0
76227,-100,4,2,7,70,0,0
76713,-100,4,2,7,60,0,0
77200,-100,4,2,7,70,0,0
77686,-100,4,2,7,60,0,0
78011,-100,4,2,7,70,0,0
78173,-117.647058823529,4,2,7,70,0,0
78659,-100,4,2,7,60,0,0
78821,-100,4,2,7,70,0,1
80281,-100,4,2,7,60,0,0
81092,-76.9230769230769,4,2,7,70,0,1
81335,-100,4,2,7,5,0,0
81416,-142.857142857143,4,2,7,30,0,0
84011,-166.666666666667,4,2,7,30,0,0
85308,-142.857142857143,4,2,7,30,0,0
86605,-166.666666666667,4,2,7,10,0,0

[Colours]
Combo1 : 239,255,151
Combo2 : 113,255,255
Combo3 : 255,128,255
Combo4 : 0,128,255
Combo5 : 255,128,128

[HitObjects]
56,84,984,6,0,P|60:103|71:163,1,59.4999981842042,2|2,0:3|0:3,0:0:0:0:
129,198,1308,1,2,0:3:0:0:
0,250,1470,6,0,P|37:244|78:241,1,59.4999981842042,2|2,0:3|0:3,0:3:0:0:
191,288,1794,1,2,0:3:0:0:
191,288,1956,2,0,P|171:284|109:278,1,59.4999981842042,2|2,0:3|0:3,0:3:0:0:
267,235,2281,5,2,0:3:0:0:
212,364,2443,2,0,P|243:359|337:346,1,118.999996368408,2|0,0:3|0:0,0:0:0:0:
430,307,2929,2,0,P|426:326|414:388,1,59.4999981842042,2|2,0:3|0:3,0:0:0:0:
340,341,3254,5,2,0:0:0:0:
511,250,3416,1,2,0:0:0:0:
436,184,3578,6,0,B|343:181|373:262|282:256,2,178.499994552612,8|2|8,0:1|0:0|1:0,0:0:0:0:
510,143,4713,1,2,0:0:0:0:
509,148,4875,5,8,0:1:0:0:
299,70,5362,5,0,0:0:0:0:
410,25,5524,2,0,P|404:53|392:112,1,68,8|0,0:0|0:0,0:0:0:0:
291,159,5848,1,8,0:1:0:0:
193,76,6011,1,8,0:1:0:0:
52,173,6173,6,0,P|15:89|62:46,1,136,4|0,0:0|0:0,0:0:0:0:
146,201,6659,1,0,0:0:0:0:
46,45,6821,2,0,P|49:76|64:196,1,136,8|2,0:0|0:0,0:0:0:0:
155,34,7308,1,8,0:0:0:0:
152,31,7389,1,8,0:0:0:0:
149,29,7470,6,0,B|190:-1|190:-1|278:29,1,136,2|2,0:0|0:0,0:0:0:0:
346,24,8119,2,0,P|323:28|264:37,1,68,8|0,0:0|0:0,0:0:0:0:
404,98,8443,2,0,P|381:102|322:111,1,68,8|0,0:0|0:0,0:0:0:0:
473,52,8767,5,4,0:0:0:0:
469,45,8929,1,2,0:3:0:0:
364,192,9092,5,2,0:0:0:0:
360,199,9254,1,2,0:3:0:0:
327,95,9416,5,2,0:0:0:0:
448,233,9578,1,8,0:0:0:0:
269,220,9740,1,8,0:0:0:0:
436,121,9902,1,8,0:0:0:0:
257,229,10065,5,8,0:0:0:0:
211,16,10227,1,8,0:0:0:0:
352,165,10389,1,8,0:0:0:0:
146,127,10551,1,8,0:0:0:0:
332,21,10713,5,10,0:0:0:0:
161,212,10875,1,10,0:0:0:0:
6,45,11038,6,0,P|13:85|33:214,1,152.999995330811,4|0,3:2|0:0,0:0:0:0:
126,214,11362,2,0,P|143:183|130:130,1,85,4|2,0:0|0:3,0:0:0:0:
42,278,11686,5,8,0:0:0:0:
243,215,11848,2,0,P|238:243|225:322,1,85,2|2,0:3|0:0,0:0:0:0:
410,279,12173,1,2,0:3:0:0:
410,279,12335,2,0,P|378:258|323:273,1,85,8|2,0:0|0:3,0:0:0:0:
457,130,12659,6,0,P|462:156|476:232,1,85,2|0,0:3|0:0,0:0:0:0:
355,65,12983,2,0,P|387:44|442:59,1,85,8|2,0:0|0:3,0:0:0:0:
251,32,13308,5,2,0:0:0:0:
311,175,13470,1,2,0:0:0:0:
135,150,13632,2,0,P|170:143|233:135,1,85,8|0,0:0|0:0,0:0:0:0:
52,104,13956,6,0,P|36:76|56:11,1,85,2|0,0:0|0:0,0:0:0:0:
128,158,14281,2,0,P|123:184|113:261,1,85,8|0,0:0|0:0,0:0:0:0:
235,384,14605,1,2,0:0:0:0:
275,221,14767,1,2,0:0:0:0:
137,354,14929,1,8,0:0:0:0:
353,295,15092,1,2,0:3:0:0:
191,185,15254,5,2,0:0:0:0:
191,185,15416,1,2,0:0:0:0:
327,372,15578,1,8,0:0:0:0:
480,180,15740,2,0,P|500:207|489:265,1,85,2|2,0:3|0:0,0:0:0:0:
407,150,16065,6,8,P|379:145|344:139,1,42.5
307,205,16227,2,8,P|279:210|244:218,1,42.5
192,167,16389,2,8,P|164:162|129:156,1,42.5
69,203,16551,5,6,0:0:0:0:
131,39,16713,1,2,0:0:0:0:
69,203,16875,2,0,P|65:172|55:110,1,85,8|0,0:0|0:0,0:0:0:0:
236,270,17200,2,0,P|204:249|149:264,1,85,2|2,0:0|0:0,0:0:0:0:
1,329,17524,2,0,P|33:308|92:319,1,85,8|2,0:0|0:3,0:0:0:0:
163,364,17848,5,2,0:0:0:0:
89,199,18011,1,2,0:0:0:0:
256,284,18173,2,0,P|260:255|269:192,1,85,8|0,0:0|0:0,0:0:0:0:
179,68,18497,2,0,P|185:98|196:161,1,85,2|2,0:0|0:0,0:0:0:0:
252,10,18821,5,8,0:0:0:0:
93,131,18983,1,8,0:0:0:0:
88,134,19065,1,8,0:0:0:0:
83,137,19146,5,6,0:0:0:0:
261,177,19308,1,2,0:3:0:0:
85,17,19470,1,8,0:0:0:0:
132,265,19632,1,2,0:3:0:0:
0,155,19794,5,8,0:0:0:0:
227,36,19956,2,8,P|222:64|216:100,1,42.5
195,149,20119,1,8,0:0:0:0:
77,14,20281,6,0,P|83:53|105:199,1,170,2|0,0:3|0:0,0:0:0:0:
54,252,20767,2,2,L|16:246,3,21.2500008106232,2|2|2|2,0:3|0:3|0:3|0:3,0:3:0:0:
143,328,21092,1,2,0:3:0:0:
0,341,21254,6,0,P|40:335|151:321,1,138.12499367714,2|0,0:3|0:0,0:0:0:0:
222,339,21740,6,0,P|252:310|233:226,1,127.500004863739,4|8,0:0|0:1,0:0:0:0:
136,148,22227,1,0,0:0:0:0:
139,144,22389,2,0,P|145:168|158:227,1,63.7500024318696,8|0,0:1|0:0,0:0:0:0:
242,74,22713,2,0,P|236:98|223:157,1,63.7500024318696,8|0,0:1|0:0,0:0:0:0:
194,3,23038,5,8,0:1:0:0:
317,125,23200,2,0,P|398:133|437:86,1,127.500004863739,2|0,0:3|0:0,0:0:0:0:
509,0,23686,2,0,P|503:24|490:83,1,63.7500024318696,8|0,0:1|0:0,0:0:0:0:
455,186,24011,2,0,P|447:154|440:123,1,63.7500024318696,8|0,0:1|0:0,0:0:0:0:
333,272,24335,5,4,0:0:0:0:
321,267,24659,2,0,P|348:263|404:259,1,63.7500024318696,8|0,0:1|0:0,0:0:0:0:
512,316,24983,2,0,P|485:312|427:306,1,63.7500024318696,8|0,0:1|0:0,0:0:0:0:
327,368,25308,2,0,P|354:364|410:360,1,63.7500024318696,8|0,0:1|0:0,0:0:0:0:
234,306,25632,5,8,0:1:0:0:
335,156,25794,2,0,P|331:188|320:302,1,127.500004863739
161,359,26281,6,0,P|203:319|177:235,1,152.999995330811,8|0,0:1|0:0,0:0:0:0:
60,300,26605,6,0,P|98:293|129:288,1,48.8750009322167,8|0,0:0|0:0,0:0:0:0:
115,287,26929,6,0,P|80:280|17:272,1,85,8|0,0:0|0:0,0:0:0:0:
207,212,27254,1,2,0:0:0:0:
103,119,27416,2,0,P|108:147|121:226,1,85,8|0,0:0|0:0,0:0:0:0:
250,319,27740,5,0,0:0:0:0:
301,154,27902,1,8,0:0:0:0:
162,285,28065,1,2,0:3:0:0:
371,243,28227,6,0,P|389:276|369:333,1,85,8|0,0:0|0:0,0:0:0:0:
293,164,28551,1,2,0:0:0:0:
482,249,28713,2,0,P|488:207|496:165,1,85,8|0,0:0|0:0,0:0:0:0:
327,50,29038,5,0,0:0:0:0:
402,174,29200,1,8,0:0:0:0:
438,0,29362,1,2,0:0:0:0:
232,164,29524,6,0,P|265:158|336:147,1,85,8|0,0:0|0:0,0:0:0:0:
150,37,29848,2,0,P|132:61|148:130,1,85,2|2,0:0|0:0,0:0:0:0:
297,249,30173,1,8,0:0:0:0:
224,85,30335,1,8,0:0:0:0:
368,144,30497,5,8,0:0:0:0:
184,248,30659,1,8,0:0:0:0:
352,341,30821,5,8,0:0:0:0:
261,163,30983,1,8,0:0:0:0:
343,339,31632,6,0,P|381:332|418:325,1,42.5,8|2,0:3|0:0,0:0:0:0:
485,276,31794,2,0,B|396:280|447:356|317:351,1,165.749992412568,4|0,0:0|0:0,0:0:0:0:
249,355,32119,6,0,P|207:283|229:239,1,127.5,4|0,0:0|0:0,0:0:0:0:
319,192,32443,2,0,P|313:220|302:296,1,85,8|0,0:0|0:0,0:0:0:0:
259,128,32767,1,2,0:0:0:0:
400,231,32929,1,2,0:0:0:0:
511,106,33092,2,0,P|505:134|492:210,1,85,8|0,0:0|0:0,0:0:0:0:
384,47,33416,6,0,P|416:26|471:41,1,85,2|2,0:0|0:3,0:0:0:0:
299,142,33740,1,8,0:0:0:0:
174,22,33902,2,0,B|152:75|152:75|178:118|178:118|154:190,1,170,2|0,0:0|0:0,0:0:0:0:
10,81,34389,2,0,P|16:110|31:187,1,85,8|0,0:0|0:0,0:0:0:0:
73,306,34713,6,0,P|81:264|89:222,1,85,2|0,0:0|0:0,0:0:0:0:
250,294,35038,2,0,P|218:273|163:288,1,85,8|2,0:0|0:3,0:0:0:0:
340,362,35362,1,2,0:0:0:0:
302,212,35524,1,2,0:0:0:0:
468,323,35686,2,0,P|476:281|484:239,1,85,8|0,0:0|0:0,0:0:0:0:
396,130,36011,2,0,B|378:170|378:170|404:222,1,85,2|2,0:0|0:3,0:0:0:0:
479,88,36335,5,8,0:0:0:0:
295,209,36497,2,0,P|248:202|110:189,1,170,2|2,0:0|0:3,0:0:0:0:
275,102,36983,1,8,0:0:0:0:
141,19,37146,1,8,0:0:0:0:
145,16,37227,1,8,0:0:0:0:
149,13,37308,6,0,P|157:54|169:105,1,85,2|2,0:0|0:3,0:0:0:0:
14,239,37633,1,8,0:0:0:0:
14,239,37795,2,0,P|-3:208|10:155,1,85,2|2,0:3|0:3,0:0:0:0:
234,243,38120,1,2,0:3:0:0:
82,198,38282,2,0,P|117:192|180:183,1,85,8|0,0:0|0:0,0:0:0:0:
327,255,38606,6,0,P|292:249|229:240,1,85,2|2,0:0|0:3,0:0:0:0:
405,178,38930,1,8,0:0:0:0:
234,243,39092,2,0,B|216:205|216:205|236:161,1,85,2|0,0:3|0:0,0:0:0:0:
421,98,39416,1,2,0:3:0:0:
339,28,39578,2,0,P|333:56|317:134,1,85,8|0,0:0|0:0,0:0:0:0:
431,273,39902,1,2,0:0:0:0:
272,237,40065,6,0,P|302:232|336:223,1,42.5,2|2,0:0|0:0,0:0:0:0:
359,329,40227,2,0,P|335:325|216:311,1,127.5,12|0,0:0|0:0,0:0:0:0:
176,375,40551,6,0,P|142:300|172:256,1,127.5,12|0,0:0|0:0,0:0:0:0:
170,259,40875,1,2,0:0:0:0:
33,227,41038,2,0,P|53:222|89:216,1,42.5,2|2,0:0|0:0,0:0:0:0:
142,146,41200,6,0,P|78:136|15:127,1,127.5,6|0,0:0|0:0,0:0:0:0:
6,129,41524,5,8,0:0:0:0:
205,82,41686,2,0,P|218:53|208:2,1,85,6|0,0:0|0:0,0:0:0:0:
132,154,42011,5,2,0:0:0:0:
337,76,42173,2,0,P|332:104|319:183,1,85,8|2,0:0|0:0,0:0:0:0:
196,335,42497,1,8,0:0:0:0:
378,258,42659,1,8,0:0:0:0:
227,186,42821,6,0,P|232:214|243:275,1,68,2|2,0:0|0:3,0:0:0:0:
364,384,43146,1,2,0:0:0:0:
440,197,43308,1,2,0:0:0:0:
445,200,43390,1,2,0:0:0:0:
450,203,43471,1,8,0:3:0:0:
293,319,43632,6,0,P|333:312|473:294,1,170,4|2,0:0|0:0,0:0:0:0:
287,227,44119,2,0,P|270:195|287:136,1,85,8|2,0:0|0:0,0:0:0:0:
129,295,44443,2,0,P|164:288|227:280,1,85,8|0,0:0|0:0,0:0:0:0:
45,168,44767,2,0,P|24:200|39:260,1,85,8|2,0:0|0:0,0:0:0:0:
243,370,45092,1,8,0:0:0:0:
107,220,45254,1,8,0:0:0:0:
208,118,45416,6,0,P|203:146|192:207,1,68,2|2,0:0|0:3,0:0:0:0:
201,194,45659,1,2,0:0:0:0:
205,199,45740,1,2,0:0:0:0:
141,56,45902,1,0,0:0:0:0:
294,154,46065,1,8,0:0:0:0:
449,50,46227,6,0,P|444:88|427:234,1,170,4|0,0:0|0:0,0:0:0:0:
349,69,46713,2,0,P|321:52|262:63,1,85,8|2,0:0|0:3,0:0:0:0:
184,147,47038,1,8,0:0:0:0:
36,44,47200,1,8,0:0:0:0:
41,68,47281,1,8,0:0:0:0:
45,94,47362,5,2,0:0:0:0:
50,119,47443,1,2,0:0:0:0:
54,144,47524,1,2,0:0:0:0:
58,169,47605,1,2,0:0:0:0:
63,194,47686,6,0,P|88:188|113:183,3,31.8750012159348,2|0|2|0,0:0|0:0|0:0|0:0,0:0:0:0:
150,247,48011,2,0,P|165:250|181:254,3,31.8750012159348,2|0|8|0,0:0|0:0|0:0|0:0,0:0:0:0:
248,199,48335,2,0,P|263:195|279:191,3,31.8750012159348,2|0|2|0,0:0|0:0|0:0|0:0,0:0:0:0:
344,247,48659,2,0,P|359:250|375:254,3,31.8750012159348,8|0|2|0,0:0|0:0|0:0|0:0,0:0:0:0:
440,186,48983,5,4,0:0:0:0:
314,92,49146,1,2,0:0:0:0:
318,89,49227,1,2,0:0:0:0:
322,86,49308,6,0,P|330:127|340:178,1,72.2500013780594,2|8,0:0|0:0,0:0:0:0:
272,212,49551,1,2,0:0:0:0:
268,216,49632,2,0,P|262:244|256:276,3,36.1250006890297,2|0|2|0,0:0|0:0|0:0|0:0,0:0:0:0:
328,300,49956,2,0,P|334:328|340:360,3,36.1250006890297,10|0|2|0,0:0|0:0|0:0|0:0,0:0:0:0:
265,384,50281,5,2,0:0:0:0:
501,269,50443,2,0,P|494:297|489:329,1,36.1250006890297,2|0,0:0|0:0,0:0:0:0:
424,362,50605,6,0,P|415:320|404:272,1,80.7499978437424,8|0,0:0|0:0,0:0:0:0:
464,132,50929,2,0,P|455:167|446:218,1,80.7499978437424,2|2,0:0|0:3,0:0:0:0:
405,65,51254,2,0,P|380:49|320:64,1,80.7499978437424,8|0,0:0|0:0,0:0:0:0:
263,113,51497,1,2,0:0:0:0:
259,109,51578,6,0,P|253:81|244:43,1,40.3749989218712,2|0,0:0|0:0,0:0:0:0:
167,27,51740,2,0,P|162:46|158:66,1,40.3749989218712,2|8,0:0|0:0,0:0:0:0:
76,120,51902,2,0,P|71:100|67:80,1,40.3749989218712,8|8,0:0|0:0,0:0:0:0:
8,31,52065,1,8,0:0:0:0:
26,203,52227,5,2,0:0:0:0:
62,218,52308,1,2,0:0:0:0:
102,213,52389,1,8,0:0:0:0:
133,188,52470,1,8,0:0:0:0:
155,155,52551,6,8,P|150:186|145:209,1,40.3749989218712
203,252,52713,2,8,P|208:278|213:306,1,40.3749989218712
85,335,52875,6,0,B|172:320|138:405|256:374,1,166.600002033691,4|0,0:0|0:0,0:0:0:0:
243,373,53524,5,8,0:0:0:0:
322,315,53686,1,8,0:0:0:0:
197,192,53848,5,8,0:0:0:0:
243,278,54011,1,8,0:0:0:0:
391,242,54173,5,8,0:0:0:0:
303,200,54335,1,8,0:0:0:0:
440,338,54497,1,8,0:0:0:0:
467,156,54659,1,8,0:0:0:0:
314,312,54821,5,8,0:0:0:0:
512,233,54983,1,8,0:0:0:0:
329,109,55146,5,8,0:0:0:0:
407,239,55308,1,8,0:0:0:0:
209,237,55470,5,12,0:0:0:0:
430,135,55632,1,12,0:0:0:0:
182,367,56281,5,2,0:0:0:0:
181,361,56443,1,8,0:0:0:0:
80,164,56605,6,0,B|47:188|47:188|81:329,1,170,4|2,0:0|0:0,0:0:0:0:
225,198,57092,2,0,P|218:231|208:285,1,85,8|2,0:0|0:3,0:0:0:0:
272,349,57335,1,2,0:0:0:0:
273,349,57416,6,0,P|306:339|325:328,1,42.5,2|8,0:0|0:0,0:0:0:0:
477,258,57578,2,0,P|457:249|436:244,1,42.5,2|2,0:0|0:0,0:0:0:0:
358,163,57740,6,0,B|312:135|312:135|358:196|364:237|363:297,1,204,4|0,3:2|0:0,0:0:0:0:
313,335,58065,6,0,P|204:347|167:292,1,170,4|8,0:3|0:0,0:0:0:0:
358,163,58551,1,0,0:0:0:0:
240,137,58713,2,0,P|247:170|257:224,1,85,2|2,0:0|0:3,0:0:0:0:
82,213,59038,2,0,P|114:192|169:207,1,85,8|0,0:0|0:0,0:0:0:0:
26,104,59362,5,2,0:0:0:0:
163,203,59524,1,2,0:0:0:0:
15,331,59686,2,0,P|50:324|113:316,1,85,8|0,0:0|0:0,0:0:0:0:
233,155,60011,2,0,P|254:187|239:247,1,85,2|2,0:0|0:0,0:0:0:0:
409,320,60335,2,0,P|374:313|311:305,1,85,8|0,0:0|0:0,0:0:0:0:
492,272,60659,6,0,P|513:240|498:180,1,85,2|0,0:0|0:0,0:0:0:0:
303,136,60983,1,8,0:0:0:0:
423,235,61146,1,2,0:0:0:0:
409,58,61308,2,0,P|402:91|392:145,1,85,2|2,0:0|0:3,0:0:0:0:
251,18,61632,2,0,P|283:-3|338:12,1,85,8|0,0:0|0:0,0:0:0:0:
172,114,61956,5,2,0:0:0:0:
172,114,62119,1,2,0:0:0:0:
37,18,62281,2,0,P|44:51|54:105,1,85,8|2,0:0|0:3,0:0:0:0:
192,235,62605,1,6,0:0:0:0:
0,218,62767,6,0,P|36:211|63:206,1,42.5,2|8,0:0|0:0,0:0:0:0:
107,164,62929,1,2,0:0:0:0:
266,328,63092,6,8,P|236:333|202:342,1,42.5
192,235,63254,2,0,P|219:239|335:253,1,127.5,4|0,0:0|0:0,0:0:0:0:
397,220,63578,6,0,P|415:186|396:127,1,85,8|0,0:0|0:0,0:0:0:0:
257,29,63902,1,2,0:0:0:0:
332,174,64065,1,2,0:0:0:0:
482,68,64227,2,0,P|447:61|384:53,1,85,8|0,0:0|0:0,0:0:0:0:
228,112,64551,6,0,P|263:105|326:97,1,85,2|2,0:0|0:0,0:0:0:0:
159,235,64875,2,0,P|138:203|153:143,1,85,8|0,0:0|0:0,0:0:0:0:
252,274,65200,5,2,0:0:0:0:
252,274,65362,1,2,0:0:0:0:
44,228,65524,2,0,P|51:261|72:370,1,127.5,8|0,0:0|0:0,0:0:0:0:
148,384,65848,6,0,P|155:342|164:300,1,85,2|2,0:0|0:3,0:0:0:0:
364,217,66173,1,8,0:0:0:0:
292,364,66335,1,2,0:0:0:0:
253,163,66497,1,8,0:0:0:0:
454,347,66659,6,0,P|418:340|391:335,1,42.5,2|8,0:0|0:0,0:0:0:0:
336,300,66821,1,2,0:0:0:0:
509,224,66983,1,2,0:0:0:0:
416,63,67146,5,6,0:0:0:0:
421,87,67227,1,2,0:0:0:0:
426,112,67308,1,2,0:0:0:0:
431,137,67389,1,2,0:0:0:0:
435,161,67470,6,8,P|406:156|370:150,1,42.5
336,221,67632,2,8,P|315:224|294:228,1,42.5
245,157,67794,2,0,P|224:153|203:149,1,42.5,8|2,0:0|0:0,0:0:0:0:
153,222,67956,2,0,P|132:226|111:230,1,42.5,2|2,0:0|0:0,0:0:0:0:
25,210,68119,6,0,P|-6:175|33:89,1,127.5,4|0,3:2|0:0,0:0:0:0:
106,54,68443,6,0,P|99:87|89:141,1,85,4|0,0:0|0:3,0:0:0:0:
153,295,68767,2,0,P|145:253|136:211,1,85,8|0,0:0|0:0,0:0:0:0:
319,298,69092,6,0,P|287:277|232:292,1,85,8|0,0:0|0:0,0:0:0:0:
436,182,69416,2,0,P|417:215|365:227,1,85,8|0,0:0|0:0,0:0:0:0:
493,310,69740,6,0,P|500:268|509:226,1,85,4|0,0:0|0:3,0:0:0:0:
333,143,70065,1,8,0:0:0:0:
399,292,70227,1,2,0:0:0:0:
213,260,70389,2,0,P|248:253|311:245,1,85,8|2,0:0|0:0,0:0:0:0:
303,243,70632,1,2,0:0:0:0:
308,240,70713,5,8,0:0:0:0:
144,198,70875,1,2,0:0:0:0:
254,81,71038,6,0,P|247:114|237:168,1,85,4|0,0:0|0:3,0:0:0:0:
129,0,71362,2,0,P|136:33|146:87,1,85,8|0,0:0|0:3,0:0:0:0:
0,169,71686,6,0,P|32:148|92:160,1,85,8|0,0:0|0:0,0:0:0:0:
220,242,72011,2,0,P|185:235|122:227,1,85,8|2,0:0|0:0,0:0:0:0:
302,185,72335,5,2,0:0:0:0:
233,336,72497,1,2,0:3:0:0:
115,203,72659,2,0,P|122:236|134:298,1,85,8|2,0:0|0:3,0:0:0:0:
212,133,72983,5,6,0:0:0:0:
374,230,73146,2,8,P|340:222|310:215,2,42.5,2|8|8,0:0|0:0|0:0,0:0:0:0:
225,326,73470,1,8,0:0:0:0:
229,322,73551,1,8,0:0:0:0:
233,321,73632,6,0,P|289:313|390:301,2,136,6|2|8,0:0|0:0|0:0,0:0:0:0:
147,286,74443,1,2,0:3:0:0:
141,282,74605,2,0,P|123:251|136:205,1,68,2|8,0:0|0:0,0:0:0:0:
134,214,74848,1,8,0:0:0:0:
137,208,74929,6,0,P|131:247|117:361,2,136,2|2|8,0:0|0:0|0:0,0:0:0:0:
54,81,75740,2,0,P|63:117|71:158,1,68,2|2,0:3|0:0,0:0:0:0:
149,45,76065,1,8,0:1:0:0:
7,224,76227,6,0,P|128:219|152:175,1,170,4|2,0:0|0:0,0:0:0:0:
253,57,76713,6,0,B|213:143|294:121|242:240,1,170,6|8,0:0|0:0,0:0:0:0:
370,136,77119,1,8,0:0:0:0:
373,131,77200,6,0,P|378:78|360:135,1,170,4|8,0:0|0:0,0:0:0:0:
511,179,77686,6,0,B|423:162|453:250|346:226,1,170,4|8,0:0|0:0,0:0:0:0:
350,222,78092,1,8,0:0:0:0:
345,219,78173,6,0,P|352:252|361:297,1,72.2500013780594,8|0,0:0|0:0,0:0:0:0:
249,153,78497,2,0,P|257:188|264:223,1,72.2500013780594,2|0,0:0|0:0,0:0:0:0:
391,99,78821,2,0,P|362:78|301:90,1,85,4|2,0:0|0:0,0:0:0:0:
148,139,79146,6,2,P|143:114|138:84,1,42.5,2|2,0:3|0:3,0:3:0:0:
223,198,79308,2,2,P|228:173|234:143,1,42.5,2|2,0:3|0:3,0:3:0:0:
128,262,79470,2,2,P|123:237|118:207,1,42.5,8|2,0:0|0:3,0:3:0:0:
206,327,79632,2,2,P|211:302|220:266,1,42.5,8|2,0:0|0:3,0:3:0:0:
131,374,79794,5,8,0:0:0:0:
98,384,79875,1,0,0:3:0:0:
65,381,79956,1,8,0:0:0:0:
36,364,80038,1,2,0:3:0:0:
18,335,80119,5,6,0:0:0:0:
215,243,80281,1,6,0:0:0:0:
365,194,81092,6,0,B|277:177|307:265|198:240,1,165.749992412568,4|8,0:0|0:0,0:0:0:0:
142,212,81416,6,2,P|128:180|131:145,2,59.4999981842042,2|2|2,0:3|0:3|0:3,0:3:0:0:
162,84,81902,2,0,P|158:119|149:226,1,118.999996368408,2|0,0:3|0:0,0:0:0:0:
60,289,82389,2,0,P|90:283|132:278,1,59.4999981842042,2|0,0:3|0:0,0:0:0:0:
241,341,82713,6,2,P|211:335|169:330,2,59.4999981842042,2|2|2,0:3|0:3|0:3,0:3:0:0:
330,290,83200,1,0,0:0:0:0:
240,202,83362,2,0,P|244:221|255:281,1,59.4999981842042,2|0,0:3|0:3,0:0:0:0:
340,143,83686,2,0,P|336:162|325:222,1,59.4999981842042,2|0,0:3|0:3,0:0:0:0:
279,75,84011,6,0,P|182:70|145:115,2,152.999995330811,2|2|2,0:3|0:3|0:3,0:0:0:0:
394,147,85146,1,0,0:0:0:0:
398,152,85308,6,0,P|368:146|326:141,2,59.4999981842042,2|0|2,0:3|0:0|0:3,0:0:0:0:
228,208,85794,1,0,0:0:0:0:
224,213,85956,6,0,P|254:207|296:202,2,59.4999981842042,2|0|2,0:3|0:0|0:3,0:0:0:0:
406,262,86443,1,0,0:0:0:0:
410,267,86605,6,0,P|380:261|340:255,2,50.9999984436036,2|0|2,0:3|0:0|0:3,0:0:0:0:
296,314,87092,2,0,P|270:318|245:323,2,50.9999984436036,2|0|2,0:3|0:0|0:3,0:0:0:0:
183,267,87578,6,0,P|157:262|132:258,2,50.9999984436036,2|0|2,0:3|0:0|0:3,0:0:0:0:
73,317,88065,2,0,P|47:320|22:325,2,50.9999984436036,2|0|2,0:3|0:0|0:3,0:0:0:0:
132,258,88551,5,2,0:3:0:0:
93,185,88713,1,2,0:3:0:0:
143,121,88875,1,2,0:3:0:0:
94,54,89038,1,2,0:3:0:0:
