osu file format v14

[General]
AudioFilename: audio.mp3
AudioLeadIn: 0
PreviewTime: 57375
Countdown: 0
SampleSet: Normal
StackLeniency: 0.2
Mode: 1
LetterboxInBreaks: 0
WidescreenStoryboard: 0

[Editor]
DistanceSpacing: 0.7
BeatDivisor: 4
GridSize: 4
TimelineZoom: 2.1

[Metadata]
Title:km/h (TV Size)
TitleUnicode:♡km/h (TV Size)
Artist:Ray
ArtistUnicode:Ray
Creator:Sotarks
Version:Charlotte's Oni
Source:ろんぐらいだぁす!
Tags:opening op long riders! heart kilometer per hour kmh armin a_r_m_i_n akitoshi corinn -laura- charlotte irohas mugiwarasekai kalibe kyuukai yaleufeu lami intoon snownino_ owens ron shunao shogunmoon [r]
BeatmapID:1736334
BeatmapSetID:828757

[Difficulty]
HPDrainRate:6
CircleSize:5
OverallDifficulty:6
ApproachRate:7
SliderMultiplier:1.4
SliderTickRate:1

[Events]
//Background and Video events
0,0,"BG.jpg",0,0
//Break Periods
//Storyboard Layer 0 (Background)
//Storyboard Layer 1 (Fail)
//Storyboard Layer 2 (Pass)
//Storyboard Layer 3 (Foreground)
//Storyboard Sound Samples

[TimingPoints]
984,324.324324324324,4,1,0,40,1,0
5524,-100,4,1,0,60,0,0
11038,-100,4,1,0,70,0,0
21740,-100,4,1,0,60,0,0
32119,-100,4,1,0,70,0,0
58065,-100,4,1,0,80,0,1
68119,-100,4,1,0,80,0,0
68443,-100,4,1,0,80,0,1
81416,-100,4,1,0,40,0,0

[HitObjects]
256,196,984,5,0,0:0:0:0:
256,196,1308,1,8,0:0:0:0:
256,196,1470,1,0,0:0:0:0:
256,196,1794,1,0,0:0:0:0:
256,196,1956,1,8,0:0:0:0:
256,196,2281,1,0,0:0:0:0:
256,196,2443,1,8,0:0:0:0:
256,196,2605,1,0,0:0:0:0:
256,196,2929,1,8,0:0:0:0:
256,196,3416,1,0,0:0:0:0:
256,196,3578,1,0,0:0:0:0:
256,196,3902,1,8,0:0:0:0:
256,196,4065,1,0,0:0:0:0:
256,196,4389,1,0,0:0:0:0:
256,196,4551,1,8,0:0:0:0:
256,196,4875,1,0,0:0:0:0:
256,196,5038,1,8,0:0:0:0:
256,196,5200,1,0,0:0:0:0:
256,196,5524,1,8,0:0:0:0:
256,196,5686,1,0,0:0:0:0:
256,196,5848,1,0,0:0:0:0:
256,196,6011,1,0,0:0:0:0:
256,196,6173,1,8,0:0:0:0:
256,196,6497,1,0,0:0:0:0:
256,196,6659,1,0,0:0:0:0:
256,196,6821,1,8,0:0:0:0:
256,196,7146,1,0,0:0:0:0:
256,196,7470,1,8,0:0:0:0:
256,196,7794,1,0,0:0:0:0:
256,196,7956,1,8,0:0:0:0:
256,196,8119,1,0,0:0:0:0:
256,196,8281,1,0,0:0:0:0:
256,196,8443,1,8,0:0:0:0:
256,196,8767,1,8,0:0:0:0:
256,196,8929,1,0,0:0:0:0:
256,196,9092,1,0,0:0:0:0:
256,196,9254,1,0,0:0:0:0:
256,196,9416,1,8,0:0:0:0:
256,196,9578,1,0,0:0:0:0:
256,196,9740,1,0,0:0:0:0:
256,196,9902,1,0,0:0:0:0:
256,196,10065,1,8,0:0:0:0:
256,196,10227,1,8,0:0:0:0:
256,196,10389,1,8,0:0:0:0:
256,196,10551,1,8,0:0:0:0:
256,196,10713,1,0,0:0:0:0:
256,196,10875,1,0,0:0:0:0:
256,196,11038,1,12,0:0:0:0:
256,196,11362,1,4,0:0:0:0:
256,196,11686,1,8,0:0:0:0:
256,196,11848,1,8,0:0:0:0:
256,196,12011,1,0,0:0:0:0:
256,196,12173,1,0,0:0:0:0:
256,196,12335,1,8,0:0:0:0:
256,196,12659,1,0,0:0:0:0:
256,196,12821,1,8,0:0:0:0:
256,196,12983,1,0,0:0:0:0:
256,196,13146,1,0,0:0:0:0:
256,196,13308,1,8,0:0:0:0:
256,196,13470,1,0,0:0:0:0:
256,196,13632,1,8,0:0:0:0:
256,196,13956,1,0,0:0:0:0:
256,196,14281,1,8,0:0:0:0:
256,196,14605,1,0,0:0:0:0:
256,196,14767,1,0,0:0:0:0:
256,196,14929,1,8,0:0:0:0:
256,196,15254,1,8,0:0:0:0:
256,196,15416,1,0,0:0:0:0:
256,196,15578,1,8,0:0:0:0:
256,196,15740,1,8,0:0:0:0:
256,196,15902,1,0,0:0:0:0:
256,196,16065,1,0,0:0:0:0:
256,196,16146,1,0,0:0:0:0:
256,196,16227,1,0,0:0:0:0:
256,196,16389,1,8,0:0:0:0:
256,196,16551,1,4,0:0:0:0:
256,196,16875,1,0,0:0:0:0:
256,196,17200,1,0,0:0:0:0:
256,196,17524,1,0,0:0:0:0:
256,196,17686,1,0,0:0:0:0:
256,196,17767,1,0,0:0:0:0:
256,196,17848,1,8,0:0:0:0:
256,196,18173,1,0,0:0:0:0:
256,196,18497,1,0,0:0:0:0:
256,196,18821,1,0,0:0:0:0:
256,196,18983,1,0,0:0:0:0:
256,196,19065,1,0,0:0:0:0:
256,196,19146,1,8,0:0:0:0:
256,196,19308,1,8,0:0:0:0:
256,196,19470,1,0,0:0:0:0:
256,196,19632,1,0,0:0:0:0:
256,196,19794,1,8,0:0:0:0:
256,196,19956,1,0,0:0:0:0:
256,196,20119,1,8,0:0:0:0:
256,196,20281,1,8,0:0:0:0:
256,196,20767,1,8,0:0:0:0:
256,196,20848,1,8,0:0:0:0:
256,196,20929,1,8,0:0:0:0:
256,196,21740,1,4,0:0:0:0:
256,196,22065,1,0,0:0:0:0:
256,196,22389,1,0,0:0:0:0:
256,196,22713,1,0,0:0:0:0:
256,196,23038,1,0,0:0:0:0:
256,196,23362,1,8,0:0:0:0:
256,196,23524,1,0,0:0:0:0:
256,196,23848,1,0,0:0:0:0:
256,196,24011,1,8,0:0:0:0:
256,196,24335,1,0,0:0:0:0:
256,196,24659,1,0,0:0:0:0:
256,196,24983,1,0,0:0:0:0:
256,196,25308,1,0,0:0:0:0:
256,196,25632,1,0,0:0:0:0:
256,196,25956,1,8,0:0:0:0:
256,196,26119,1,0,0:0:0:0:
256,196,26443,1,0,0:0:0:0:
256,196,26605,1,8,0:0:0:0:
256,196,26929,1,4,0:0:0:0:
256,196,27254,1,0,0:0:0:0:
256,196,27416,1,0,0:0:0:0:
256,196,27740,1,0,0:0:0:0:
256,196,27902,1,8,0:0:0:0:
256,196,28227,1,0,0:0:0:0:
256,196,28551,1,0,0:0:0:0:
256,196,28713,1,0,0:0:0:0:
256,196,29038,1,0,0:0:0:0:
256,196,29200,1,8,0:0:0:0:
256,196,29524,1,0,0:0:0:0:
256,196,29848,1,0,0:0:0:0:
256,196,30011,1,0,0:0:0:0:
256,196,30173,1,8,0:0:0:0:
256,196,30335,1,0,0:0:0:0:
256,196,30497,1,8,0:0:0:0:
256,196,30659,1,8,0:0:0:0:
256,196,30821,1,0,0:0:0:0:
256,196,31146,1,0,0:0:0:0:
256,196,31308,1,8,0:0:0:0:
256,196,31632,1,0,0:0:0:0:
256,196,31713,1,0,0:0:0:0:
256,196,31794,1,8,0:0:0:0:
256,196,32119,1,4,0:0:0:0:
256,196,32443,1,0,0:0:0:0:
256,196,32605,1,0,0:0:0:0:
256,196,32767,1,8,0:0:0:0:
256,196,32929,1,0,0:0:0:0:
256,196,33092,1,8,0:0:0:0:
256,196,33416,1,0,0:0:0:0:
256,196,33740,1,8,0:0:0:0:
256,196,33902,1,0,0:0:0:0:
256,196,34227,1,0,0:0:0:0:
256,196,34389,1,8,0:0:0:0:
256,196,34713,1,0,0:0:0:0:
256,196,35038,1,0,0:0:0:0:
256,196,35200,1,0,0:0:0:0:
256,196,35362,1,8,0:0:0:0:
256,196,35524,1,0,0:0:0:0:
256,196,35686,1,8,0:0:0:0:
256,196,35848,1,8,0:0:0:0:
256,196,36011,1,0,0:0:0:0:
256,196,36335,1,8,0:0:0:0:
256,196,36497,1,0,0:0:0:0:
256,196,36821,1,0,0:0:0:0:
256,196,36983,1,8,0:0:0:0:
256,196,37146,1,8,0:0:0:0:
256,196,37308,1,0,0:0:0:0:
256,196,37470,1,0,0:0:0:0:
256,196,37551,1,0,0:0:0:0:
256,196,37632,1,8,0:0:0:0:
256,196,37794,1,0,0:0:0:0:
256,196,38281,1,8,0:0:0:0:
256,196,38605,1,0,0:0:0:0:
256,196,38929,1,0,0:0:0:0:
256,196,39092,1,0,0:0:0:0:
256,196,39416,1,0,0:0:0:0:
256,196,39578,1,8,0:0:0:0:
256,196,39740,1,8,0:0:0:0:
256,196,39902,1,0,0:0:0:0:
256,196,39983,1,0,0:0:0:0:
256,196,40065,1,0,0:0:0:0:
256,196,40227,1,12,0:0:0:0:
256,196,40551,1,4,0:0:0:0:
256,196,41200,1,8,0:0:0:0:
256,196,41524,1,0,0:0:0:0:
256,196,41686,1,8,0:0:0:0:
256,196,42011,1,0,0:0:0:0:
256,196,42173,1,8,0:0:0:0:
256,196,42497,1,4,0:0:0:0:
256,196,42659,1,4,0:0:0:0:
256,196,43146,1,8,0:0:0:0:
256,196,43470,1,0,0:0:0:0:
256,196,43632,1,8,0:0:0:0:
256,196,43956,1,0,0:0:0:0:
256,196,44119,1,8,0:0:0:0:
256,196,44281,1,8,0:0:0:0:
256,196,44443,1,0,0:0:0:0:
256,196,44767,1,8,0:0:0:0:
256,196,45092,1,4,0:0:0:0:
256,196,45254,1,4,0:0:0:0:
256,196,45740,1,8,0:0:0:0:
256,196,46065,1,0,0:0:0:0:
256,196,46227,1,8,0:0:0:0:
256,196,46551,1,0,0:0:0:0:
256,196,46713,1,8,0:0:0:0:
256,196,46875,1,8,0:0:0:0:
256,196,47038,1,0,0:0:0:0:
256,196,47200,1,0,0:0:0:0:
256,196,47281,1,0,0:0:0:0:
256,196,47362,1,8,0:0:0:0:
256,196,47524,1,8,0:0:0:0:
256,196,47686,1,0,0:0:0:0:
256,196,48011,1,0,0:0:0:0:
256,196,48173,1,0,0:0:0:0:
256,196,48254,1,0,0:0:0:0:
256,196,48335,1,8,0:0:0:0:
256,196,48497,1,0,0:0:0:0:
256,196,48659,1,8,0:0:0:0:
256,196,48740,1,8,0:0:0:0:
256,196,48821,1,8,0:0:0:0:
256,196,48983,1,0,0:0:0:0:
256,196,49308,1,0,0:0:0:0:
256,196,49470,1,0,0:0:0:0:
256,196,49551,1,0,0:0:0:0:
256,196,49632,1,8,0:0:0:0:
256,196,49794,1,0,0:0:0:0:
256,196,49956,1,8,0:0:0:0:
256,196,50038,1,0,0:0:0:0:
256,196,50119,1,8,0:0:0:0:
256,196,50281,1,0,0:0:0:0:
256,196,50605,1,0,0:0:0:0:
256,196,50767,1,0,0:0:0:0:
256,196,50848,1,0,0:0:0:0:
256,196,50929,1,8,0:0:0:0:
256,196,51092,1,0,0:0:0:0:
256,196,51254,1,8,0:0:0:0:
256,196,51335,1,8,0:0:0:0:
256,196,51416,1,8,0:0:0:0:
256,196,51497,1,8,0:0:0:0:
256,196,51578,1,0,0:0:0:0:
256,196,51740,1,0,0:0:0:0:
256,196,51821,1,0,0:0:0:0:
256,196,51902,1,8,0:0:0:0:
256,196,52065,1,0,0:0:0:0:
256,196,52227,1,8,0:0:0:0:
256,196,52308,1,0,0:0:0:0:
256,196,52389,1,8,0:0:0:0:
256,196,52470,1,8,0:0:0:0:
256,196,52551,1,0,0:0:0:0:
256,196,52632,1,0,0:0:0:0:
256,196,52713,1,8,0:0:0:0:
256,196,52875,1,4,0:0:0:0:
256,196,53200,1,8,0:0:0:0:
256,196,53362,1,8,0:0:0:0:
256,196,53524,1,0,0:0:0:0:
256,196,53686,1,0,0:0:0:0:
256,196,53848,1,8,0:0:0:0:
256,196,54010,1,0,0:0:0:0:
256,196,54172,1,8,0:0:0:0:
256,196,54334,1,8,0:0:0:0:
256,196,54497,1,8,0:0:0:0:
256,196,54659,1,8,0:0:0:0:
256,196,54821,1,0,0:0:0:0:
256,196,54983,1,0,0:0:0:0:
256,196,55146,1,8,0:0:0:0:
256,196,55308,1,8,0:0:0:0:
256,196,55470,1,4,0:0:0:0:
256,196,55794,1,0,0:0:0:0:
256,196,55956,1,0,0:0:0:0:
256,196,56119,1,8,0:0:0:0:
256,196,56443,1,0,0:0:0:0:
256,196,56605,1,8,0:0:0:0:
256,196,56929,1,0,0:0:0:0:
256,196,57092,1,8,0:0:0:0:
256,196,57254,1,8,0:0:0:0:
256,196,57416,1,0,0:0:0:0:
256,196,57497,1,0,0:0:0:0:
256,196,57578,1,0,0:0:0:0:
256,196,57659,1,0,0:0:0:0:
256,196,57740,1,8,0:0:0:0:
256,196,57821,1,8,0:0:0:0:
256,196,57902,1,8,0:0:0:0:
256,196,58065,1,4,0:0:0:0:
256,196,58227,1,0,0:0:0:0:
256,196,58308,1,0,0:0:0:0:
256,196,58389,1,8,0:0:0:0:
256,196,58551,1,8,0:0:0:0:
256,196,58713,1,0,0:0:0:0:
256,196,58875,1,0,0:0:0:0:
256,196,58956,1,0,0:0:0:0:
256,196,59038,1,0,0:0:0:0:
256,196,59200,1,8,0:0:0:0:
256,196,59524,1,0,0:0:0:0:
256,196,59686,1,8,0:0:0:0:
256,196,59848,1,8,0:0:0:0:
256,196,60011,1,0,0:0:0:0:
256,196,60173,1,8,0:0:0:0:
256,196,60254,1,8,0:0:0:0:
256,196,60335,1,0,0:0:0:0:
256,196,60497,1,8,0:0:0:0:
256,196,60659,1,0,0:0:0:0:
256,196,60821,1,0,0:0:0:0:
256,196,60902,1,0,0:0:0:0:
256,196,60983,1,8,0:0:0:0:
256,196,61065,1,0,0:0:0:0:
256,196,61146,1,8,0:0:0:0:
256,196,61308,1,0,0:0:0:0:
256,196,61470,1,0,0:0:0:0:
256,196,61551,1,0,0:0:0:0:
256,196,61632,1,0,0:0:0:0:
256,196,61794,1,8,0:0:0:0:
256,196,62119,1,0,0:0:0:0:
256,196,62281,1,8,0:0:0:0:
256,196,62443,1,8,0:0:0:0:
256,196,62605,1,0,0:0:0:0:
256,196,62767,1,8,0:0:0:0:
256,196,62848,1,8,0:0:0:0:
256,196,62929,1,0,0:0:0:0:
256,196,63092,1,8,0:0:0:0:
256,196,63254,1,0,0:0:0:0:
256,196,63416,1,0,0:0:0:0:
256,196,63497,1,0,0:0:0:0:
256,196,63578,1,8,0:0:0:0:
256,196,63740,1,8,0:0:0:0:
256,196,63902,1,0,0:0:0:0:
256,196,64065,1,0,0:0:0:0:
256,196,64146,1,0,0:0:0:0:
256,196,64227,1,0,0:0:0:0:
256,196,64389,1,8,0:0:0:0:
256,196,64713,1,0,0:0:0:0:
256,196,64875,1,8,0:0:0:0:
256,196,65200,1,0,0:0:0:0:
256,196,65362,1,0,0:0:0:0:
256,196,65524,1,8,0:0:0:0:
256,196,65848,1,0,0:0:0:0:
256,196,66011,1,0,0:0:0:0:
256,196,66092,1,0,0:0:0:0:
256,196,66173,1,8,0:0:0:0:
256,196,66335,1,8,0:0:0:0:
256,196,66497,1,0,0:0:0:0:
256,196,66659,1,8,0:0:0:0:
256,196,66740,1,8,0:0:0:0:
256,196,66821,1,0,0:0:0:0:
256,196,66902,1,0,0:0:0:0:
256,196,66983,1,8,0:0:0:0:
256,196,67146,1,0,0:0:0:0:
256,196,67308,1,0,0:0:0:0:
256,196,67389,1,0,0:0:0:0:
256,196,67470,1,8,0:0:0:0:
256,196,67632,1,8,0:0:0:0:
256,196,67713,1,8,0:0:0:0:
256,196,67794,1,0,0:0:0:0:
256,196,67875,1,0,0:0:0:0:
256,196,67956,1,0,0:0:0:0:
256,196,68038,1,0,0:0:0:0:
256,196,68119,1,8,0:0:0:0:
256,196,68200,1,0,0:0:0:0:
256,196,68281,1,8,0:0:0:0:
256,196,68443,1,4,0:0:0:0:
256,196,68605,1,0,0:0:0:0:
256,196,68686,1,0,0:0:0:0:
256,196,68767,1,8,0:0:0:0:
256,196,68929,1,8,0:0:0:0:
256,196,69091,1,0,0:0:0:0:
256,196,69253,1,0,0:0:0:0:
256,196,69334,1,0,0:0:0:0:
256,196,69416,1,0,0:0:0:0:
256,196,69578,1,8,0:0:0:0:
256,196,69902,1,0,0:0:0:0:
256,196,70064,1,8,0:0:0:0:
256,196,70226,1,8,0:0:0:0:
256,196,70389,1,0,0:0:0:0:
256,196,70551,1,8,0:0:0:0:
256,196,70632,1,8,0:0:0:0:
256,196,70713,1,0,0:0:0:0:
256,196,70794,1,0,0:0:0:0:
256,196,70875,1,8,0:0:0:0:
256,196,71037,1,0,0:0:0:0:
256,196,71361,1,8,0:0:0:0:
256,196,71524,1,8,0:0:0:0:
256,196,71686,1,0,0:0:0:0:
256,196,71848,1,0,0:0:0:0:
256,196,71929,1,0,0:0:0:0:
256,196,72011,1,0,0:0:0:0:
256,196,72172,1,8,0:0:0:0:
256,196,72497,1,0,0:0:0:0:
256,196,72659,1,8,0:0:0:0:
256,196,72983,1,0,0:0:0:0:
256,196,73146,1,0,0:0:0:0:
256,196,73227,1,0,0:0:0:0:
256,196,73308,1,8,0:0:0:0:
256,196,73470,1,8,0:0:0:0:
256,196,73632,1,0,0:0:0:0:
256,196,73956,1,0,0:0:0:0:
256,196,74119,1,8,0:0:0:0:
256,196,74443,1,0,0:0:0:0:
256,196,74605,1,8,0:0:0:0:
256,196,74767,1,8,0:0:0:0:
256,196,74929,1,0,0:0:0:0:
256,196,75254,1,0,0:0:0:0:
256,196,75416,1,0,0:0:0:0:
256,196,75578,1,8,0:0:0:0:
256,196,75821,1,0,0:0:0:0:
256,196,76064,1,8,0:0:0:0:
256,196,76227,1,4,0:0:0:0:
256,196,76551,1,0,0:0:0:0:
256,196,76713,1,8,0:0:0:0:
256,196,77038,1,0,0:0:0:0:
256,196,77119,1,0,0:0:0:0:
256,196,77200,1,8,0:0:0:0:
256,196,77362,1,0,0:0:0:0:
256,196,77524,1,0,0:0:0:0:
256,196,77686,1,8,0:0:0:0:
256,196,78011,1,0,0:0:0:0:
256,196,78173,1,8,0:0:0:0:
256,196,78335,1,0,0:0:0:0:
256,196,78416,1,0,0:0:0:0:
256,196,78497,1,8,0:0:0:0:
256,196,78659,1,8,0:0:0:0:
256,196,78821,1,4,0:0:0:0:
256,196,79146,1,8,0:0:0:0:
256,196,79308,1,8,0:0:0:0:
256,196,79470,1,0,0:0:0:0:
256,196,79632,1,0,0:0:0:0:
256,196,79794,1,8,0:0:0:0:
256,196,79956,1,8,0:0:0:0:
256,196,80119,1,4,0:0:0:0:
256,196,80281,1,4,0:0:0:0:
256,196,81092,1,12,0:0:0:0:
256,196,81416,1,0,0:0:0:0:
256,196,81740,1,0,0:0:0:0:
256,196,81902,1,8,0:0:0:0:
256,196,82227,1,0,0:0:0:0:
256,196,82389,1,0,0:0:0:0:
256,196,82713,1,0,0:0:0:0:
256,196,82875,1,8,0:0:0:0:
256,196,83200,1,8,0:0:0:0:
256,196,83362,1,0,0:0:0:0:
256,196,83524,1,0,0:0:0:0:
256,196,83686,1,8,0:0:0:0:
256,196,84011,1,0,0:0:0:0:
256,196,84335,1,0,0:0:0:0:
256,196,84497,1,8,0:0:0:0:
256,196,84822,1,0,0:0:0:0:
256,196,84984,1,0,0:0:0:0:
256,196,85308,1,0,0:0:0:0:
256,196,85470,1,8,0:0:0:0:
256,196,85795,1,8,0:0:0:0:
256,196,85957,1,0,0:0:0:0:
256,196,86119,1,0,0:0:0:0:
256,196,86281,1,8,0:0:0:0:
256,196,86443,1,0,0:0:0:0:
256,196,86605,1,8,0:0:0:0:
256,196,86929,1,8,0:0:0:0:
256,196,87092,1,8,0:0:0:0:
256,196,87416,1,8,0:0:0:0:
256,196,87578,1,8,0:0:0:0:
256,196,87902,1,8,0:0:0:0:
256,196,88065,1,8,0:0:0:0:
256,196,88389,1,0,0:0:0:0:
256,196,88551,1,8,0:0:0:0:
256,196,88713,1,8,0:0:0:0:
256,196,88875,1,8,0:0:0:0:
256,196,89038,1,8,0:0:0:0:
