osu file format v14

[General]
AudioFilename: audio.mp3
AudioLeadIn: 0
PreviewTime: 57254
Countdown: 0
SampleSet: Soft
StackLeniency: 0.7
Mode: 0
LetterboxInBreaks: 0
WidescreenStoryboard: 0

[Editor]
DistanceSpacing: 1.4
BeatDivisor: 4
GridSize: 32
TimelineZoom: 0.9

[Metadata]
Title:km/h (TV Size)
TitleUnicode:♡km/h (TV Size)
Artist:Ray
ArtistUnicode:Ray
Creator:SnowDrive-
Version:Lost's Extra!
Source:ろんぐらいだぁす!
Tags:opening tv size long riders! heart kilometer per hour [_lost_] conner c_o_n_n_e_r
BeatmapID:2172724
BeatmapSetID:1039421

[Difficulty]
HPDrainRate:7
CircleSize:4
OverallDifficulty:7
ApproachRate:9.2
SliderMultiplier:1.76
SliderTickRate:1

[Events]
//Background and Video events
0,0,"BG.png",0,0
//Break Periods
//Storyboard Layer 0 (Background)
//Storyboard Layer 1 (Fail)
//Storyboard Layer 2 (Pass)
//Storyboard Layer 3 (Foreground)
//Storyboard Layer 4 (Overlay)
//Storyboard Sound Samples

[TimingPoints]
984,324.324324324324,4,2,3,40,1,0
984,-200,4,2,3,40,0,0
5524,-133.333333333333,4,2,3,45,0,0
6173,-125,4,2,3,50,0,0
8767,-100,4,2,3,50,0,0
9011,-100,4,2,3,5,0,0
9092,-100,4,2,3,50,0,0
9416,-100,4,2,3,55,0,0
10065,-100,4,2,3,60,0,0
10713,-100,4,2,3,65,0,0
11038,-83.3333333333333,4,2,4,75,0,0
11119,-83.3333333333333,4,2,3,75,0,0
11281,-83.3333333333333,4,2,3,5,0,0
11362,-90.9090909090909,4,2,3,70,0,0
14200,-90.9090909090909,4,2,3,5,0,0
14281,-90.9090909090909,4,2,3,70,0,0
20767,-200,4,2,3,40,0,0
21659,-200,4,2,3,5,0,0
21740,-125,4,2,3,45,0,0
26929,-100,4,2,3,50,0,0
31794,-83.3333333333333,4,2,3,50,0,0
32038,-83.3333333333333,4,2,3,5,0,0
32119,-100,4,2,3,50,0,0
42497,-100,4,2,3,45,0,0
43632,-100,4,2,3,50,0,0
45092,-100,4,2,3,45,0,0
46227,-100,4,2,3,50,0,0
53524,-100,4,2,3,55,0,0
54173,-100,4,2,3,60,0,0
54821,-100,4,2,3,65,0,0
57740,-76.9230769230769,4,2,4,75,0,0
57821,-76.9230769230769,4,2,3,75,0,0
57983,-76.9230769230769,4,2,3,5,0,0
58065,-83.3333333333333,4,2,3,70,0,1
58308,-83.3333333333333,4,2,3,5,0,1
58389,-83.3333333333333,4,2,3,70,0,1
67146,-83.3333333333333,4,2,3,80,0,1
67308,-83.3333333333333,4,2,3,70,0,1
67470,-83.3333333333333,4,2,3,80,0,1
67794,-83.3333333333333,4,2,3,70,0,1
68119,-83.3333333333333,4,2,3,80,0,1
68443,-83.3333333333333,4,2,3,70,0,1
68686,-83.3333333333333,4,2,3,5,0,1
68767,-83.3333333333333,4,2,3,70,0,1
69983,-83.3333333333333,4,2,3,5,0,1
70065,-83.3333333333333,4,2,3,70,0,1
71281,-83.3333333333333,4,2,3,5,0,1
71362,-83.3333333333333,4,2,3,70,0,1
72578,-83.3333333333333,4,2,3,5,0,1
72659,-83.3333333333333,4,2,3,70,0,1
81092,-76.9230769230769,4,2,3,75,0,0
81335,-76.9230769230769,4,2,3,5,0,0
81416,-100,4,2,3,45,0,0
86605,-125,4,2,3,30,0,0
89038,-166.666666666667,4,2,3,5,0,0

[Colours]
Combo1 : 64,128,86
Combo2 : 0,128,255
Combo3 : 255,128,128
Combo4 : 128,64,64
Combo5 : 193,225,217

[HitObjects]
76,324,984,6,0,P|84:276|80:232,1,88,0|0,0:0|0:0,0:0:0:0:
28,164,1470,2,0,L|168:152,1,132,0|0,0:0|0:0,0:0:0:0:
176,160,2281,6,0,P|168:112|176:12,2,132,0|0|0,0:0|0:0|0:0,0:0:0:0:
352,192,3578,6,0,L|256:184,1,88,8|0,0:3|0:0,0:0:0:0:
372,272,4065,2,0,L|228:260,1,132,8|0,0:3|0:0,0:0:0:0:
0,344,4875,6,0,L|144:332,1,132,8|8,0:3|0:3,0:0:0:0:
104,72,5524,5,8,0:0:0:0:
52,132,5686,2,0,P|40:172|60:260,1,132.000005035401,8|8,0:3|0:3,0:0:0:0:
232,248,6173,6,0,P|244:208|224:104,1,140.8,4|0,0:0|0:0,0:0:0:0:
152,176,6659,1,8,0:3:0:0:
220,96,6821,2,0,L|292:100,1,70.4,8|0,0:0|0:0,0:0:0:0:
468,76,7146,2,0,L|397:72,1,70.4,2|0,0:0|0:0,0:0:0:0:
384,60,7389,1,0,0:0:0:0:
372,48,7470,6,0,L|380:220,1,140.8,8|2,0:3|0:0,0:0:0:0:
320,260,7956,1,0,0:0:0:0:
236,224,8119,2,0,P|196:220|164:232,1,70.4,8|8,0:0|0:3,0:0:0:0:
304,344,8443,2,0,P|344:348|376:336,1,70.4,8|8,0:0|0:3,0:0:0:0:
224,312,8767,6,0,B|160:304|156:352|96:344,1,132,12|0,0:3|0:0,0:0:0:0:
99,344,9092,1,8,0:3:0:0:
4,152,9254,1,8,0:3:0:0:
168,64,9416,1,8,0:3:0:0:
96,228,9578,1,8,0:3:0:0:
24,16,9740,1,8,0:3:0:0:
212,156,9902,1,8,0:3:0:0:
0,256,10065,5,8,0:3:0:0:
88,108,10227,1,8,0:3:0:0:
180,256,10389,1,8,0:3:0:0:
4,152,10551,1,8,0:3:0:0:
168,64,10713,1,8,0:3:0:0:
92,324,10875,1,8,0:3:0:0:
348,232,11038,6,0,P|276:240|220:304,1,158.399995166016,8|0,0:0|0:0,0:0:0:0:
212,320,11362,6,0,L|220:120,1,193.600005908203,12|8,0:3|0:0,0:0:0:0:
329,31,11848,1,0,0:0:0:0:
401,157,12011,2,0,P|349:156|311:129,1,96.8000029541017,10|8,0:3|0:3,0:0:0:0:
140,64,12335,2,0,P|180:38|227:38,1,96.8000029541017,8|0,0:0|0:0,0:0:0:0:
239,59,12578,1,0,0:0:0:0:
251,79,12659,6,0,B|159:105|159:38|60:69,1,193.600005908203,10|8,0:3|0:0,0:0:0:0:
8,193,13146,1,0,0:0:0:0:
133,244,13308,2,0,P|126:186|118:144,1,96.8000029541017,10|8,0:3|0:3,0:0:0:0:
259,260,13632,2,0,P|250:307|244:355,1,96.8000029541017,8|0,0:0|0:0,0:0:0:0:
264,152,13956,6,0,B|276:100|312:72|312:72|368:84,1,145.200004431152,10|0,0:3|0:0,0:0:0:0:
384,88,14281,2,0,L|376:192,1,96.8000029541017,8|0,0:0|0:0,0:0:0:0:
316,20,14605,1,10,0:3:0:0:
316,20,14767,1,8,0:3:0:0:
460,152,14929,2,0,L|468:48,1,96.8000029541017,8|0,0:0|0:0,0:0:0:0:
364,260,15254,5,10,0:3:0:0:
496,232,15416,1,0,0:0:0:0:
364,260,15578,1,8,0:0:0:0:
456,368,15740,2,0,B|396:376|396:376|328:360|328:360|260:368,1,193.600005908203,2|8,0:0|0:0,0:0:0:0:
244,356,16146,1,8,0:0:0:0:
224,344,16227,1,8,0:0:0:0:
48,156,16389,1,8,0:0:0:0:
64,176,16470,1,0,0:0:0:0:
80,196,16551,6,0,B|140:188|140:188|208:204|208:204|276:196,2,193.600005908203,12|8|10,0:3|0:0|0:3,0:0:0:0:
140,308,17362,1,8,0:3:0:0:
270,196,17524,2,0,P|276:132|262:88,1,96.8000029541017,8|0,0:0|0:0,0:0:0:0:
252,84,17767,1,0,0:0:0:0:
232,72,17848,6,0,P|308:92|428:56,2,193.600005908203,10|8|10,0:3|0:0|0:3,0:0:0:0:
120,16,18659,1,8,0:3:0:0:
28,100,18821,2,0,P|22:164|36:208,1,96.8000029541017,8|0,0:0|0:0,0:0:0:0:
44,216,19065,1,0,0:0:0:0:
60,236,19146,6,0,L|168:228,1,96.8000029541017,10|2,0:3|0:0,0:0:0:0:
4,312,19470,1,10,0:0:0:0:
4,312,19632,1,2,0:0:0:0:
212,136,19794,2,0,L|104:144,1,96.8000029541017,10|10,0:0|0:3,0:0:0:0:
196,312,20119,2,0,L|304:304,1,96.8000029541017,10|8,0:3|0:3,0:0:0:0:
304,300,20767,6,0,L|300:312,3,11,2|0|0|0,0:0|0:0|0:0|0:0,0:0:0:0:
397,242,21092,1,2,0:0:0:0:
474,301,21254,2,0,P|490:255|473:189,1,110,2|0,0:0|0:0,0:0:0:0:
469,178,21740,6,0,B|426:173|426:173|377:181|377:181|323:173,1,140.8,4|8,0:0|0:3,0:0:0:0:
264,112,22227,1,0,0:0:0:0:
188,160,22389,2,0,P|128:184|36:168,1,140.8,8|8,0:3|0:3,0:0:0:0:
12,92,22875,1,0,0:0:0:0:
80,32,23038,6,0,P|96:72|100:120,1,70.4,8|0,0:3|0:0,0:0:0:0:
47,233,23362,2,0,P|31:193|27:145,1,70.4,8|2,0:3|0:0,0:0:0:0:
143,258,23686,2,0,L|-9:250,2,140.8,8|8|4,0:3|0:3|0:1,0:0:0:0:
149,273,24659,2,0,P|186:261|229:257,1,70.4,8|0,0:3|0:0,0:0:0:0:
312,283,24983,2,0,P|378:284|432:214,1,140.8,8|8,0:3|0:3,0:0:0:0:
436,134,25470,1,0,0:0:0:0:
338,123,25632,6,0,B|346:198,1,70.4,8|0,0:3|0:0,0:0:0:0:
436,134,25956,2,0,B|428:59,1,70.4,8|2,0:3|0:0,0:0:0:0:
258,151,26281,2,0,L|270:291,1,140.8,8|8,0:3|0:0,0:0:0:0:
270,291,26929,5,4,0:0:0:0:
169,234,27092,1,0,0:0:0:0:
169,234,27173,1,0,0:0:0:0:
169,234,27254,2,0,P|115:237|79:265,1,88,0|8,0:0|0:3,0:0:0:0:
248,372,27578,2,0,P|269:334|269:290,1,88
192,154,27902,2,0,P|170:191|170:235,1,88,8|0,0:0|0:0,0:0:0:0:
319,72,28227,5,8,0:3:0:0:
404,196,28389,1,0,0:0:0:0:
404,196,28470,1,0,0:0:0:0:
404,196,28551,2,0,P|452:200|500:188,1,88,0|8,0:0|0:3,0:0:0:0:
244,220,28875,2,0,P|264:263|298:299,1,88,0|0,0:0|0:0,0:0:0:0:
120,116,29200,2,0,P|92:155|78:203,1,88,8|0,0:0|0:0,0:0:0:0:
180,40,29524,5,8,0:3:0:0:
24,104,29686,1,0,0:0:0:0:
24,104,29767,1,0,0:0:0:0:
24,104,29848,2,0,P|16:52|24:16,1,88,0|0,0:0|0:0,0:0:0:0:
160,184,30173,5,8,0:0:0:0:
20,268,30335,1,8,0:3:0:0:
232,260,30497,5,8,0:3:0:0:
229,96,30659,1,8,0:3:0:0:
128,280,30821,5,12,0:0:0:0:
271,359,30983,1,12,0:3:0:0:
271,359,31632,2,0,L|324:352,1,44,8|8,0:3|0:3,0:0:0:0:
392,364,31794,6,0,B|364:308|388:252|388:252|400:280|424:292,1,158.399995166016,8|0,0:0|0:0,0:0:0:0:
428,300,32119,6,0,P|448:232|424:112,1,176,4|8,0:0|0:0,0:0:0:0:
340,60,32605,1,0,0:0:0:0:
260,140,32767,2,0,P|252:188|264:236,1,88,8|8,0:3|0:3,0:0:0:0:
300,332,33092,2,0,L|204:328,1,88,8|0,0:0|0:0,0:0:0:0:
104,364,33416,6,0,P|124:296|100:176,1,176,8|8,0:3|0:0,0:0:0:0:
12,132,33902,2,0,L|196:120,1,176,8|0,0:3|0:0,0:0:0:0:
280,48,34389,1,8,0:0:0:0:
348,140,34551,1,0,0:0:0:0:
348,140,34632,1,0,0:0:0:0:
348,140,34713,6,0,P|428:152|516:84,1,176,8|8,0:3|0:0,0:0:0:0:
408,40,35200,1,0,0:0:0:0:
348,140,35362,2,0,P|340:172|356:248,1,88,8|8,0:3|0:3,0:0:0:0:
448,352,35686,2,0,P|456:320|440:244,1,88,8|0,0:0|0:0,0:0:0:0:
204,304,36011,6,0,B|260:300|260:300|324:308|324:308|396:300,1,176,8|8,0:3|0:0,0:0:0:0:
252,204,36497,2,0,B|196:208|196:208|132:200|132:200|60:208,1,176,8|0,0:3|0:0,0:0:0:0:
20,108,36983,1,8,0:0:0:0:
108,36,37146,1,0,0:0:0:0:
108,36,37227,1,8,0:3:0:0:
108,36,37308,6,0,B|164:32|164:32|228:40|228:40|300:32,1,176,12|8,0:3|0:0,0:0:0:0:
396,16,37794,1,0,0:0:0:0:
480,96,37956,2,0,P|488:148|480:188,1,88,8|8,0:3|0:3,0:0:0:0:
372,220,38281,2,0,P|364:168|372:128,1,88,8|0,0:0|0:0,0:0:0:0:
448,268,38605,6,0,P|392:300|292:256,1,176,8|8,0:3|0:0,0:0:0:0:
216,180,39092,1,8,0:3:0:0:
136,264,39254,2,0,P|128:304|136:352,1,88,2|8,0:0|0:3,0:0:0:0:
216,180,39578,2,0,P|224:140|216:92,1,88,8|0,0:0|0:0,0:0:0:0:
132,16,39902,5,8,0:3:0:0:
40,88,40065,1,8,0:3:0:0:
40,88,40146,1,8,0:3:0:0:
40,88,40227,2,0,L|48:176,1,88,12|0,0:3|0:0,0:0:0:0:
4,280,40551,2,0,P|56:256|188:292,1,176,4|0,0:0|0:0,0:0:0:0:
272,332,41038,1,0,0:0:0:0:
272,332,41119,1,0,0:0:0:0:
272,332,41200,6,0,B|234:267|234:267|266:157,1,176,12|8,0:3|0:0,0:0:0:0:
235,50,41686,2,0,B|316:72|328:14|419:38,1,176,12|8,0:3|0:3,0:0:0:0:
496,120,42173,1,8,0:0:0:0:
376,204,42335,1,0,0:0:0:0:
508,268,42497,5,12,0:3:0:0:
508,268,42659,1,8,0:3:0:0:
464,196,42821,2,0,P|436:232|476:352,2,176,2|10|8,0:0|0:3|0:3,0:0:0:0:
352,224,43632,6,0,B|296:220|296:220|236:228|236:228|168:224,1,176,12|8,0:3|0:3,0:0:0:0:
92,300,44119,1,8,0:0:0:0:
176,224,44281,1,8,0:3:0:0:
20,188,44443,1,8,0:0:0:0:
124,58,44605,1,8,0:3:0:0:
124,58,44686,1,8,0:3:0:0:
124,58,44767,2,0,P|131:104|133:153,1,88,8|8,0:0|0:3,0:0:0:0:
254,267,45092,6,0,P|256:223|263:179,1,88,12|8,0:3|0:3,0:0:0:0:
213,66,45416,2,0,P|265:86|377:54,1,176,2|10,0:0|0:3,0:0:0:0:
492,28,45902,1,8,0:3:0:0:
492,28,45983,1,0,0:0:0:0:
492,28,46065,1,8,0:0:0:0:
440,128,46227,6,0,B|428:152|408:176|408:176|396:232|436:312,1,176,12|8,0:3|0:3,0:0:0:0:
508,372,46713,1,8,0:0:0:0:
426,290,46875,2,0,B|368:288|368:288|308:304|308:304|238:302,1,176,8|8,0:3|0:3,0:0:0:0:
228,312,47281,1,0,0:0:0:0:
208,320,47362,2,0,L|212:216,1,88,8|0,0:3|0:0,0:0:0:0:
132,152,47686,5,12,0:3:0:0:
0,244,47848,1,0,0:0:0:0:
0,244,47929,1,0,0:0:0:0:
0,244,48011,2,0,P|72:252|96:244,1,88,10|8,0:3|0:0,0:0:0:0:
112,52,48335,2,0,P|141:118|160:135,1,88,10|8,0:3|0:3,0:0:0:0:
332,72,48659,2,0,P|289:130|284:155,1,88,10|0,0:0|0:0,0:0:0:0:
396,240,48983,5,8,0:3:0:0:
456,120,49146,1,0,0:0:0:0:
456,120,49227,1,0,0:0:0:0:
456,120,49308,2,0,P|464:72|456:28,1,88,10|8,0:3|0:0,0:0:0:0:
412,256,49632,2,0,P|460:264|504:256,1,88,10|8,0:3|0:3,0:0:0:0:
272,212,49956,2,0,P|264:260|272:304,1,88,10|0,0:0|0:0,0:0:0:0:
320,112,50281,5,8,0:3:0:0:
168,220,50443,1,0,0:0:0:0:
168,220,50524,1,0,0:0:0:0:
168,220,50605,2,0,P|128:228|76:216,1,88,10|8,0:3|0:0,0:0:0:0:
272,212,50929,2,0,P|298:242|314:293,1,88,10|8,0:3|0:3,0:0:0:0:
212,124,51254,2,0,P|225:85|261:46,1,88,10|0,0:0|0:0,0:0:0:0:
376,16,51578,5,10,0:3:0:0:
440,116,51740,1,8,0:0:0:0:
440,116,51821,1,8,0:0:0:0:
440,116,51902,2,0,L|444:216,1,88,8|10,0:3|0:0,0:0:0:0:
320,316,52227,2,0,L|323:228,1,88,8|8,0:3|0:0,0:0:0:0:
196,108,52551,2,0,L|199:195,1,88,10|8,0:3|0:3,0:0:0:0:
80,300,52875,5,4,0:0:0:0:
80,300,53200,5,0,0:0:0:0:
52,40,53362,1,2,0:0:0:0:
156,312,53524,5,2,0:0:0:0:
150,50,53686,1,0,0:0:0:0:
232,296,53848,5,2,0:0:0:0:
248,34,54010,1,0,0:0:0:0:
308,316,54173,5,2,0:0:0:0:
346,56,54335,1,2,0:0:0:0:
384,296,54497,5,2,0:0:0:0:
444,40,54659,1,2,0:0:0:0:
456,324,54821,5,2,0:0:0:0:
228,180,54983,1,2,0:0:0:0:
488,112,55146,1,2,0:0:0:0:
364,372,55308,1,2,0:0:0:0:
176,112,55470,1,6,0:0:0:0:
176,112,55632,1,4,0:0:0:0:
176,112,56281,5,8,0:3:0:0:
372,208,56443,1,8,0:0:0:0:
184,328,56605,6,0,P|173:282|184:236,1,88,4|0,0:0|0:0,0:0:0:0:
284,128,56929,1,8,0:3:0:0:
104,72,57092,2,0,P|97:112|109:164,1,88,8|8,0:0|0:3,0:0:0:0:
260,284,57416,5,8,0:0:0:0:
260,284,57497,1,8,0:0:0:0:
260,284,57578,1,8,0:0:0:0:
260,284,57659,1,8,0:3:0:0:
260,284,57740,2,0,P|340:264|432:292,1,171.599992144776,8|0,0:0|0:0,0:0:0:0:
448,308,58065,6,0,L|452:136,1,158.399995166016,12|0,0:3|0:0,0:0:0:0:
448,119,58389,2,0,P|394:101|345:112,1,105.599996777344,8|0,0:0|0:0,0:0:0:0:
236,208,58713,1,8,0:3:0:0:
236,208,58875,1,8,0:3:0:0:
347,110,59038,2,0,L|351:-2,1,105.599996777344,8|0,0:0|0:0,0:0:0:0:
155,159,59362,6,0,L|151:271,1,105.599996777344,8|0,0:3|0:0,0:0:0:0:
336,364,59686,2,0,L|340:256,1,105.599996777344,8|0,0:0|0:0,0:0:0:0:
232,172,60011,1,8,0:3:0:0:
232,172,60173,1,8,0:3:0:0:
148,280,60335,2,0,P|100:288|36:280,1,105.599996777344,8|0,0:0|0:0,0:0:0:0:
232,172,60659,6,0,P|266:216|284:270,1,105.599996777344,8|0,0:3|0:0,0:0:0:0:
84,140,60983,2,0,P|105:87|139:43,1,105.599996777344,8|0,0:0|0:0,0:0:0:0:
268,12,61308,1,8,0:3:0:0:
268,12,61470,1,8,0:3:0:0:
340,128,61632,2,0,L|464:124,1,105.599996777344,8|0,0:0|0:0,0:0:0:0:
400,252,61956,6,0,P|392:308|408:364,1,105.599996777344,8|0,0:3|0:0,0:0:0:0:
276,300,62281,2,0,L|152:304,1,105.599996777344,8|0,0:0|0:0,0:0:0:0:
48,364,62605,1,12,0:3:0:0:
224,224,62767,1,8,0:3:0:0:
224,224,62848,1,0,0:0:0:0:
224,224,62929,1,8,0:0:0:0:
24,136,63092,1,8,0:0:0:0:
24,136,63173,1,0,0:0:0:0:
24,136,63254,6,0,P|0:244|36:340,1,211.199993554688,12|8,0:3|0:0,0:0:0:0:
168,364,63740,1,0,0:0:0:0:
224,224,63902,2,0,P|228:152|220:112,1,105.599996777344,8|8,0:3|0:3,0:0:0:0:
120,28,64227,2,0,P|116:100|124:140,1,105.599996777344,8|0,0:0|0:0,0:0:0:0:
212,236,64551,6,0,L|432:224,1,211.199993554688,8|8,0:3|0:0,0:0:0:0:
484,100,65038,1,0,0:0:0:0:
364,32,65200,2,0,P|352:104|364:152,1,105.599996777344,8|8,0:3|0:3,0:0:0:0:
444,244,65524,2,0,P|456:172|444:124,1,105.599996777344,8|0,0:0|0:0,0:0:0:0:
384,20,65848,6,0,L|164:32,1,211.199993554688,12|8,0:3|0:0,0:0:0:0:
80,296,66335,1,8,0:3:0:0:
100,52,66497,5,8,0:0:0:0:
224,236,66659,1,8,0:3:0:0:
2,340,66821,5,8,0:0:0:0:
100,144,66983,1,8,0:3:0:0:
301,284,67145,5,12,0:0:0:0:
132,224,67308,1,8,0:3:0:0:
264,116,67470,5,8,0:0:0:0:
264,116,67551,1,8,0:0:0:0:
264,116,67632,2,0,L|320:112,1,52.7999983886719,8|0,0:0|0:0,0:0:0:0:
388,148,67794,2,0,P|396:92|380:28,1,105.599996777344,0|8,0:0|0:3,0:0:0:0:
224,236,68119,2,0,P|216:292|232:356,1,105.599996777344,12|0,0:0|0:0,0:0:0:0:
382,239,68443,6,0,L|178:235,1,158.399995166016,12|0,0:3|0:0,0:0:0:0:
198,231,68767,2,0,P|190:175|206:111,1,105.599996777344,8|0,0:0|0:0,0:0:0:0:
382,239,69092,2,0,P|337:273|274:292,1,105.599996777344,8|8,0:0|0:3,0:0:0:0:
300,72,69416,2,0,P|352:93|399:138,1,105.599996777344,8|0,0:0|0:0,0:0:0:0:
408,144,69659,1,0,0:0:0:0:
420,168,69740,6,0,L|428:4,1,158.399995166016,8|0,0:0|0:0,0:0:0:0:
436,36,70065,2,0,P|468:92|508:120,1,105.599996777344,8|0,0:0|0:0,0:0:0:0:
216,108,70389,2,0,P|280:108|324:87,1,105.599996777344,8|8,0:0|0:3,0:0:0:0:
164,328,70713,2,0,P|196:272|200:223,1,105.599996777344,8|8,0:0|0:3,0:0:0:0:
64,236,71038,6,0,L|264:216,1,158.399995166016,12|0,0:0|0:0,0:0:0:0:
248,216,71362,2,0,P|276:276|272:328,1,105.599996777344,8|0,0:0|0:0,0:0:0:0:
216,108,71686,2,0,P|150:102|107:72,1,105.599996777344,8|8,0:0|0:3,0:0:0:0:
328,144,72011,2,0,P|365:89|412:67,1,105.599996777344,8|8,0:0|0:3,0:0:0:0:
424,72,72254,1,0,0:0:0:0:
448,76,72335,6,0,L|440:252,1,158.399995166016,8|0,0:0|0:0,0:0:0:0:
424,256,72659,2,0,L|448:364,1,105.599996777344,8|8,0:0|0:3,0:0:0:0:
224,232,72983,2,0,L|311:299,1,105.599996777344,4|8,0:0|0:3,0:0:0:0:
328,312,73227,1,8,0:3:0:0:
348,328,73308,1,8,0:0:0:0:
32,324,73470,1,8,0:3:0:0:
60,320,73551,1,8,0:3:0:0:
84,316,73632,6,0,B|184:300|184:300|232:280|240:184,1,211.199993554688,12|8,0:3|0:3,0:0:0:0:
116,144,74119,1,8,0:3:0:0:
244,196,74281,2,0,B|264:136|236:76|236:76|292:80|296:128,1,211.199993554688,10|10,0:0|0:3,0:0:0:0:
116,144,74767,1,0,0:0:0:0:
116,144,74848,1,0,0:0:0:0:
116,144,74929,6,0,L|0:136,1,105.599996777344,10|0,0:3|0:0,0:0:0:0:
328,216,75254,2,0,L|222:209,1,105.599996777344,10|8,0:3|0:3,0:0:0:0:
400,320,75578,2,0,P|436:268|416:120,1,211.199993554688,8|0,0:0|0:0,0:0:0:0:
312,44,76065,1,0,0:0:0:0:
212,140,76227,6,0,B|144:148|144:148|64:132|64:132|-4:140,1,211.199993554688,12|8,0:3|0:3,0:0:0:0:
48,260,76713,1,8,0:0:0:0:
48,260,77038,1,8,0:0:0:0:
148,356,77200,2,0,B|216:348|216:348|296:364|296:364|364:356,1,211.199993554688,12|8,0:3|0:3,0:0:0:0:
452,260,77686,1,8,0:0:0:0:
452,260,78011,1,8,0:0:0:0:
372,148,78173,2,0,P|316:144|264:160,1,105.599996777344,8|8,0:3|0:0,0:0:0:0:
172,252,78497,2,0,P|222:265|275:261,1,105.599996777344,8|8,0:3|0:0,0:0:0:0:
300,252,78740,1,0,0:0:0:0:
324,240,78821,5,12,0:3:0:0:
292,368,78983,1,0,0:0:0:0:
276,120,79146,5,2,0:0:0:0:
404,152,79308,1,2,0:0:0:0:
156,168,79470,5,2,0:0:0:0:
188,40,79632,1,2,0:0:0:0:
200,280,79794,5,2,0:0:0:0:
72,248,79956,1,2,0:0:0:0:
276,120,80119,1,6,0:0:0:0:
176,368,80281,1,4,0:0:0:0:
176,368,80929,2,0,P|128:360|108:360,1,52.7999983886719,0|0,0:0|0:0,0:0:0:0:
48,364,81092,6,0,B|68:344|80:292|80:292|80:244|52:196,1,171.599992144776,2|0,0:0|0:0,0:0:0:0:
0,140,81416,1,6,0:0:0:0:
256,192,81497,12,2,89038,0:0:0:0:
