osu file format v14

[General]
AudioFilename: audio.mp3
AudioLeadIn: 0
PreviewTime: 57308
Countdown: 1
SampleSet: Soft
StackLeniency: 0.7
Mode: 0
LetterboxInBreaks: 0
WidescreenStoryboard: 0

[Editor]
DistanceSpacing: 0.7
BeatDivisor: 4
GridSize: 16
TimelineZoom: 2.2

[Metadata]
Title:km/h (TV Size)
TitleUnicode:♡km/h (TV Size)
Artist:Ray
ArtistUnicode:Ray
Creator:SnowDrive-
Version:Highspeed!
Source:
Tags:
BeatmapID:2172723
BeatmapSetID:1039421

[Difficulty]
HPDrainRate:5.5
CircleSize:4
OverallDifficulty:9.2
ApproachRate:9.4
SliderMultiplier:1.82
SliderTickRate:1

[Events]
//Background and Video events
0,0,"BG.png",0,0
//Break Periods
//Storyboard Layer 0 (Background)
//Storyboard Layer 1 (Fail)
//Storyboard Layer 2 (Pass)
//Storyboard Layer 3 (Foreground)
//Storyboard Layer 4 (Overlay)
//Storyboard Sound Samples

[TimingPoints]
984,324.324324324324,4,2,6,40,1,0
984,-138.888888888889,4,2,6,40,0,0
6173,-121.951219512195,4,2,6,45,0,0
8767,-121.951219512195,4,2,6,50,0,0
11038,-81.9672131147541,4,2,6,40,0,0
11281,-81.9672131147541,4,2,6,5,0,0
11362,-98.0392156862745,4,2,6,60,0,0
20281,-138.888888888889,4,2,6,60,0,0
20767,-161.290322580645,4,2,6,40,0,0
21740,-138.888888888889,4,2,6,50,0,0
26848,-138.888888888889,4,2,6,5,0,0
26929,-138.888888888889,4,2,6,55,0,0
28956,-138.888888888889,4,2,6,5,0,0
29038,-138.888888888889,4,2,6,55,0,0
31632,-89.2857142857143,4,2,6,55,0,0
31794,-75.7575757575758,4,2,6,50,0,0
32119,-98.0392156862745,4,2,6,60,0,0
40227,-70.4225352112676,4,2,6,60,0,0
40470,-70.4225352112676,4,2,6,5,0,0
40551,-70.4225352112676,4,2,6,60,0,0
40794,-70.4225352112676,4,2,6,5,0,0
40875,-70.4225352112676,4,2,6,60,0,0
41200,-121.951219512195,4,2,6,60,0,0
42497,-98.0392156862745,4,2,6,55,0,0
47686,-108.695652173913,4,2,6,55,0,0
52875,-98.0392156862745,4,2,6,60,0,0
56605,-98.0392156862745,4,2,6,60,0,0
57740,-81.9672131147541,4,2,6,60,0,0
57983,-81.9672131147541,4,2,6,5,0,0
58065,-98.0392156862745,4,2,6,70,0,1
68119,-98.0392156862745,4,2,6,60,0,0
68443,-98.0392156862745,4,2,6,70,0,1
73632,-98.0392156862745,4,2,6,70,0,0
75740,-98.0392156862745,4,2,6,5,0,0
75821,-98.0392156862745,4,2,6,70,0,0
75983,-98.0392156862745,4,2,6,5,0,0
76065,-98.0392156862745,4,2,6,70,0,0
76227,-98.0392156862745,4,2,6,70,0,0
76713,-98.0392156862745,4,2,6,60,0,0
77200,-98.0392156862745,4,2,6,70,0,0
77686,-98.0392156862745,4,2,6,60,0,0
78011,-98.0392156862745,4,2,6,70,0,0
78659,-98.0392156862745,4,2,6,60,0,0
78821,-98.0392156862745,4,2,6,70,0,1
80281,-98.0392156862745,4,2,6,60,0,0
81092,-81.9672131147541,4,2,6,70,0,1
81335,-121.951219512195,4,2,6,5,0,1
81416,-121.951219512195,4,2,6,30,0,0
86605,-121.951219512195,4,2,6,10,0,0

[Colours]
Combo1 : 136,196,255
Combo2 : 255,128,128
Combo3 : 255,168,81

[HitObjects]
157,174,984,6,0,B|189:165|189:165|79:148,1,131.040003199219,6|2,0:2|0:2,0:2:0:0:
166,263,1470,2,0,B|133:254|133:254|243:237,1,131.040003199219,2|2,0:2|0:2,0:2:0:0:
299,198,1956,1,2,0:0:0:0:
348,133,2119,1,2,0:0:0:0:
316,61,2281,1,2,0:0:0:0:
243,96,2443,2,0,B|199:106|199:106|100:73,1,131.040003199219,2|2,0:0|0:0,0:0:0:0:
52,133,2929,2,0,L|57:212,1,65.5200015996094,2|0,0:0|0:0,0:0:0:0:
126,253,3254,2,0,L|120:332,1,65.5200015996094,2|0,0:0|1:0,0:0:0:0:
51,337,3578,6,0,B|134:332|95:370|183:370,1,131.040003199219,6|2,1:2|0:0,0:0:0:0:
246,338,4065,2,0,B|326:338|286:300|370:304,1,131.040003199219,2|2,1:2|0:0,0:0:0:0:
445,337,4551,1,10,0:0:0:0:
473,262,4713,1,2,1:2:0:0:
422,201,4875,1,2,1:2:0:0:
469,145,5038,2,0,B|422:151|422:151|313:116,1,131.040003199219,2|2,0:0|1:2,0:0:0:0:
263,54,5524,1,10,0:0:0:0:
221,199,5686,1,0,1:0:0:0:
143,67,5848,1,10,0:0:0:0:
104,225,6011,1,0,1:0:0:0:
46,114,6173,6,0,B|66:169|66:169|38:258,1,149.240002277222,6|2,0:0|0:0,0:0:0:0:
87,344,6659,2,0,B|155:349|155:349|178:338|178:338|253:342,1,149.240002277222,2|2,1:2|0:0,0:0:0:0:
320,278,7146,2,0,P|339:237|335:194,1,74.6200011386109,2|8,0:0|0:0,0:0:0:0:
307,171,7389,1,8,0:0:0:0:
307,171,7470,6,0,L|299:84,1,74.6200011386109,2|2,1:2|0:0,0:0:0:0:
190,34,7794,2,0,L|183:108,1,74.6200011386109,2|2,0:0|0:0,0:0:0:0:
108,262,8119,1,10,0:0:0:0:
45,76,8281,1,0,1:0:0:0:
231,200,8443,1,10,0:0:0:0:
25,284,8605,1,0,1:0:0:0:
258,348,8767,5,6,1:2:0:0:
258,348,9092,1,10,0:2:0:0:
181,111,9254,1,10,0:2:0:0:
96,374,9416,5,8,0:0:0:0:
319,221,9578,1,8,0:0:0:0:
52,142,9740,1,8,0:0:0:0:
265,367,9902,1,8,0:0:0:0:
350,22,10065,5,10,0:0:0:0:
79,243,10227,1,8,0:0:0:0:
425,336,10389,5,8,0:0:0:0:
234,30,10551,1,8,0:0:0:0:
112,353,10713,5,14,0:0:0:0:
418,165,10875,1,14,0:0:0:0:
150,93,11038,6,0,B|208:114|208:114|344:91,1,166.529993139176,8|0,0:0|0:0,0:0:0:0:
347,125,11362,6,0,B|321:206|321:206|326:316,1,185.640001133057,6|10,1:2|0:0,0:0:0:0:
368,377,11848,1,0,0:0:0:0:
236,255,12011,2,0,P|184:242|141:250,1,92.8200005665283,2|0,1:2|0:0,0:0:0:0:
53,309,12335,1,10,0:0:0:0:
186,342,12497,1,2,0:0:0:0:
56,127,12659,6,0,L|60:224,1,92.8200005665283,2|0,1:2|0:0,0:0:0:0:
169,54,12983,2,0,L|165:151,1,92.8200005665283,10|0,0:0|0:0,0:0:0:0:
282,24,13308,2,0,L|286:121,1,92.8200005665283,2|0,1:2|0:0,0:0:0:0:
376,81,13632,2,0,L|372:178,1,92.8200005665283,10|0,0:0|0:0,0:0:0:0:
357,212,13875,1,0,0:0:0:0:
357,212,13956,2,0,B|311:199|251:223|289:243|235:262|165:240,1,185.640001133057,2|8,1:2|0:0,0:0:0:0:
296,329,14443,1,0,0:0:0:0:
154,156,14605,2,0,P|173:198|179:247,1,92.8200005665283,2|0,1:2|0:0,0:0:0:0:
297,71,14929,2,0,P|277:113|271:158,1,92.8200005665283,10|0,0:0|0:0,0:0:0:0:
451,304,15254,5,2,1:2:0:0:
371,158,15416,1,2,0:0:0:0:
299,361,15578,1,10,0:0:0:0:
201,237,15740,2,0,L|304:233,1,92.8200005665283,2|4,0:0|1:2,0:0:0:0:
120,305,16065,1,10,0:0:0:0:
120,305,16146,1,8,0:0:0:0:
120,305,16227,2,8,L|125:359,1,46.4100002832642,0|0,0:0|0:0,0:0:0:0:
19,208,16389,2,8,L|14:262,1,46.4100002832642,0|0,0:0|0:0,0:0:0:0:
130,115,16551,6,0,B|181:134|181:134|321:117,1,185.640001133057,6|8,1:2|0:0,0:0:0:0:
393,174,17038,2,0,B|409:282|347:224|361:355,1,185.640001133057,2|0,0:0|0:0,0:0:0:0:
283,210,17524,1,10,0:0:0:0:
230,333,17686,1,0,0:0:0:0:
84,227,17848,6,0,B|154:223|154:223|192:243|192:243|267:240,1,185.640001133057,2|8,1:2|0:0,0:0:0:0:
391,170,18335,1,0,0:0:0:0:
268,79,18497,1,0,1:0:0:0:
363,272,18659,1,0,0:0:0:0:
441,66,18821,1,8,0:0:0:0:
250,223,18983,1,8,0:0:0:0:
250,223,19065,1,8,0:0:0:0:
250,223,19146,5,6,1:2:0:0:
489,284,19308,1,2,0:2:0:0:
357,62,19470,5,10,0:0:0:0:
272,355,19632,1,2,1:2:0:0:
78,102,19794,5,8,0:0:0:0:
401,185,19956,1,2,1:2:0:0:
401,185,20038,1,0,1:0:0:0:
401,185,20119,1,14,0:2:0:0:
98,321,20281,1,6,1:2:0:0:
98,321,20605,1,0,0:0:0:0:
173,256,20767,6,0,L|177:199,1,56.4199977616578,2|0,0:0|0:0,0:0:0:0:
112,94,21092,1,0,0:0:0:0:
55,169,21254,2,0,L|60:225,1,56.4199977616578,2|0,0:0|0:0,0:0:0:0:
207,107,21578,1,0,0:0:0:0:
207,107,21659,1,0,0:0:0:0:
207,107,21740,6,0,B|237:120|237:120|325:112,1,98.2800023994141,6|0,1:2|0:0,0:2:0:0:
337,131,22065,2,0,P|351:164|351:204,1,65.5200015996094,2|0,1:2|0:2,0:2:0:0:
296,272,22389,2,0,L|292:350,1,65.5200015996094,2|0,1:2|0:0,0:2:0:0:
224,199,22713,1,0,1:2:0:0:
160,292,22875,1,2,1:2:0:0:
160,292,22956,1,0,1:2:0:0:
160,292,23038,1,2,1:2:0:0:
99,208,23200,2,0,L|95:127,1,65.5200015996094,2|0,0:2|1:2,0:2:0:0:
147,41,23524,1,2,0:2:0:0:
147,41,23605,1,0,0:2:0:0:
147,41,23686,2,0,P|159:37|185:38,1,32.7600007998047,0|0,1:2|0:2,0:2:0:0:
258,109,23848,2,0,P|241:109|225:104,1,32.7600007998047,0|0,0:2|0:2,0:2:0:0:
143,157,24011,2,0,B|123:203|123:203|129:273,1,98.2800023994141,2|0,1:2|0:0,0:2:0:0:
157,291,24335,6,0,L|264:285,1,98.2800023994141,6|0,1:2|0:0,0:2:0:0:
293,308,24659,2,0,P|336:317|369:308,1,65.5200015996094,2|0,1:2|0:2,0:2:0:0:
422,241,24983,2,0,L|428:166,1,65.5200015996094,2|0,1:2|0:0,0:2:0:0:
371,53,25308,1,0,1:2:0:0:
311,162,25470,1,2,0:2:0:0:
311,162,25551,1,0,0:2:0:0:
311,162,25632,1,2,1:2:0:0:
213,61,25794,2,0,L|284:57,1,65.5200015996094,2|0,0:2|1:2,0:2:0:0:
182,180,26119,2,0,P|161:156|154:124,1,65.5200015996094,2|0,0:2|0:0,0:2:0:0:
263,252,26443,1,0,0:2:0:0:
263,252,26524,1,0,0:0:0:0:
263,252,26605,1,14,0:2:0:0:
176,318,26767,1,0,0:0:0:0:
186,176,26929,5,6,1:2:0:0:
261,356,27092,1,0,1:0:0:0:
261,356,27173,1,0,0:0:0:0:
261,356,27254,2,0,L|314:353,1,32.7600007998047,0|0,1:0|0:0,0:0:0:0:
389,298,27416,2,0,B|365:264|365:264|378:198,1,98.2800023994141,10|0,0:0|0:0,0:0:0:0:
367,166,27740,2,0,P|352:158|336:154,1,32.7600007998047,0|0,0:0|0:0,0:0:0:0:
263,252,27902,2,0,P|278:248|293:240,1,32.7600007998047,10|0,0:2|0:0,0:0:0:0:
202,151,28065,1,2,0:0:0:0:
202,151,28146,1,0,0:0:0:0:
202,151,28227,6,0,B|176:187|176:187|187:259,1,98.2800023994141,0|0,1:2|0:0,0:0:0:0:
170,291,28551,2,0,L|114:282,1,32.7600007998047,0|0,1:0|0:0,0:0:0:0:
67,358,28713,2,0,B|95:318|95:318|86:244,1,98.2800023994141,10|0,0:0|0:0,0:0:0:0:
56,230,29038,1,0,1:0:0:0:
56,230,29119,1,0,0:0:0:0:
56,230,29200,2,0,L|55:175,1,32.7600007998047,10|0,0:0|0:0,0:0:0:0:
145,141,29362,2,0,L|144:173,1,32.7600007998047,2|0,0:0|0:0,0:0:0:0:
211,297,29524,6,0,P|250:302|296:288,1,65.5200015996094,4|0,1:2|0:0,0:0:0:0:
350,136,29848,1,8,0:0:0:0:
402,313,30011,1,8,0:0:0:0:
452,52,30173,5,10,0:0:0:0:
210,202,30335,1,8,0:0:0:0:
496,253,30497,5,8,0:0:0:0:
321,23,30659,1,8,0:0:0:0:
270,355,30821,5,14,0:0:0:0:
132,53,30983,1,6,0:0:0:0:
132,53,31632,1,2,1:2:0:0:
132,53,31713,1,0,1:0:0:0:
132,53,31794,2,0,L|136:121,1,60.0599998167114,14|0,0:0|1:0,0:0:0:0:
228,211,31956,2,0,L|231:151,1,60.0599998167114,2|0,1:2|1:0,0:0:0:0:
146,277,32119,6,0,B|203:252|203:252|307:259,1,139.230000849792,6|0,1:2|0:0,0:0:0:0:
310,287,32443,2,0,P|333:332|339:377,1,92.8200005665283,10|0,0:0|0:0,0:0:0:0:
364,223,32767,2,0,P|393:263|406:307,1,92.8200005665283,2|0,1:2|0:0,0:0:0:0:
441,123,33092,1,8,0:0:0:0:
324,90,33254,1,2,0:0:0:0:
254,205,33416,1,2,1:2:0:0:
131,100,33578,2,0,P|182:85|226:94,1,92.8200005665283,2|8,0:0|0:0,0:0:0:0:
114,263,33902,2,0,P|90:216|92:175,1,92.8200005665283,2|0,0:0|0:0,0:0:0:0:
235,336,34227,1,0,1:0:0:0:
93,379,34389,1,10,0:0:0:0:
177,212,34551,1,0,0:0:0:0:
258,365,34713,6,0,P|319:374|368:306,1,139.230000849792,2|0,1:2|0:0,0:0:0:0:
349,271,35038,2,0,L|341:174,1,92.8200005665283,10|0,0:0|0:0,0:0:0:0:
260,82,35362,2,0,L|252:174,1,92.8200005665283,2|0,1:2|0:0,0:0:0:0:
151,303,35686,1,8,0:0:0:0:
94,151,35848,1,2,0:0:0:0:
241,261,36011,1,2,1:2:0:0:
69,352,36173,2,0,P|56:296|67:252,1,92.8200005665283,2|8,0:0|0:0,0:0:0:0:
247,171,36497,2,0,P|253:216|240:260,1,92.8200005665283,2|0,1:2|0:0,0:0:0:0:
94,151,36821,1,0,1:0:0:0:
185,34,36983,1,10,0:0:0:0:
304,104,37146,1,10,0:0:0:0:
304,104,37227,1,8,0:0:0:0:
304,104,37308,6,0,L|401:98,1,92.8200005665283,0|0,1:2|0:0,0:0:0:0:
492,165,37632,1,10,0:0:0:0:
492,165,37794,2,0,P|506:121|505:74,1,92.8200005665283,2|0,0:0|1:0,0:0:0:0:
408,191,38119,1,0,1:0:0:0:
408,191,38281,2,0,P|406:237|419:281,1,92.8200005665283,10|0,0:0|0:0,0:0:0:0:
491,339,38605,2,0,B|411:330|411:330|387:343|387:343|295:333,1,185.640001133057,2|10,1:2|2:0,0:0:0:0:
236,284,39092,2,0,P|206:237|284:216,1,139.230000849792,0|0,2:0|0:0,0:0:0:0:
296,223,39416,1,2,1:2:0:0:
228,88,39578,1,10,0:0:0:0:
122,188,39740,1,2,0:0:0:0:
73,50,39902,1,0,0:0:0:0:
122,188,40065,1,2,0:0:0:0:
122,188,40146,1,2,0:0:0:0:
122,188,40227,6,0,B|73:161|73:161|143:125|209:154,1,193.829990239884,14|0,0:0|0:0,0:0:0:0:
260,253,40551,2,0,B|216:195|216:195|258:60,1,193.829990239884,14|0,0:0|0:0,0:0:0:0:
328,70,40875,2,0,B|349:93|349:93|285:98|207:63,1,129.219993493256,14|8,0:0|0:0,0:0:0:0:
227,45,41119,1,8,0:0:0:0:
227,45,41200,6,0,B|162:21|162:21|60:51,1,149.240002277222,14|10,1:2|0:0,0:0:0:0:
121,193,41686,2,0,B|166:210|166:210|153:97,1,149.240002277222,6|0,0:0|1:2,0:0:0:0:
29,296,42173,2,0,L|130:286,1,74.6200011386109,14|0,0:0|0:0,0:0:0:0:
245,181,42497,5,14,0:0:0:0:
312,330,42659,1,14,0:0:0:0:
386,127,42821,2,0,L|375:230,1,92.8200005665283,2|0,0:0|0:0,0:0:0:0:
294,40,43146,1,2,1:2:0:0:
232,270,43308,1,10,0:0:0:0:
232,270,43389,1,0,0:0:0:0:
232,270,43470,1,8,3:0:0:0:
93,124,43632,6,0,L|188:120,1,92.8200005665283,6|0,1:2|0:0,0:0:0:0:
350,322,43956,1,2,1:2:0:0:
140,224,44119,1,10,0:0:0:0:
387,126,44281,1,0,1:0:0:0:
228,356,44443,1,10,0:0:0:0:
195,92,44605,1,0,1:0:0:0:
195,92,44686,1,0,1:0:0:0:
195,92,44767,1,8,0:0:0:0:
397,227,44929,1,0,1:2:0:0:
125,319,45092,5,12,0:0:0:0:
282,52,45254,1,12,0:0:0:0:
397,227,45416,2,0,L|294:220,1,92.8200005665283,2|0,0:0|1:0,0:0:0:0:
260,243,45659,1,0,1:0:0:0:
260,243,45740,2,0,P|253:266|249:289,1,46.4100002832642,10|0,0:0|0:0,0:0:0:0:
162,122,45902,2,0,P|168:144|172:167,1,46.4100002832642,10|0,0:0|0:0,0:0:0:0:
282,52,46065,1,14,0:0:0:0:
282,52,46146,1,0,0:0:0:0:
282,52,46227,6,0,L|390:48,1,92.8200005665283,6|0,1:2|0:0,0:0:0:0:
161,315,46551,1,2,1:2:0:0:
84,75,46713,5,10,0:0:0:0:
327,193,46875,1,0,1:2:0:0:
51,266,47038,5,8,0:0:0:0:
297,352,47200,1,8,0:0:0:0:
297,352,47281,1,8,0:0:0:0:
297,352,47362,2,0,L|306:281,1,46.4100002832642,0|0,1:0|0:0,0:0:0:0:
150,162,47524,2,0,L|155:208,1,46.4100002832642,0|0,1:0|0:0,0:0:0:0:
293,59,47686,6,0,P|326:45|376:57,1,83.7199971895753,6|0,1:2|1:0,0:0:0:0:
391,86,47929,1,0,1:0:0:0:
391,86,48011,2,0,L|396:192,1,83.7199971895753,10|8,0:0|0:0,0:0:0:0:
377,212,48254,1,0,0:0:0:0:
377,212,48335,2,0,L|326:207,1,41.8599985947876,2|0,1:2|1:0,0:0:0:0:
261,310,48497,2,0,L|312:305,1,41.8599985947876,0|0,1:0|1:0,0:0:0:0:
201,220,48659,2,0,B|218:274|218:274|202:345,1,125.579995784363,10|0,0:0|0:0,0:0:0:0:
174,367,48983,6,0,L|62:355,1,83.7199971895753,2|0,1:2|1:0,0:0:0:0:
59,327,49227,1,0,1:0:0:0:
59,327,49308,2,0,P|46:279|56:238,1,83.7199971895753,10|10,0:0|0:0,0:0:0:0:
78,212,49551,1,0,0:0:0:0:
78,212,49632,2,0,L|86:144,1,41.8599985947876,2|0,1:2|1:0,0:0:0:0:
141,52,49794,2,0,L|145:93,1,41.8599985947876,0|0,1:0|1:0,0:0:0:0:
232,231,49956,2,0,B|277:230|277:230|302:244|302:244|353:244,1,125.579995784363,10|0,0:2|0:0,0:2:0:0:
400,213,50281,6,0,P|414:169|398:119,1,83.7199971895753,2|0,0:0|1:0,0:0:0:0:
369,94,50524,1,0,1:0:0:0:
369,94,50605,2,0,L|280:87,1,83.7199971895753,10|8,0:0|0:0,0:0:0:0:
226,113,50848,1,0,0:0:0:0:
226,113,50929,2,0,P|217:131|211:151,1,41.8599985947876,2|0,1:2|1:0,0:0:0:0:
232,231,51092,2,0,P|242:252|248:272,1,41.8599985947876,0|0,1:0|1:0,0:0:0:0:
188,355,51254,1,10,0:0:0:0:
188,355,51335,1,0,0:0:0:0:
188,355,51416,2,0,L|119:348,1,41.8599985947876,0|0,1:0|0:0,0:0:0:0:
43,210,51578,6,0,B|67:263|67:263|29:370,1,167.439994379151,2|10,1:2|0:0,0:0:0:0:
231,231,52065,2,0,B|183:229|183:229|228:91,1,167.439994379151,2|8,1:2|0:0,0:0:0:0:
250,81,52470,1,8,0:0:0:0:
250,81,52551,2,8,L|309:74,1,41.8599985947876,10|8,0:0|0:0,0:0:0:0:
374,163,52713,2,8,L|315:156,1,41.8599985947876
199,324,52875,5,6,1:2:0:0:
199,324,53200,1,8,0:0:0:0:
158,71,53362,1,10,0:2:0:0:
332,280,53524,5,10,0:2:0:0:
114,193,53686,1,8,0:2:0:0:
374,127,53848,1,8,0:2:0:0:
183,348,54011,1,8,0:2:0:0:
140,41,54173,5,8,0:2:0:0:
419,243,54335,1,8,0:2:0:0:
63,367,54497,5,8,0:0:0:0:
251,34,54659,1,8,0:0:0:0:
374,378,54821,5,8,0:0:0:0:
63,138,54983,1,8,0:0:0:0:
460,44,55146,5,8,0:0:0:0:
86,249,55308,1,8,0:0:0:0:
476,333,55470,5,12,0:0:0:0:
240,14,55632,1,14,0:0:0:0:
240,14,56281,5,2,3:2:0:0:
334,160,56443,1,10,0:2:0:0:
225,356,56605,5,14,0:2:0:0:
225,356,56929,5,10,0:2:0:0:
143,89,57092,1,10,0:2:0:0:
143,89,57416,5,10,0:2:0:0:
143,89,57497,1,8,0:2:0:0:
143,89,57578,2,8,L|146:153,1,46.4100002832642,8|8,0:2|0:2,0:2:0:0:
251,41,57740,2,0,L|243:214,1,166.529993139176,14|0,0:2|0:2,0:2:0:0:
218,234,58065,6,0,B|267:215|267:215|409:247,1,185.640001133057,6|8,1:2|0:2,0:2:0:0:
192,342,58551,1,0,0:2:0:0:
314,138,58713,1,2,1:2:0:0:
429,350,58875,1,0,1:2:0:0:
218,234,59038,1,10,0:2:0:0:
419,119,59200,6,0,B|443:71|443:71|421:214,1,185.640001133057,2|0,1:2|0:2,0:2:0:0:
305,32,59686,2,0,L|315:125,1,92.8200005665283,10|0,0:2|0:2,0:2:0:0:
218,234,60011,2,0,L|207:140,1,92.8200005665283,2|0,1:2|1:2,0:2:0:0:
369,181,60335,2,0,L|363:273,1,92.8200005665283,10|0,0:2|0:2,0:2:0:0:
246,350,60659,6,0,B|190:362|138:335|168:323|117:290|55:317,1,185.640001133057,2|8,1:2|0:2,0:2:0:0:
294,202,61146,1,2,0:2:0:0:
108,118,61308,1,2,1:2:0:0:
209,255,61470,1,0,1:2:0:0:
257,42,61632,1,10,0:2:0:0:
54,212,61794,6,0,B|17:184|17:184|15:40,1,185.640001133057,2|0,1:2|0:2,0:2:0:0:
201,126,62281,2,0,L|97:115,1,92.8200005665283,10|0,0:2|0:2,0:2:0:0:
349,51,62605,2,0,L|255:41,1,92.8200005665283,6|8,1:2|0:2,0:2:0:0:
226,23,62848,1,8,0:2:0:0:
226,23,62929,2,8,L|166:15,1,46.4100002832642,10|8,0:2|0:2,0:2:0:0:
284,135,63092,2,8,L|329:128,1,46.4100002832642,8|8,0:2|0:2,0:2:0:0:
458,43,63254,6,0,B|434:99|434:99|442:240,1,185.640001133057,6|8,1:2|0:2,0:2:0:0:
311,341,63740,1,0,0:2:0:0:
476,257,63902,1,2,1:2:0:0:
286,229,64065,1,0,1:2:0:0:
433,355,64227,1,8,0:2:0:0:
482,150,64389,6,0,L|488:51,1,92.8200005665283,2|0,0:2|1:2,0:2:0:0:
381,264,64713,1,2,0:2:0:0:
329,121,64875,2,0,B|251:117|251:117|211:133|211:133|123:129,1,185.640001133057,10|0,0:2|1:2,0:2:0:0:
74,60,65362,1,0,1:2:0:0:
174,261,65524,1,10,0:2:0:0:
226,14,65686,1,0,0:2:0:0:
56,217,65848,6,0,P|44:254|66:331,1,92.8200005665283,6|0,1:2|0:2,0:2:0:0:
342,159,66173,5,8,0:2:0:0:
101,86,66335,1,0,1:2:0:0:
353,244,66497,5,8,0:2:0:0:
63,331,66659,1,0,1:2:0:0:
63,331,66740,1,0,1:2:0:0:
63,331,66821,1,8,0:2:0:0:
255,93,66983,1,0,1:2:0:0:
314,377,67146,5,2,1:2:0:0:
154,161,67308,1,8,0:2:0:0:
154,161,67389,1,8,0:2:0:0:
154,161,67470,2,8,L|146:239,1,46.4100002832642,8|8,0:2|0:2,0:2:0:0:
280,87,67632,2,8,L|287:165,1,46.4100002832642,8|8,0:2|0:2,0:2:0:0:
104,69,67794,5,10,0:2:0:0:
360,186,67956,1,8,3:0:0:0:
98,266,68119,1,14,3:2:0:0:
280,87,68281,1,8,3:0:0:0:
309,367,68443,6,0,B|358:342|358:342|494:358,1,185.640001133057,6|8,1:2|0:2,0:2:0:0:
218,214,68929,1,0,1:2:0:0:
402,165,69092,5,10,0:2:0:0:
166,326,69254,1,0,1:2:0:0:
417,313,69416,5,10,0:2:0:0:
133,194,69578,1,2,0:0:0:0:
316,63,69740,6,0,B|409:42|409:42|500:60,1,185.640001133057,8|8,0:0|0:0,0:0:0:0:
127,312,70227,1,0,1:0:0:0:
417,313,70389,5,10,0:0:0:0:
252,54,70551,1,8,0:0:0:0:
252,54,70632,1,8,0:2:0:0:
252,54,70713,2,8,L|240:114,1,46.4100002832642,10|8,0:2|0:2,0:2:0:0:
174,154,70875,2,8,L|185:214,1,46.4100002832642,8|8,0:2|0:2,0:2:0:0:
306,311,71038,6,8,B|253:289|253:289|119:313,1,185.640001133057,10|8,0:2|0:2,0:2:0:0:
364,129,71524,1,2,1:2:0:0:
456,290,71686,5,10,0:2:0:0:
241,171,71848,1,0,1:0:0:0:
485,83,72011,5,10,0:2:0:0:
385,353,72173,1,2,1:2:0:0:
289,73,72335,6,0,L|186:68,1,92.8200005665283,8|0,0:0|0:0,0:0:0:0:
68,263,72659,2,0,L|171:258,1,92.8200005665283,8|0,0:0|0:0,0:0:0:0:
337,151,72983,2,0,P|363:190|367:235,1,92.8200005665283,14|10,0:0|0:0,0:0:0:0:
348,265,73227,1,8,0:0:0:0:
348,265,73308,2,8,L|281:258,1,46.4100002832642,10|8,3:2|3:2,3:2:0:0:
230,346,73470,2,8,L|297:339,1,46.4100002832642,10|8,3:2|3:2,3:2:0:0:
198,168,73632,6,0,B|159:127|159:127|161:270,1,185.640001133057,6|0,1:2|0:0,0:0:0:0:
86,337,74119,1,0,1:0:0:0:
47,230,74281,2,0,L|42:138,1,92.8200005665283,8|2,0:0|0:0,0:0:0:0:
86,53,74605,1,2,0:0:0:0:
140,131,74767,1,2,0:0:0:0:
180,40,74929,5,0,1:2:0:0:
241,111,75092,1,0,0:2:0:0:
272,27,75254,1,0,1:2:0:0:
272,27,75416,1,0,0:2:0:0:
330,124,75578,6,0,L|321:236,1,92.8200005665283,10|0,0:2|0:2,0:2:0:0:
292,203,75821,6,0,L|300:315,1,92.8200005665283,2|0,0:2|0:2,0:2:0:0:
318,293,76065,6,0,L|315:351,1,46.4100002832642,10|0,0:2|0:2,0:2:0:0:
288,371,76227,5,2,1:2:0:0:
418,321,76389,1,0,1:2:0:0:
266,219,76551,1,0,0:2:0:0:
429,342,76713,2,0,L|436:245,1,92.8200005665283,10|0,0:2|0:2,0:2:0:0:
405,143,77038,1,8,0:2:0:0:
405,143,77119,1,8,0:2:0:0:
405,143,77200,6,0,B|334:133|334:133|294:146|294:146|216:135,1,185.640001133057,10|0,0:2|1:2,0:2:0:0:
111,92,77686,2,0,L|102:-7,1,92.8200005665283,10|8,0:2|0:2,0:2:0:0:
285,226,78011,1,2,1:2:0:0:
78,164,78173,5,10,0:2:0:0:
320,64,78335,1,10,0:2:0:0:
197,357,78497,1,8,0:2:0:0:
115,58,78659,1,10,0:2:0:0:
302,376,78821,5,14,0:2:0:0:
302,376,79146,5,8,0:0:0:0:
220,89,79308,1,8,0:0:0:0:
409,327,79470,5,8,0:0:0:0:
330,23,79632,1,8,0:0:0:0:
185,323,79794,5,8,0:0:0:0:
478,224,79956,1,8,0:0:0:0:
110,155,80119,5,12,0:0:0:0:
456,52,80281,1,12,0:0:0:0:
346,217,80443,1,2,0:0:0:0:
247,43,80605,2,0,L|360:40,1,92.8200005665283,2|0,0:0|0:0,0:0:0:0:
188,234,80929,1,2,0:0:0:0:
91,66,81092,1,2,0:0:0:0:
280,144,81254,1,2,0:0:0:0:
53,32,81416,6,0,P|106:46|193:14,1,149.240002277222,2|2,0:0|0:0,0:0:0:0:
371,112,81902,2,0,L|213:95,1,149.240002277222,2|2,0:0|0:0,0:0:0:0:
351,25,82389,1,2,0:0:0:0:
426,52,82551,1,2,0:0:0:0:
371,112,82713,1,2,0:0:0:0:
428,168,82875,2,0,B|454:126|454:126|446:254,1,149.240002277222,2|2,0:0|0:0,0:0:0:0:
404,300,83362,2,0,P|366:293|326:273,1,74.6200011386109,2|0,0:0|0:0,0:0:0:0:
284,212,83686,2,0,L|279:127,1,74.6200011386109,2|0,0:0|0:0,0:0:0:0:
230,276,84011,6,0,B|176:277|176:277|148:263|148:263|81:265,1,149.240002277222,2|2,0:0|0:0,0:0:0:0:
266,193,84497,2,0,P|309:245|299:325,1,149.240002277222,2|2,0:0|0:0,0:0:0:0:
183,183,84983,1,2,0:0:0:0:
235,114,85146,1,2,0:0:0:0:
151,100,85308,1,2,0:0:0:0:
206,33,85470,2,0,B|252:18|252:18|352:32,1,149.240002277222,2|2,0:0|0:0,0:0:0:0:
409,96,85956,2,0,L|394:187,1,74.6200011386109,2|2,0:0|0:0,0:0:0:0:
329,223,86281,2,0,L|344:314,1,74.6200011386109,2|2,0:0|0:0,0:0:0:0:
430,255,86605,5,2,0:0:0:0:
322,204,86767,1,2,0:0:0:0:
444,279,86929,1,2,0:0:0:0:
320,239,87092,2,0,L|150:222,1,149.240002277222,2|2,0:0|0:0,0:0:0:0:
213,142,87578,1,2,0:0:0:0:
138,117,87740,1,2,0:0:0:0:
229,108,87902,1,2,0:0:0:0:
114,90,88065,2,0,B|154:110|154:110|264:78,1,149.240002277222,2|2,0:0|0:0,0:0:0:0:
341,11,88551,1,2,0:0:0:0:
365,149,88713,1,2,0:0:0:0:
328,28,88875,1,2,0:0:0:0:
343,179,89038,1,2,0:0:0:0:
