osu file format v14

[General]
AudioFilename: audio.mp3
AudioLeadIn: 0
PreviewTime: 57327
Countdown: 0
SampleSet: Soft
StackLeniency: 0.7
Mode: 0
LetterboxInBreaks: 0
WidescreenStoryboard: 1

[Editor]
DistanceSpacing: 0.6
BeatDivisor: 4
GridSize: 32
TimelineZoom: 2

[Metadata]
Title:km/h (TV Size)
TitleUnicode:♡km/h (TV Size)
Artist:Ray
ArtistUnicode:Ray
Creator:Realazy
Version:Trynna's Insane
Source:ろんぐらいだぁす!
Tags:opening op long riders! heart kilometer per hour kmh meg rock y0c1e elsa_valentine xlolicore- elsa valentine Kibbleru Trynna eiri- Ayyri Dashyy-
BeatmapID:1635156
BeatmapSetID:775282

[Difficulty]
HPDrainRate:6
CircleSize:4
OverallDifficulty:7
ApproachRate:8.3
SliderMultiplier:1.7
SliderTickRate:1

[Events]
//Background and Video events
0,0,"alo.jpg",0,0
//Break Periods
//Storyboard Layer 0 (Background)
//Storyboard Layer 1 (Fail)
//Storyboard Layer 2 (Pass)
//Storyboard Layer 3 (Foreground)
//Storyboard Sound Samples

[TimingPoints]
976,324.324324324324,4,2,1,40,1,0
976,-125,4,2,1,40,0,0
6165,-100,4,2,1,45,0,0
6408,-100,4,2,1,45,0,0
6489,-100,4,2,1,45,0,0
7705,-100,4,2,1,45,0,0
7786,-100,4,2,1,45,0,0
8759,-100,4,2,1,50,0,0
10786,-100,4,2,1,50,0,0
10867,-100,4,2,1,50,0,0
10948,-100,4,2,1,50,0,0
11030,-83.3333333333333,4,2,1,40,0,0
11273,-83.3333333333333,4,2,1,40,0,0
11354,-100,4,2,1,60,0,0
11597,-100,4,2,1,60,0,0
11678,-100,4,2,1,60,0,0
12894,-100,4,2,1,60,0,0
12975,-100,4,2,1,60,0,0
14192,-100,4,2,1,60,0,0
14273,-100,4,2,1,60,0,0
15165,-100,4,2,1,60,0,0
15246,-100,4,2,1,60,0,0
16786,-100,4,2,1,60,0,0
16867,-100,4,2,1,60,0,0
18084,-100,4,2,1,60,0,0
18165,-100,4,2,1,60,0,0
20759,-133.333333333333,4,2,1,40,0,0
21651,-133.333333333333,4,2,1,40,0,0
21732,-111.111111111111,4,2,1,50,0,0
21975,-111.111111111111,4,2,1,50,0,0
22057,-111.111111111111,4,2,1,50,0,0
24570,-111.111111111111,4,2,1,50,0,0
24651,-111.111111111111,4,2,1,50,0,0
26840,-111.111111111111,4,2,1,50,0,0
26921,-111.111111111111,4,2,1,55,0,0
31543,-111.111111111111,4,2,1,55,0,0
31624,-111.111111111111,4,2,1,55,0,0
31786,-111.111111111111,4,2,1,50,0,0
32030,-111.111111111111,4,2,1,50,0,0
32111,-111.111111111111,4,2,1,60,0,0
40219,-76.9230769230769,4,2,1,60,0,0
40786,-76.9230769230769,4,2,1,60,0,0
40867,-76.9230769230769,4,2,1,60,0,0
41192,-100,4,2,1,60,0,0
42408,-100,4,2,1,60,0,0
42489,-100,4,2,1,55,0,0
43057,-100,4,2,1,55,0,0
43138,-100,4,2,1,55,0,0
43867,-100,4,2,1,55,0,0
43948,-100,4,2,1,55,0,0
46462,-100,4,2,1,55,0,0
46543,-100,4,2,1,55,0,0
52867,-100,4,2,1,60,0,0
57732,-76.9230769230769,4,2,1,60,0,0
57975,-76.9230769230769,4,2,1,60,0,0
58057,-83.3333333333333,4,2,99,70,0,1
58300,-83.3333333333333,4,2,99,70,0,1
58381,-83.3333333333333,4,2,1,70,0,1
60570,-83.3333333333333,4,2,1,70,0,1
60651,-83.3333333333333,4,2,1,70,0,1
63489,-83.3333333333333,4,2,1,70,0,1
63570,-83.3333333333333,4,2,1,70,0,1
65111,-83.3333333333333,4,2,1,70,0,1
65192,-83.3333333333333,4,2,1,70,0,1
65759,-83.3333333333333,4,2,1,70,0,1
65840,-83.3333333333333,4,2,1,70,0,1
68111,-83.3333333333333,4,2,1,60,0,1
68354,-83.3333333333333,4,2,1,60,0,1
68435,-83.3333333333333,4,2,99,70,0,1
68678,-83.3333333333333,4,2,99,70,0,1
68759,-83.3333333333333,4,2,1,70,0,1
73624,-100,4,2,1,70,0,0
76462,-100,4,2,1,70,0,0
76543,-100,4,2,1,70,0,0
76705,-100,4,2,1,60,0,0
77192,-100,4,2,1,70,0,0
77435,-100,4,2,1,70,0,0
77516,-100,4,2,1,70,0,0
77678,-100,4,2,1,60,0,0
77921,-100,4,2,1,60,0,0
78003,-100,4,2,1,70,0,0
78651,-100,4,2,1,60,0,0
78813,-100,4,2,1,70,0,0
79300,-100,4,2,1,70,0,0
79624,-100,4,2,1,70,0,0
80273,-100,4,2,1,60,0,0
80435,-100,4,2,1,60,0,0
80840,-100,4,2,1,60,0,0
80921,-100,4,2,1,60,0,0
81084,-90.9090909090909,4,2,1,70,0,0
81327,-90.9090909090909,4,2,1,5,0,0
81408,-90.9090909090909,4,2,1,30,0,0
86597,-90.9090909090909,4,2,1,10,0,0

[Colours]
Combo1 : 136,196,255
Combo2 : 255,128,128
Combo3 : 255,255,128

[HitObjects]
45,203,976,6,0,P|36:170|44:137,2,68,2|0|0,0:0|0:0|0:0,0:0:0:0:
125,171,1462,2,0,B|193:159|185:203|256:190,1,136,2|2,0:0|0:0,0:0:0:0:
357,121,1948,2,0,L|351:52,1,68,2|0,0:0|0:0,0:0:0:0:
351,53,2273,1,0,0:0:0:0:
454,21,2435,2,0,L|447:156,1,136,2|2,0:0|0:0,0:0:0:0:
503,229,2921,6,0,P|443:199|382:223,1,136,2|2,0:0|0:0,0:0:0:0:
440,282,3408,1,8,0:1:0:0:
335,338,3570,6,0,P|302:342|268:336,1,68,10|0,0:1|0:0,0:0:0:0:
166,345,3894,1,0,0:0:0:0:
214,266,4057,2,0,L|209:130,1,136,10|2,0:1|0:0,0:0:0:0:
115,55,4543,2,0,P|81:47|48:54,2,68,2|8|8,0:0|0:1|0:1,0:0:0:0:
201,18,5030,2,0,B|254:36|254:36|332:22,1,136,2|0,0:0|0:0,0:0:0:0:
437,100,5516,5,8,0:0:0:0:
439,15,5678,1,8,0:3:0:0:
362,143,5840,1,8,0:1:0:0:
512,145,6003,1,8,0:1:0:0:
436,230,6165,6,0,B|370:214|378:257|312:242,1,127.5,12|0,0:1|0:0,0:0:0:0:
290,235,6489,1,0,0:0:0:0:
187,287,6651,1,8,0:1:0:0:
143,168,6813,2,0,P|185:159|227:166,1,85,8|0,0:0|0:0,0:0:0:0:
88,244,7138,1,0,0:0:0:0:
48,104,7300,1,8,0:2:0:0:
48,104,7381,1,8,0:2:0:0:
48,104,7462,6,0,P|104:74|167:67,1,127.5,12|0,0:1|0:0,0:0:0:0:
188,72,7786,1,8,0:1:0:0:
227,166,7948,1,0,0:0:0:0:
328,96,8111,2,0,P|370:96|412:99,1,85,8|8,0:0|0:1,0:0:0:0:
488,180,8435,2,0,P|426:185|361:195,1,127.5,8|0,0:0|0:0,0:0:0:0:
347,215,8759,6,0,P|356:256|352:298,1,85,12|0,0:1|0:0,0:0:0:0:
236,352,9084,1,8,0:1:0:0:
236,264,9246,1,8,0:1:0:0:
160,308,9408,2,0,L|75:308,1,85,8|8,0:1|0:1,0:0:0:0:
32,220,9732,2,0,L|117:220,1,85,8|8,0:1|0:1,0:0:0:0:
185,150,10057,5,8,0:0:0:0:
83,133,10219,1,8,0:0:0:0:
105,32,10381,1,8,0:0:0:0:
207,49,10543,1,8,0:0:0:0:
279,112,10705,2,0,L|363:104,1,85,8|8,0:0|0:0,0:0:0:0:
509,127,11030,6,0,P|440:149|434:221,1,152.999995330811,2|0,0:0|0:0,0:0:0:0:
443,246,11354,6,0,P|400:246|358:240,1,85,12|0,0:1|0:0,0:0:0:0:
326,330,11678,2,0,P|288:309|255:283,1,85,8|0,0:0|0:0,0:0:0:0:
166,322,12003,1,8,0:1:0:0:
187,215,12165,1,8,0:1:0:0:
71,288,12327,2,0,L|77:372,1,85,8|0,0:0|0:0,0:0:0:0:
161,136,12651,6,0,P|203:134|242:148,1,85,10|0,0:1|0:0,0:0:0:0:
85,191,12975,2,0,P|70:151|72:109,1,85,10|0,0:0|0:0,0:0:0:0:
125,43,13300,1,10,0:1:0:0:
7,58,13462,1,8,0:1:0:0:
139,26,13624,2,0,P|181:32|223:33,1,85,10|0,0:0|0:0,0:0:0:0:
350,5,13948,6,0,L|341:89,1,85,10|0,0:1|0:0,0:0:0:0:
424,134,14273,2,0,L|432:49,1,85,8|0,0:0|0:3,0:0:0:0:
281,143,14597,2,0,P|268:183|270:225,1,85,10|0,0:1|0:0,0:0:0:0:
453,289,14921,2,0,P|465:248|463:206,1,85,8|0,0:0|0:0,0:0:0:0:
249,320,15246,5,10,0:1:0:0:
343,290,15408,1,2,0:0:0:0:
270,225,15570,1,10,0:0:0:0:
160,281,15732,2,0,L|164:366,1,85,2|8,0:0|0:1,0:0:0:0:
44,302,16057,1,8,0:0:0:0:
49,277,16138,1,8,0:0:0:0:
55,252,16219,1,8,0:0:0:0:
61,227,16300,1,8,0:1:0:0:
67,202,16381,1,8,0:1:0:0:
67,202,16543,6,0,L|57:117,1,85,14|0,0:1|0:0,0:0:0:0:
138,59,16867,2,0,L|147:143,1,85,8|0,0:0|0:0,0:0:0:0:
242,165,17192,1,8,0:1:0:0:
293,82,17354,1,8,0:1:0:0:
223,15,17516,1,8,0:0:0:0:
315,80,17678,2,0,L|361:73,1,42.5,0|0,0:0|0:0,0:0:0:0:
475,36,17840,6,0,L|466:120,1,85,10|0,0:1|0:0,0:0:0:0:
382,169,18165,2,0,L|390:253,1,85,8|0,0:0|0:0,0:0:0:0:
402,337,18489,1,8,0:1:0:0:
470,246,18651,1,8,0:1:0:0:
316,305,18813,2,0,L|231:297,1,85,8|0,0:0|0:0,0:0:0:0:
153,339,19057,1,8,0:0:0:0:
153,339,19138,6,0,P|144:297|151:256,1,85,10|2,0:1|0:0,0:0:0:0:
196,108,19462,1,10,0:1:0:0:
228,197,19624,1,10,0:1:0:0:
74,200,19786,1,8,0:0:0:0:
106,111,19948,1,8,0:0:0:0:
155,176,20111,1,8,0:1:0:0:
155,176,20273,1,8,0:0:0:0:
282,124,20759,6,0,L|303:124,3,21.2500008106232,2|2|2|0,0:0|0:0|0:0|0:0,0:0:0:0:
307,48,21084,2,0,P|337:55|363:73,1,63.7500024318696,2|2,0:3|0:3,0:0:0:0:
441,48,21408,2,0,L|435:143,1,95.6250036478044,0|0,0:0|0:0,0:0:0:0:
425,166,21732,6,0,P|463:161|501:167,1,76.4999976654053,12|0,0:1|0:0,0:0:0:0:
464,247,22057,2,0,P|426:251|388:245,1,76.4999976654053,8|0,0:1|0:0,0:0:0:0:
298,205,22381,2,0,L|306:357,1,152.999995330811,8|8,0:1|0:1,0:0:0:0:
306,357,22867,1,0,0:0:0:0:
216,320,23030,5,8,0:1:0:0:
124,360,23192,2,0,P|87:366|49:359,1,76.4999976654053,0|8,0:0|0:1,0:0:0:0:
86,278,23516,2,0,P|53:210|77:139,1,152.999995330811,0|0,0:0|0:1,0:0:0:0:
140,79,24003,2,0,P|178:83|216:79,1,76.4999976654053,8|0,0:1|0:0,0:0:0:0:
260,3,24327,6,0,L|252:155,1,152.999995330811,12|8,0:1|0:1,0:0:0:0:
251,155,24813,1,0,0:0:0:0:
184,228,24975,2,0,P|248:263|317:236,1,152.999995330811,8|8,0:1|0:1,0:0:0:0:
412,216,25462,1,0,0:0:0:0:
497,254,25624,5,8,0:1:0:0:
493,166,25786,2,0,L|489:89,1,76.4999976654053,0|8,0:0|0:1,0:0:0:0:
412,216,26111,1,0,0:0:0:0:
344,148,26273,2,0,P|331:92|344:33,1,114.749996498108,8|0,0:1|0:0,0:0:0:0:
351,16,26597,2,0,P|314:20|275:19,1,76.4999976654053,8|0,0:0|0:0,0:0:0:0:
188,60,26921,5,12,0:1:0:0:
76,40,27084,1,0,0:0:0:0:
115,147,27246,1,0,0:0:0:0:
48,212,27408,1,8,0:0:0:0:
49,231,27489,1,8,0:1:0:0:
50,251,27570,2,0,L|52:289,2,38.2499988327027,0|0|0,0:0|0:0|0:0,0:0:0:0:
136,268,27894,2,0,P|173:271|211:264,1,76.4999976654053,8|0,0:0|0:0,0:0:0:0:
324,240,28219,5,8,0:0:0:0:
244,176,28381,1,0,0:0:0:0:
328,124,28543,1,0,0:0:0:0:
408,188,28705,1,8,0:0:0:0:
424,200,28786,1,8,0:1:0:0:
440,212,28867,2,0,L|484:208,2,38.2499988327027,0|0|0,0:0|0:0|0:0,0:0:0:0:
444,107,29192,2,0,P|445:69|451:32,1,76.4999976654053,8|0,0:0|0:0,0:0:0:0:
316,104,29516,6,0,L|239:100,1,76.4999976654053,12|0,0:1|0:0,0:0:0:0:
176,48,29840,1,8,0:1:0:0:
176,48,30003,1,8,0:1:0:0:
92,104,30165,1,8,0:0:0:0:
104,192,30327,1,8,0:0:0:0:
16,252,30489,1,8,0:0:0:0:
4,164,30651,1,8,0:0:0:0:
112,283,30813,6,0,P|103:321|99:359,1,76.4999976654053,12|12,0:1|0:1,0:0:0:0:
256,328,31624,1,2,0:0:0:0:
276,324,31705,1,2,0:0:0:0:
296,320,31786,2,0,L|372:327,1,76.4999976654053,12|0,0:0|0:0,0:0:0:0:
452,236,32111,6,0,B|412:252|412:252|340:244,1,114.749996498108,8|0,0:1|0:0,0:0:0:0:
328,228,32435,2,0,P|324:189|328:151,1,76.4999976654053,8|0,0:0|0:0,0:0:0:0:
404,56,32759,2,0,B|324:36|332:84|254:60,1,152.999995330811,8|8,0:1|0:0,0:0:0:0:
88,72,33246,1,0,0:0:0:0:
168,21,33408,5,8,0:1:0:0:
172,107,33570,2,0,L|175:183,1,76.4999976654053,8|8,0:1|0:0,0:0:0:0:
116,256,33894,2,0,P|177:216|245:245,1,152.999995330811,8|8,0:1|0:1,0:0:0:0:
296,320,34381,2,0,P|261:334|223:333,1,76.4999976654053,8|0,0:0|0:0,0:0:0:0:
340,240,34705,6,0,L|332:125,1,114.749996498108,8|0,0:1|0:0,0:0:0:0:
344,108,35030,2,0,P|382:107|417:122,1,76.4999976654053,8|0,0:0|0:0,0:0:0:0:
276,40,35354,2,0,P|205:68|129:68,1,152.999995330811,8|8,0:1|0:0,0:0:0:0:
72,136,35840,1,0,0:0:0:0:
175,204,36003,5,8,0:1:0:0:
129,282,36165,2,0,P|125:320|132:358,1,76.4999976654053,8|8,0:1|0:0,0:0:0:0:
232,312,36489,2,0,B|285:306|285:306|330:323|330:323|381:316,1,152.999995330811,8|8,0:1|0:1,0:0:0:0:
500,336,36975,1,8,0:0:0:0:
451,243,37138,6,0,L|456:205,1,38.2499988327027,8|8,0:0|0:0,0:0:0:0:
488,112,37300,2,0,L|411:119,1,76.4999976654053,8|2,0:1|0:0,0:0:0:0:
344,76,37543,1,2,0:0:0:0:
344,76,37624,2,0,L|267:83,1,76.4999976654053,10|8,0:0|0:1,0:0:0:0:
120,60,37948,1,0,0:0:0:0:
200,8,38111,1,8,0:1:0:0:
184,136,38273,6,0,L|187:212,1,76.4999976654053,8|0,0:0|0:0,0:0:0:0:
100,248,38597,2,0,L|96:171,1,76.4999976654053,8|2,0:1|0:0,0:0:0:0:
36,308,38921,2,0,P|103:337|169:303,1,152.999995330811,8|0,0:0|0:0,0:0:0:0:
260,340,39408,1,2,0:0:0:0:
345,307,39570,1,10,0:0:0:0:
429,339,39732,1,2,0:0:0:0:
429,339,39894,1,8,0:1:0:0:
416,172,40057,5,8,0:1:0:0:
408,188,40138,1,8,0:1:0:0:
408,208,40219,2,0,P|458:228|509:210,1,110.499994941712,12|0,0:1|0:0,0:0:0:0:
456,92,40543,2,0,B|344:56|360:148|243:105,1,220.999989883423,12|8,0:1|0:0,0:0:0:0:
84,16,41030,5,8,0:0:0:0:
88,36,41111,1,8,0:0:0:0:
88,52,41192,2,0,P|62:110|0:58,1,170,12|8,0:1|0:0,0:0:0:0:
172,104,41678,2,0,P|235:96|221:176,1,170,12|8,0:1|0:1,0:0:0:0:
137,266,42165,2,0,P|140:224|137:182,1,85,8|0,0:0|0:0,0:0:0:0:
56,316,42489,5,12,0:1:0:0:
216,324,42651,1,12,0:1:0:0:
216,324,42975,1,2,0:0:0:0:
264,256,43138,1,10,0:1:0:0:
316,324,43300,2,0,P|357:332|398:324,1,85,8|8,0:1|0:1,0:0:0:0:
500,268,43624,6,0,L|492:98,1,170,12|8,0:1|0:1,0:0:0:0:
408,144,44111,2,0,P|366:152|324:148,1,85,8|8,0:0|0:1,0:0:0:0:
276,60,44435,2,0,P|317:51|359:55,1,85,8|8,0:0|0:1,0:0:0:0:
224,143,44759,1,8,0:0:0:0:
224,143,44921,1,8,0:1:0:0:
129,89,45084,5,12,0:1:0:0:
149,253,45246,1,12,0:1:0:0:
149,253,45732,1,8,0:3:0:0:
202,316,45894,1,8,0:1:0:0:
119,329,46057,1,8,0:0:0:0:
237,241,46219,6,0,P|320:252|417:245,1,170,12|8,0:1|0:1,0:0:0:0:
468,159,46705,1,8,0:0:0:0:
360,151,46867,1,8,0:1:0:0:
420,71,47030,1,8,0:0:0:0:
396,59,47111,1,8,0:0:0:0:
372,55,47192,1,8,0:0:0:0:
348,55,47273,1,8,0:0:0:0:
324,63,47354,2,0,P|305:68|286:83,1,42.5,8|0,0:0|0:0,0:0:0:0:
212,55,47516,2,0,P|193:49|174:34,1,42.5,8|0,0:1|0:0,0:0:0:0:
92,87,47678,6,0,L|97:171,1,85,14|8,0:1|0:1,0:0:0:0:
98,190,47921,1,8,0:1:0:0:
99,208,48003,1,10,0:1:0:0:
67,310,48165,2,0,P|108:317|148:304,1,85,8|10,0:0|0:1,0:0:0:0:
212,247,48489,1,8,0:1:0:0:
303,296,48651,2,0,L|301:380,1,85,8|0,0:0|0:0,0:0:0:0:
441,323,48975,6,0,P|432:273|433:230,1,85,14|8,0:1|0:1,0:0:0:0:
434,221,49219,1,8,0:1:0:0:
437,203,49300,1,8,0:1:0:0:
399,103,49462,2,0,P|440:95|481:105,1,85,8|10,0:0|0:1,0:0:0:0:
351,177,49786,1,8,0:1:0:0:
271,101,49948,2,0,L|274:16,1,85,8|8,0:0|0:1,0:0:0:0:
190,165,50273,6,0,B|153:171|153:171|106:166,1,85,14|8,0:1|0:1,0:0:0:0:
88,162,50516,1,8,0:1:0:0:
71,158,50597,1,8,0:1:0:0:
154,251,50759,2,0,P|163:292|152:333,1,85,8|10,0:0|0:1,0:0:0:0:
77,290,51084,1,8,0:1:0:0:
250,263,51246,2,0,L|334:267,1,85,8|0,0:0|0:0,0:0:0:0:
506,269,51570,5,8,0:0:0:0:
436,328,51732,1,8,0:0:0:0:
366,269,51894,1,8,0:1:0:0:
436,209,52057,1,8,0:0:0:0:
373,141,52219,2,0,L|379:56,1,85,8|8,0:1|0:0,0:0:0:0:
289,76,52543,2,0,L|283:161,1,85,8|8,0:1|0:0,0:0:0:0:
203,116,52786,1,8,0:0:0:0:
203,116,52867,6,0,B|116:95|124:154|38:131,1,170,12|8,0:1|0:1,0:0:0:0:
74,54,53354,1,8,0:1:0:0:
160,196,53516,6,0,L|151:280,1,85,8|8,0:1|0:1,0:0:0:0:
57,249,53840,2,0,L|65:333,1,85,8|8,0:0|0:1,0:0:0:0:
226,349,54165,6,0,P|267:341|310:344,1,85,8|8,0:0|0:0,0:0:0:0:
363,252,54489,2,0,P|321:259|278:256,1,85,8|8,0:0|0:0,0:0:0:0:
448,292,54813,5,8,0:0:0:0:
439,200,54975,1,8,0:0:0:0:
492,125,55138,1,8,0:0:0:0:
483,33,55300,1,8,0:0:0:0:
382,89,55462,6,0,L|297:85,1,85,12|12,0:1|0:1,0:0:0:0:
297,85,56435,1,8,0:0:0:0:
207,45,56597,6,0,B|182:129|244:124|212:209,1,170,12|8,0:1|0:1,0:0:0:0:
127,251,57084,2,0,P|116:210|126:169,1,85,8|0,0:0|0:0,0:0:0:0:
212,300,57408,1,8,0:0:0:0:
232,312,57489,1,8,0:0:0:0:
257,315,57570,1,8,0:0:0:0:
282,311,57651,1,8,0:0:0:0:
300,300,57732,6,0,B|384:272|376:336|460:308,1,165.749992412568,8|0,0:0|0:0,0:0:0:0:
471,287,58057,6,0,P|460:238|458:187,1,101.999996887207,12|0,0:1|0:0,0:0:0:0:
392,128,58381,1,8,0:0:0:0:
508,112,58543,1,0,0:0:0:0:
420,44,58705,2,0,P|370:38|328:65,1,101.999996887207,8|8,0:1|0:1,0:0:0:0:
248,120,59030,2,0,P|198:122|158:92,1,101.999996887207,8|0,0:0|0:0,0:0:0:0:
36,56,59354,6,0,P|50:130|49:207,1,152.999995330811,8|0,0:1|0:0,0:0:0:0:
43,231,59678,2,0,L|144:224,1,101.999996887207,8|0,0:0|0:0,0:0:0:0:
288,304,60003,1,8,0:1:0:0:
184,296,60165,1,8,0:1:0:0:
240,208,60327,2,0,L|247:106,1,101.999996887207,8|0,0:0|0:0,0:0:0:0:
356,44,60651,6,0,P|420:40|440:116,1,152.999995330811,8|0,0:1|0:0,0:0:0:0:
428,136,60975,2,0,P|424:186|427:237,1,101.999996887207,8|0,0:0|0:0,0:0:0:0:
480,333,61300,1,8,0:1:0:0:
376,325,61462,1,8,0:1:0:0:
427,237,61624,1,8,0:0:0:0:
323,245,61786,1,0,0:0:0:0:
244,300,61948,6,0,B|196:192|280:212|241:103,1,203.999993774414,10|10,0:1|0:0,0:0:0:0:
172,48,62435,1,0,0:0:0:0:
104,148,62597,2,0,L|2:144,1,101.999996887207,12|8,0:1|0:1,0:0:0:0:
48,236,62840,1,8,0:0:0:0:
48,236,62921,2,0,L|149:239,1,101.999996887207,8|8,0:0|0:0,0:0:0:0:
244,300,63165,1,8,0:0:0:0:
243,300,63246,6,0,P|326:247|413:291,1,203.999993774414,12|8,0:1|0:0,0:0:0:0:
512,208,63732,1,0,0:0:0:0:
448,144,63894,2,0,L|455:42,1,101.999996887207,8|8,0:1|0:1,0:0:0:0:
287,80,64219,1,8,0:0:0:0:
367,100,64381,5,8,0:1:0:0:
368,86,64462,1,8,0:1:0:0:
369,73,64543,1,10,0:1:0:0:
236,8,64705,1,0,0:0:0:0:
184,79,64867,2,0,P|171:129|181:178,1,101.999996887207,10|10,0:0|0:1,0:0:0:0:
248,236,65192,1,0,0:0:0:0:
120,236,65354,1,10,0:1:0:0:
260,252,65516,1,10,0:0:0:0:
108,252,65678,1,0,0:0:0:0:
311,183,65840,6,0,P|343:222|346:273,1,101.999996887207,8|0,0:1|0:0,0:0:0:0:
448,292,66165,2,0,P|465:245|508:217,1,101.999996887207,8|8,0:0|0:1,0:0:0:0:
480,116,66489,2,0,P|430:123|385:101,1,101.999996887207,8|8,0:0|0:1,0:0:0:0:
304,36,66813,2,0,P|254:28|209:50,1,101.999996887207,8|8,0:0|0:1,0:0:0:0:
141,124,67138,5,12,0:1:0:0:
37,124,67300,1,8,0:1:0:0:
92,39,67462,1,8,0:0:0:0:
93,23,67543,1,8,0:0:0:0:
94,8,67624,1,8,0:1:0:0:
141,124,67786,2,0,P|156:173|156:224,1,101.999996887207,12|8,0:1|0:1,0:0:0:0:
115,289,68030,1,8,0:1:0:0:
114,289,68111,2,0,P|162:274|212:279,1,101.999996887207,8|0,0:0|0:0,0:0:0:0:
321,335,68435,6,0,L|324:233,1,101.999996887207,12|0,0:1|0:0,0:0:0:0:
398,175,68759,1,8,0:0:0:0:
264,169,68921,1,8,0:1:0:0:
440,92,69084,2,0,P|479:122|492:171,1,101.999996887207,8|8,0:0|0:1,0:0:0:0:
340,98,69408,2,0,P|346:48|382:13,1,101.999996887207,8|8,0:0|0:1,0:0:0:0:
264,169,69732,6,0,L|111:158,1,152.999995330811,8|0,0:0|0:0,0:0:0:0:
89,155,70057,1,8,0:0:0:0:
147,83,70219,1,8,0:1:0:0:
173,244,70381,2,0,L|165:345,1,101.999996887207,8|8,0:0|0:1,0:0:0:0:
74,372,70705,2,0,L|81:270,1,101.999996887207,8|8,0:0|0:1,0:0:0:0:
255,307,71030,6,0,B|359:274|352:361|450:319,1,203.999993774414,10|8,0:0|0:0,0:0:0:0:
512,262,71516,1,8,0:1:0:0:
453,160,71678,2,0,L|351:165,1,101.999996887207,8|8,0:0|0:1,0:0:0:0:
287,87,72003,2,0,L|388:81,1,101.999996887207,8|8,0:0|0:1,0:0:0:0:
259,167,72327,6,0,P|197:94|243:11,2,203.999993774414,8|8|12,0:0|0:0|0:1,0:0:0:0:
219,258,73138,1,8,0:1:0:0:
223,278,73219,1,8,0:0:0:0:
224,299,73300,1,8,0:0:0:0:
338,346,73462,1,8,0:0:0:0:
339,325,73543,1,8,0:0:0:0:
344,303,73624,6,0,P|385:295|427:301,2,85,12|0|8,0:1|0:0|0:1,0:0:0:0:
428,212,74111,2,0,P|468:225|501:251,2,85,8|0|0,0:0|0:0|0:0,0:0:0:0:
344,164,74597,2,0,L|252:168,1,85,8|0,0:0|0:0,0:0:0:0:
168,92,74921,6,0,L|176:8,2,85,8|0|8,0:1|0:0|0:1,0:0:0:0:
76,144,75408,2,0,L|68:60,2,85,8|8|0,0:0|0:1|0:0,0:0:0:0:
140,220,75894,2,0,P|141:262|136:304,1,85,0|8,0:0|0:1,0:0:0:0:
240,352,76219,6,0,P|322:332|405:344,1,170,12|8,0:1|0:1,0:0:0:0:
320,248,76705,1,8,0:0:0:0:
320,248,77030,2,0,L|323:205,1,42.5,8|0,0:0|0:0,0:0:0:0:
403,139,77192,6,0,P|359:72|409:12,1,170,12|8,0:1|0:1,0:0:0:0:
276,76,77678,1,8,0:0:0:0:
276,76,78003,1,8,0:0:0:0:
184,68,78165,1,8,0:1:0:0:
92,60,78327,2,0,P|97:101|99:144,1,85,8|8,0:0|0:1,0:0:0:0:
56,228,78651,1,8,0:0:0:0:
148,300,78813,5,12,0:1:0:0:
168,288,78894,1,2,0:0:0:0:
191,284,78975,1,2,0:0:0:0:
216,288,79057,1,2,0:0:0:0:
238,301,79138,2,0,L|234:357,3,42.5,10|0|8|0,0:1|0:0|0:1|0:0,0:0:0:0:
312,260,79462,5,10,0:0:0:0:
308,236,79543,1,2,0:0:0:0:
304,212,79624,1,10,0:0:0:0:
300,188,79705,1,2,0:0:0:0:
296,164,79786,2,0,L|300:112,3,42.5,10|0|8|0,0:0|0:0|0:0|0:0,0:0:0:0:
384,152,80111,6,0,P|423:136|464:142,1,85,12|12,0:1|0:1,0:0:0:0:
264,48,81084,6,0,L|170:51,1,93.5000028533936,8|0,0:0|0:0,0:0:0:0:
64,56,81408,1,6,0:0:0:0:
256,192,81489,12,2,86597,0:0:0:0:
