osu file format v14

[General]
AudioFilename: audio.mp3
AudioLeadIn: 0
PreviewTime: 57327
Countdown: 0
SampleSet: Soft
StackLeniency: 0.2
Mode: 0
LetterboxInBreaks: 0
WidescreenStoryboard: 1

[Editor]
DistanceSpacing: 0.3
BeatDivisor: 4
GridSize: 32
TimelineZoom: 3.099999

[Metadata]
Title:km/h (TV Size)
TitleUnicode:♡km/h (TV Size)
Artist:Ray
ArtistUnicode:Ray
Creator:Realazy
Version:Elsa's Extra
Source:ろんぐらいだぁす!
Tags:opening op long riders! heart kilometer per hour kmh meg rock y0c1e elsa_valentine xlolicore- elsa valentine Kibbleru Trynna eiri- Ayyri Dashyy-
BeatmapID:1635156
BeatmapSetID:775282

[Difficulty]
HPDrainRate:6
CircleSize:4.8
OverallDifficulty:8.8
ApproachRate:9
SliderMultiplier:1.8
SliderTickRate:1

[Events]
//Background and Video events
0,0,"alo.jpg",0,0
//Break Periods
//Storyboard Layer 0 (Background)
//Storyboard Layer 1 (Fail)
//Storyboard Layer 2 (Pass)
//Storyboard Layer 3 (Foreground)
//Storyboard Sound Samples

[TimingPoints]
976,324.324324324324,4,2,1,40,1,0
3165,-100,4,2,1,40,0,0
3246,-100,4,2,1,40,0,0
5840,-125,4,2,1,40,0,0
6165,-111.111111111111,4,2,1,45,0,0
6408,-111.111111111111,4,2,1,45,0,0
6489,-111.111111111111,4,2,1,45,0,0
7705,-111.111111111111,4,2,1,45,0,0
7786,-111.111111111111,4,2,1,45,0,0
8759,-111.111111111111,4,2,1,50,0,0
10057,-90.9090909090908,4,2,1,50,0,0
10705,-83.3333333333333,4,2,1,50,0,0
10786,-83.3333333333333,4,2,1,50,0,0
10867,-83.3333333333333,4,2,1,50,0,0
10948,-83.3333333333333,4,2,1,50,0,0
11030,-71.4285714285714,4,2,1,40,0,0
11273,-71.4285714285714,4,2,1,40,0,0
11354,-100,4,2,1,60,0,0
11597,-100,4,2,1,60,0,0
11678,-100,4,2,1,60,0,0
12894,-100,4,2,1,60,0,0
12975,-100,4,2,1,60,0,0
14192,-100,4,2,1,60,0,0
14273,-100,4,2,1,60,0,0
15165,-100,4,2,1,60,0,0
15246,-100,4,2,1,60,0,0
16786,-100,4,2,1,60,0,0
16867,-100,4,2,1,60,0,0
18084,-100,4,2,1,60,0,0
18165,-100,4,2,1,60,0,0
20759,-125,4,2,1,40,0,0
21651,-125,4,2,1,40,0,0
21732,-125,4,2,1,50,0,0
21975,-125,4,2,1,50,0,0
22057,-125,4,2,1,50,0,0
24570,-125,4,2,1,50,0,0
24651,-125,4,2,1,50,0,0
26840,-125,4,2,1,50,0,0
26921,-100,4,2,1,55,0,0
30813,-125,4,2,1,55,0,0
31543,-125,4,2,1,55,0,0
31624,-100,4,2,1,55,0,0
31705,-100,4,2,1,55,0,0
31786,-90.9090909090909,4,2,1,50,0,0
32030,-90.9090909090909,4,2,1,50,0,0
32111,-100,4,2,1,60,0,0
40786,-100,4,2,1,60,0,0
40867,-100,4,2,1,60,0,0
42165,-142.857142857143,4,2,1,60,0,0
42408,-142.857142857143,4,2,1,60,0,0
42489,-111.111111111111,4,2,1,55,0,0
43057,-111.111111111111,4,2,1,55,0,0
43138,-111.111111111111,4,2,1,55,0,0
43867,-111.111111111111,4,2,1,55,0,0
43948,-111.111111111111,4,2,1,55,0,0
46462,-111.111111111111,4,2,1,55,0,0
46543,-111.111111111111,4,2,1,55,0,0
51570,-99.9999999999999,4,2,1,55,0,0
52867,-99.9999999999999,4,2,1,60,0,0
56597,-83.3333333333333,4,2,1,60,0,0
57732,-71.4285714285714,4,2,1,60,0,0
57975,-71.4285714285714,4,2,1,60,0,0
58057,-83.3333333333333,4,2,99,70,0,1
58300,-83.3333333333333,4,2,99,70,0,1
58381,-83.3333333333333,4,2,1,70,0,1
60570,-83.3333333333333,4,2,1,70,0,1
60651,-83.3333333333333,4,2,1,70,0,1
63489,-83.3333333333333,4,2,1,70,0,1
63570,-83.3333333333333,4,2,1,70,0,1
65111,-83.3333333333333,4,2,1,70,0,1
65192,-83.3333333333333,4,2,1,70,0,1
65516,-90.9090909090909,4,2,1,70,0,1
65759,-90.9090909090909,4,2,1,70,0,1
65840,-83.3333333333333,4,2,1,70,0,1
68111,-100,4,2,1,60,0,0
68354,-100,4,2,1,60,0,0
68435,-83.3333333333333,4,2,99,70,0,1
68678,-83.3333333333333,4,2,99,70,0,1
68759,-83.3333333333333,4,2,1,70,0,1
73624,-90.9090909090909,4,2,1,70,0,0
76219,-100,4,2,1,70,0,0
76462,-100,4,2,1,70,0,0
76543,-100,4,2,1,70,0,0
76705,-100,4,2,1,60,0,0
77192,-100,4,2,1,70,0,0
77435,-100,4,2,1,70,0,0
77516,-100,4,2,1,70,0,0
77678,-100,4,2,1,60,0,0
77921,-100,4,2,1,60,0,0
78003,-100,4,2,1,70,0,0
78651,-100,4,2,1,60,0,0
78813,-100,4,2,1,70,0,0
79300,-83.3333333333333,4,2,1,70,0,0
79624,-83.3333333333333,4,2,1,70,0,0
80273,-83.3333333333333,4,2,1,60,0,0
80435,-125,4,2,1,60,0,0
80840,-125,4,2,1,60,0,0
80921,-125,4,2,1,60,0,0
81084,-71.4285714285714,4,2,1,70,0,0
81327,-71.4285714285714,4,2,1,5,0,0
81408,-100,4,2,1,30,0,0
86597,-100,4,2,1,20,0,0

[Colours]
Combo1 : 136,196,255
Combo2 : 255,128,128
Combo3 : 255,255,128

[HitObjects]
187,362,976,5,2,0:0:0:0:
153,353,1138,1,0,0:0:0:0:
126,329,1300,1,0,0:0:0:0:
189,283,1462,5,2,0:0:0:0:
26,314,1624,5,0,0:0:0:0:
57,297,1786,1,2,0:0:0:0:
78,267,1948,1,2,0:0:0:0:
4,238,2111,5,0,0:0:0:0:
141,225,2273,1,0,0:0:0:0:
278,211,2435,1,2,0:0:0:0:
124,157,2597,5,0,0:0:0:0:
119,121,2759,1,2,0:0:0:0:
125,85,2921,6,0,B|199:95|168:35|271:46,1,135,2|0,0:0|0:0,0:0:0:0:
308,92,3246,1,2,0:0:0:0:
237,119,3408,1,8,0:1:0:0:
381,70,3570,5,10,0:1:0:0:
381,105,3732,1,0,0:0:0:0:
369,138,3894,1,0,0:0:0:0:
325,19,4057,5,10,0:1:0:0:
369,138,4219,5,0,0:0:0:0:
355,171,4381,1,2,0:0:0:0:
371,204,4543,1,2,0:0:0:0:
453,114,4705,5,8,0:1:0:0:
434,246,4867,1,8,0:1:0:0:
420,375,5030,5,2,0:0:0:0:
323,367,5192,1,0,0:0:0:0:
287,363,5354,1,0,0:0:0:0:
254,377,5516,5,8,0:0:0:0:
99,268,5678,1,8,0:3:0:0:
53,324,5840,2,0,P|95:340|138:328,1,72,8|8,0:1|0:1,0:0:0:0:
162,234,6165,6,0,P|111:196|38:230,1,121.499996292114,12|0,0:1|0:0,0:0:0:0:
99,268,6489,1,0,0:0:0:0:
20,146,6651,1,8,0:1:0:0:
58,208,6813,1,8,0:0:0:0:
74,98,6975,2,0,P|27:74|-13:80,1,80.9999975280763,0|0,0:0|0:0,0:0:0:0:
177,25,7300,1,8,0:2:0:0:
172,36,7381,1,8,0:2:0:0:
167,47,7462,6,0,P|159:104|215:156,1,121.499996292114,12|0,0:1|0:0,0:0:0:0:
229,85,7786,1,8,0:1:0:0:
57,207,7948,2,0,P|98:195|144:211,1,80.9999975280763,0|8,0:0|0:0,0:0:0:0:
281,167,8273,1,8,0:1:0:0:
197,150,8435,2,0,P|214:188|211:240,1,80.9999975280763,8|0,0:0|0:0,0:0:0:0:
154,353,8759,5,12,0:1:0:0:
126,364,8840,1,2,0:0:0:0:
96,362,8921,1,2,0:0:0:0:
69,347,9002,1,2,0:0:0:0:
52,323,9084,6,0,P|67:302|95:287,1,40.4999987640381,8|0,0:1|0:0,0:0:0:0:
175,285,9246,2,0,P|195:295|217:321,1,40.4999987640381,8|0,0:1|0:0,0:0:0:0:
358,353,9408,5,8,0:1:0:0:
386,364,9489,1,0,0:0:0:0:
416,362,9570,1,8,0:1:0:0:
443,347,9651,1,0,0:0:0:0:
460,323,9733,6,0,P|445:302|417:287,1,40.4999987640381,8|0,0:1|0:0,0:0:0:0:
337,285,9895,2,0,P|317:295|295:321,1,40.4999987640381,8|0,0:1|0:0,0:0:0:0:
154,353,10057,6,0,P|163:322|160:290,1,49.5000015106202,8|0,0:0|0:0,0:0:0:0:
134,204,10219,2,0,P|121:174|99:151,1,49.5000015106202,8|0,0:0|0:0,0:0:0:0:
20,111,10381,5,10,0:0:0:0:
64,108,10462,1,2,0:0:0:0:
103,86,10543,1,10,0:0:0:0:
128,49,10624,1,2,0:0:0:0:
134,6,10705,6,0,P|156:29|188:42,1,53.9999983520508,8|0,0:0|0:0,0:0:0:0:
273,63,10867,2,0,P|305:67|341:58,1,53.9999983520508,8|0,0:0|0:0,0:0:0:0:
478,52,11030,6,0,B|472:18|421:8|421:8|389:53|412:96|445:121,1,188.999994232178,2|0,0:0|0:0,0:0:0:0:
484,180,11354,6,0,P|438:138|344:151,1,135,12|0,0:1|0:0,0:0:0:0:
355,160,11678,2,0,L|368:264,1,90,8|0,0:0|0:0,0:0:0:0:
512,310,12003,1,8,0:1:0:0:
433,293,12165,1,8,0:1:0:0:
285,355,12327,2,0,L|273:265,1,90,8|8,0:0|0:1,0:0:0:0:
227,201,12570,1,8,0:1:0:0:
206,195,12651,6,0,P|183:256|121:276,1,135,10|0,0:1|0:0,0:0:0:0:
134,203,12975,2,0,L|138:105,1,90,10|0,0:0|0:0,0:0:0:0:
56,241,13300,2,0,B|46:284|46:284|66:327,1,90,10|8,0:1|0:1,0:0:0:0:
121,276,13624,5,10,0:0:0:0:
28,112,13786,1,2,0:0:0:0:
25,125,13867,1,2,0:0:0:0:
21,138,13948,6,0,P|85:152|137:113,1,135,10|0,0:1|0:0,0:0:0:0:
150,47,14273,1,8,0:0:0:0:
150,47,14435,1,0,0:3:0:0:
203,175,14597,1,10,0:1:0:0:
70,83,14759,1,0,0:0:0:0:
232,13,14921,2,0,P|276:-3|352:49,1,135,8|0,0:0|0:0,0:0:0:0:
360,106,15246,5,10,0:1:0:0:
487,37,15408,1,2,0:0:0:0:
463,144,15570,5,10,0:0:0:0:
360,106,15732,2,0,P|365:158|365:206,1,90,2|8,0:0|0:1,0:0:0:0:
354,348,16057,1,8,0:0:0:0:
368,315,16138,1,8,0:0:0:0:
398,296,16219,1,8,0:0:0:0:
433,293,16300,1,8,0:3:0:0:
467,305,16381,2,0,P|451:332|429:347,1,45,8|0,0:1|0:0,0:0:0:0:
277,351,16543,6,0,P|243:304|159:312,1,135,14|0,0:1|0:0,0:0:0:0:
115,348,16867,1,8,0:0:0:0:
203,175,17030,1,0,0:0:0:0:
171,303,17192,5,8,0:1:0:0:
104,275,17354,1,8,0:1:0:0:
187,375,17516,1,8,0:0:0:0:
48,322,17678,2,0,P|34:292|34:257,1,45,0|0,0:0|0:0,0:0:0:0:
31,161,17840,6,0,P|96:164|136:113,1,135,10|0,0:1|0:0,0:0:0:0:
137,41,18165,1,8,0:0:0:0:
203,175,18327,1,0,0:0:0:0:
26,24,18489,6,0,B|33:68|33:68|66:98,1,90,8|8,0:1|0:1,0:0:0:0:
248,25,18813,2,0,B|241:69|241:69|208:99,1,90,8|8,0:0|0:1,0:0:0:0:
136,112,19057,1,8,0:0:0:0:
136,120,19138,5,10,0:1:0:0:
290,204,19300,1,2,0:0:0:0:
203,175,19462,5,10,0:1:0:0:
289,119,19624,1,10,0:1:0:0:
389,234,19786,5,8,0:0:0:0:
248,25,19948,2,0,P|277:18|308:15,1,45,8|0,0:0|0:0,0:0:0:0:
405,1,20111,5,8,0:1:0:0:
318,288,20273,1,8,0:0:0:0:
318,288,20759,5,2,0:0:0:0:
317,294,20813,1,2,0:0:0:0:
316,300,20867,1,2,0:0:0:0:
315,306,20921,1,0,0:0:0:0:
351,370,21084,1,2,0:3:0:0:
389,234,21246,1,2,0:3:0:0:
410,328,21408,6,0,P|366:298|313:306,1,108,0|0,0:0|0:0,0:0:0:0:
277,371,21732,6,0,P|214:342|206:302,1,108,12|0,0:1|0:0,0:0:0:0:
193,317,22057,2,0,P|157:326|109:313,1,72,8|0,0:1|0:0,0:0:0:0:
9,291,22381,2,0,P|62:304|84:388,1,144,8|8,0:1|0:1,0:0:0:0:
155,253,22867,1,0,0:0:0:0:
24,222,23030,5,8,0:1:0:0:
8,153,23192,2,0,P|33:126|46:78,1,72,0|8,0:0|0:1,0:0:0:0:
27,8,23516,5,2,0:0:0:0:
42,17,23597,1,2,0:0:0:0:
59,21,23678,1,10,0:1:0:0:
117,111,23840,1,0,0:1:0:0:
168,0,24003,2,0,P|180:33|205:58,1,72,8|0,0:1|0:0,0:0:0:0:
289,119,24327,6,0,P|303:75|373:53,1,108,12|0,0:1|0:0,0:0:0:0:
372,58,24651,2,0,P|407:60|450:35,1,72,8|0,0:1|0:0,0:0:0:0:
505,141,24975,2,0,P|472:125|437:127,1,72,8|0,0:1|0:0,0:0:0:0:
362,133,25300,1,8,0:1:0:0:
459,197,25462,1,0,0:0:0:0:
372,58,25624,5,8,0:1:0:0:
317,219,25786,2,0,P|352:221|385:206,1,72,0|8,0:0|0:1,0:0:0:0:
504,140,26111,2,0,P|472:125|437:128,1,72,0|8,0:0|0:1,0:0:0:0:
362,133,26435,1,0,0:0:0:0:
373,297,26597,6,0,P|363:345|299:371,1,108,8|0,0:0|0:0,0:0:0:0:
294,362,26921,6,0,P|257:340|196:351,1,90,12|8,0:1|0:1,0:0:0:0:
191,353,27165,1,8,0:1:0:0:
168,355,27246,1,8,0:1:0:0:
62,221,27408,5,8,0:0:0:0:
173,280,27570,1,0,0:0:0:0:
69,349,27732,1,0,0:0:0:0:
146,196,27894,5,8,0:0:0:0:
46,56,28057,2,0,L|51:109,1,45,8|8,0:1|0:1,0:0:0:0:
62,221,28219,5,8,0:0:0:0:
146,196,28381,1,0,0:0:0:0:
232,171,28543,1,0,0:0:0:0:
173,280,28705,5,8,0:0:0:0:
62,221,28867,1,0,0:0:0:0:
122,110,29030,1,0,0:0:0:0:
232,171,29192,5,8,0:0:0:0:
50,100,29354,2,0,P|60:73|79:52,1,45,0|0,0:0|0:0,0:0:0:0:
215,30,29516,5,14,0:1:0:0:
240,39,29597,1,2,0:0:0:0:
266,41,29678,1,2,0:0:0:0:
292,35,29759,1,2,0:0:0:0:
315,21,29840,5,8,0:1:0:0:
304,55,29921,1,0,0:0:0:0:
309,91,30003,1,8,0:1:0:0:
329,120,30084,1,0,0:0:0:0:
362,133,30165,5,10,0:0:0:0:
398,159,30246,1,2,0:0:0:0:
410,202,30327,1,10,0:0:0:0:
396,244,30408,1,2,0:0:0:0:
360,271,30489,6,0,P|349:246|351:213,1,45,10|0,0:0|0:0,0:0:0:0:
362,133,30651,2,0,P|374:108|400:88,1,45,8|0,0:0|0:0,0:0:0:0:
478,69,30813,5,12,0:1:0:0:
232,171,30975,2,0,P|252:199|260:253,1,72,12|0,0:1|0:0,0:0:0:0:
284,332,31300,6,0,P|307:287|368:272,1,108,0|0,0:0|0:0,0:0:0:0:
399,346,31624,2,0,P|377:342|355:342,1,45,2|2,0:0|0:0,0:0:0:0:
337,124,31786,6,0,P|355:185|455:195,1,148.50000453186,12|0,0:0|0:0,0:0:0:0:
495,114,32111,6,0,P|453:129|409:137,1,90,8|0,0:1|0:0,0:0:0:0:
321,5,32435,2,0,P|355:34|385:69,1,90,8|0,0:0|0:0,0:0:0:0:
337,124,32759,5,8,0:1:0:0:
337,124,32921,1,0,0:0:0:0:
445,27,33084,1,8,0:0:0:0:
408,137,33246,1,0,0:0:0:0:
502,190,33408,5,8,0:1:0:0:
337,124,33570,2,0,P|322:166|314:211,1,90,8|8,0:1|0:0,0:0:0:0:
405,296,33894,2,0,P|420:254|429:210,1,90,8|0,0:1|0:0,0:0:0:0:
408,137,34219,1,8,0:1:0:0:
484,327,34381,2,0,P|444:297|399:298,1,90,8|8,0:0|0:1,0:0:0:0:
347,335,34624,1,8,0:1:0:0:
335,342,34705,6,0,L|235:347,1,90,8|0,0:1|0:0,0:0:0:0:
143,293,35030,2,0,P|125:333|88:358,1,90,8|0,0:0|0:0,0:0:0:0:
83,229,35354,5,8,0:1:0:0:
83,229,35516,1,0,0:0:0:0:
250,253,35678,1,8,0:0:0:0:
88,358,35840,1,0,0:0:0:0:
181,231,36003,5,8,0:1:0:0:
143,293,36165,1,8,0:1:0:0:
26,160,36327,1,8,0:0:0:0:
120,23,36489,2,0,L|209:18,1,90,8|0,0:1|0:0,0:0:0:0:
255,77,36813,1,8,0:1:0:0:
457,128,36975,2,0,B|472:83|472:83|453:23,1,90,8|8,0:0|0:0,0:0:0:0:
392,23,37219,1,8,0:0:0:0:
392,23,37300,6,0,L|303:18,1,90,8|0,0:1|0:0,0:0:0:0:
202,131,37624,1,10,0:0:0:0:
302,17,37786,2,0,P|328:58|323:109,1,90,8|0,0:1|0:0,0:0:0:0:
413,189,38111,1,8,0:1:0:0:
327,98,38273,1,8,0:0:0:0:
459,42,38435,1,0,0:0:0:0:
342,171,38597,6,0,P|348:223|384:257,1,90,8|2,0:1|0:0,0:0:0:0:
371,250,38921,1,8,0:0:0:0:
496,218,39084,2,0,B|511:176|478:133|478:133|425:145|411:188,1,180,2|2,0:0|0:0,0:0:0:0:
487,362,39570,1,10,0:0:0:0:
371,250,39732,1,2,0:0:0:0:
496,218,39894,5,8,0:1:0:0:
391,324,40057,1,8,0:1:0:0:
377,325,40138,1,8,0:1:0:0:
363,324,40219,6,0,P|318:299|298:256,1,90,12|0,0:1|0:0,0:0:0:0:
181,231,40543,2,0,P|183:295|108:338,1,135,12|0,0:1|0:0,0:0:0:0:
118,265,40867,1,8,0:0:0:0:
236,155,41030,1,8,0:0:0:0:
250,156,41111,1,8,0:0:0:0:
264,155,41192,6,0,P|309:130|329:87,1,90,12|0,0:1|0:0,0:0:0:0:
328,22,41516,1,8,0:0:0:0:
490,148,41678,6,0,B|377:161|433:73|300:101,1,180,12|8,0:1|0:1,0:0:0:0:
461,77,42165,2,0,P|485:37|471:-6,1,94.499997116089,8|0,0:0|0:0,0:0:0:0:
405,27,42489,5,12,0:1:0:0:
496,218,42651,1,12,0:1:0:0:
391,324,42813,6,0,P|426:291|501:302,1,121.499996292114,0|0,0:0|0:0,0:0:0:0:
455,358,43138,1,10,0:1:0:0:
287,296,43300,1,8,0:1:0:0:
259,290,43381,1,8,0:1:0:0:
231,294,43462,1,8,0:1:0:0:
121,324,43624,6,0,P|86:291|11:302,1,121.499996292114,12|0,0:1|0:0,0:0:0:0:
57,358,43949,1,8,0:1:0:0:
139,192,44111,2,0,P|141:232|163:266,1,80.9999975280763,8|8,0:0|0:1,0:0:0:0:
256,366,44435,5,8,0:0:0:0:
287,296,44597,1,8,0:1:0:0:
259,290,44678,1,8,0:1:0:0:
231,294,44759,1,8,0:0:0:0:
162,265,44921,1,8,0:1:0:0:
256,191,45084,5,12,0:1:0:0:
256,366,45246,1,12,0:1:0:0:
183,192,45408,6,0,P|125:198|95:226,1,80.9999975280763,2|2,0:0|0:1,0:0:0:0:
162,265,45651,1,8,0:3:0:0:
162,265,45732,6,0,P|195:266|217:258,1,40.4999987640381,8|0,0:3|0:0,0:0:0:0:
256,191,45894,2,0,P|265:164|266:131,1,40.4999987640381,8|0,0:1|0:0,0:0:0:0:
252,79,46057,1,8,0:0:0:0:
391,60,46219,6,0,P|426:93|501:82,1,121.499996292114,12|0,0:1|0:0,0:0:0:0:
455,26,46544,1,8,0:1:0:0:
356,127,46705,1,8,0:0:0:0:
492,196,46867,6,0,P|453:171|396:178,1,80.9999975280763,8|8,0:1|0:0,0:0:0:0:
323,268,47192,1,8,0:0:0:0:
323,268,47273,1,8,0:0:0:0:
323,268,47354,1,8,0:0:0:0:
435,241,47516,1,0,0:0:0:0:
356,127,47678,5,14,0:1:0:0:
419,169,47840,1,0,0:0:0:0:
391,298,48003,2,0,P|432:314|484:294,1,80.9999975280763,0|8,0:0|0:0,0:0:0:0:
490,300,48246,1,8,0:1:0:0:
490,300,48327,5,10,0:1:0:0:
352,198,48489,1,8,0:1:0:0:
256,366,48651,2,0,P|215:350|163:370,1,80.9999975280763,8|8,0:0|0:1,0:0:0:0:
157,364,48894,1,8,0:1:0:0:
157,364,48975,5,14,0:1:0:0:
16,297,49138,1,0,0:0:0:0:
183,192,49300,2,0,P|175:235|174:284,1,80.9999975280763,8|8,0:1|0:0,0:0:0:0:
23,162,49624,5,10,0:1:0:0:
55,160,49705,1,8,0:1:0:0:
84,147,49786,1,8,0:1:0:0:
130,84,49948,1,8,0:0:0:0:
38,0,50111,5,8,0:1:0:0:
29,43,50192,1,8,0:1:0:0:
39,86,50273,5,14,0:1:0:0:
177,21,50435,1,0,0:0:0:0:
23,162,50597,6,0,P|70:158|112:182,1,80.9999975280763,8|8,0:1|0:0,0:0:0:0:
213,263,50921,2,0,P|186:224|185:175,1,80.9999975280763,10|8,0:1|0:1,0:0:0:0:
217,122,51246,1,8,0:0:0:0:
176,20,51408,6,0,L|217:15,1,40.4999987640381,0|0,0:0|0:0,0:0:0:0:
289,6,51570,5,8,0:0:0:0:
356,127,51732,1,8,0:0:0:0:
358,86,51813,1,8,0:0:0:0:
381,52,51894,1,8,0:1:0:0:
476,13,52057,1,8,0:0:0:0:
497,160,52219,5,8,0:1:0:0:
485,157,52300,1,8,0:1:0:0:
473,154,52381,2,0,L|415:142,1,45,8|0,0:0|0:0,0:0:0:0:
284,289,52543,6,0,P|306:273|333:266,1,45,8|8,0:1|0:1,0:0:0:0:
493,379,52705,2,0,P|471:371|454:357,1,45,8|8,0:0|0:0,0:0:0:0:
356,127,52867,5,12,0:1:0:0:
366,92,52948,1,2,0:0:0:0:
358,56,53030,1,2,0:0:0:0:
333,29,53111,1,2,0:0:0:0:
300,14,53192,6,0,P|286:32|272:60,1,45,8|0,0:1|0:0,0:0:0:0:
206,228,53354,2,0,P|195:208|181:190,1,45,8|0,0:1|0:0,0:0:0:0:
37,92,53516,5,8,0:1:0:0:
45,93,53597,1,0,0:0:0:0:
53,94,53678,1,8,0:1:0:0:
61,95,53759,1,0,0:0:0:0:
69,96,53840,6,0,L|60:161,1,45,8|0,0:0|0:0,0:0:0:0:
46,252,54003,2,0,L|37:317,1,45,8|0,0:1|0:0,0:0:0:0:
189,372,54165,5,8,0:0:0:0:
227,348,54246,1,0,0:0:0:0:
243,306,54327,1,8,0:0:0:0:
237,261,54408,1,0,0:0:0:0:
206,228,54489,6,0,P|180:228|151:234,1,45,8|0,0:0|0:0,0:0:0:0:
18,137,54651,2,0,P|40:140|62:140,1,45,8|0,0:0|0:0,0:0:0:0:
291,89,54813,6,0,P|298:103|299:122,1,22.5,10|0,0:0|0:0,0:0:0:0:
261,105,54894,2,0,P|263:124|259:138,1,22.5,2|0,0:0|0:0,0:0:0:0:
228,109,54975,2,0,P|223:128|219:141,1,22.5,10|0,0:0|0:0,0:0:0:0:
196,97,55056,2,0,P|186:112|175:120,1,22.5,2|0,0:0|0:0,0:0:0:0:
173,74,55137,5,8,0:0:0:0:
138,38,55219,1,8,0:0:0:0:
88,29,55300,1,8,0:0:0:0:
45,54,55381,1,8,0:0:0:0:
18,137,55462,5,12,0:1:0:0:
237,29,55624,5,12,0:1:0:0:
237,29,56273,1,8,0:1:0:0:
195,284,56435,1,8,0:0:0:0:
62,139,56597,6,0,B|184:119|127:227|267:199,1,215.999993408203,12|8,0:1|0:1,0:0:0:0:
223,119,57084,1,8,0:0:0:0:
93,209,57246,1,0,0:0:0:0:
255,368,57408,5,8,0:0:0:0:
260,338,57489,5,8,0:0:0:0:
286,304,57570,5,8,0:0:0:0:
332,290,57651,5,8,0:0:0:0:
396,299,57732,6,0,B|402:333|453:343|453:343|485:298|462:255|429:230,1,188.999994232178,8|0,0:0|0:0,0:0:0:0:
370,210,58057,6,0,P|444:206|476:131,1,161.999995056153,12|0,0:1|0:0,0:0:0:0:
398,39,58381,2,0,P|392:92|405:144,1,107.999996704102,8|0,0:0|0:0,0:0:0:0:
490,333,58705,6,0,P|448:299|395:300,1,107.999996704102,8|8,0:1|0:1,0:0:0:0:
255,368,59030,1,8,0:0:0:0:
370,210,59192,1,8,0:1:0:0:
367,214,59273,1,8,0:1:0:0:
363,218,59354,6,0,P|322:250|269:250,1,107.999996704102,8|0,0:1|0:0,0:0:0:0:
92,208,59678,1,8,0:0:0:0:
255,368,59840,1,0,0:0:0:0:
235,186,60003,6,0,P|198:236|211:293,1,107.999996704102,8|0,0:1|0:0,0:0:0:0:
50,307,60327,2,0,B|91:321|91:321|123:272|89:202,1,161.999995056153,8|0,0:0|0:0,0:0:0:0:
19,183,60651,6,0,B|108:191|70:123|175:135,1,161.999995056153,8|0,0:1|0:0,0:0:0:0:
235,186,60975,1,8,0:0:0:0:
182,37,61138,1,0,0:0:0:0:
34,110,61300,6,0,P|46:59|26:10,1,107.999996704102,8|8,0:1|0:1,0:0:0:0:
26,10,61624,1,8,0:0:0:0:
19,183,61786,1,0,0:0:0:0:
182,37,61948,6,0,P|225:63|291:54,1,107.999996704102,10|0,0:1|0:0,0:0:0:0:
352,28,62273,1,10,0:0:0:0:
235,186,62435,1,0,0:0:0:0:
476,132,62597,6,0,P|433:106|367:115,1,107.999996704102,12|8,0:1|0:1,0:0:0:0:
307,133,62840,1,8,0:0:0:0:
307,133,62921,1,8,0:0:0:0:
448,290,63084,6,0,P|422:298|396:297,1,53.9999983520508,8|8,0:0|0:0,0:0:0:0:
263,319,63246,6,0,B|360:312|316:383|433:372,1,161.999995056153,12|0,0:1|0:0,0:0:0:0:
396,297,63570,2,0,B|420:250|420:250|394:189,1,107.999996704102,8|0,0:0|0:0,0:0:0:0:
280,58,63894,1,8,0:1:0:0:
476,132,64057,1,8,0:1:0:0:
326,204,64219,1,8,0:0:0:0:
381,10,64381,6,0,P|396:70|364:120,1,107.999996704102,0|10,0:0|0:1,0:0:0:0:
304,133,64705,1,0,0:0:0:0:
461,244,64867,2,0,P|403:191|326:204,1,161.999995056153,10|0,0:0|0:0,0:0:0:0:
275,257,65192,2,0,P|294:311|274:358,1,107.999996704102,0|10,0:0|0:1,0:0:0:0:
76,360,65516,6,0,B|54:326|54:326|160:346,1,148.50000453186,10|0,0:0|0:0,0:0:0:0:
221,308,65840,6,0,P|202:261|227:202,1,107.999996704102,8|0,0:1|0:0,0:0:0:0:
304,133,66165,1,8,0:0:0:0:
160,346,66327,1,8,0:1:0:0:
168,110,66489,5,8,0:0:0:0:
276,356,66651,1,8,0:1:0:0:
312,333,66732,1,8,0:1:0:0:
355,331,66813,1,8,0:0:0:0:
511,251,66975,2,0,P|484:252|460:242,1,53.9999983520508,8|0,0:1|0:0,0:0:0:0:
304,133,67138,5,12,0:1:0:0:
342,136,67219,1,8,0:1:0:0:
376,119,67300,1,8,0:1:0:0:
393,86,67381,1,8,0:1:0:0:
414,54,67462,1,8,0:0:0:0:
450,40,67543,1,8,0:0:0:0:
489,46,67624,2,0,P|492:77|482:111,1,53.9999983520508,8|0,0:1|0:0,0:0:0:0:
460,242,67786,5,12,0:1:0:0:
325,60,67948,1,8,0:1:0:0:
469,367,68111,2,0,P|420:324|332:348,1,135,8|0,0:0|0:0,0:0:0:0:
276,356,68435,6,0,B|186:367|220:294|117:312,1,161.999995056153,12|0,0:1|0:0,0:0:0:0:
62,351,68759,1,8,0:0:0:0:
255,283,68921,1,8,0:1:0:0:
43,212,69084,6,0,P|99:218|144:179,1,107.999996704102,8|8,0:0|0:1,0:0:0:0:
182,37,69408,1,8,0:0:0:0:
255,283,69570,1,8,0:1:0:0:
212,258,69651,1,8,0:1:0:0:
163,264,69732,5,8,0:0:0:0:
62,351,69894,1,0,0:0:0:0:
276,356,70057,5,8,0:0:0:0:
43,212,70219,1,8,0:1:0:0:
231,127,70381,5,8,0:0:0:0:
62,351,70543,1,8,0:1:0:0:
105,326,70624,1,8,0:1:0:0:
154,332,70705,5,8,0:0:0:0:
276,356,70867,2,0,P|269:319|277:288,1,53.9999983520508,8|0,0:1|0:0,0:0:0:0:
305,223,71030,5,10,0:0:0:0:
469,367,71192,1,0,0:0:0:0:
471,171,71354,5,8,0:0:0:0:
276,356,71516,1,8,0:1:0:0:
292,116,71678,6,0,P|305:176|303:235,1,107.999996704102,8|8,0:0|0:1,0:0:0:0:
483,64,72003,1,8,0:0:0:0:
471,171,72165,1,8,0:1:0:0:
471,171,72327,5,8,0:0:0:0:
274,22,72489,1,0,0:0:0:0:
304,222,72651,5,8,0:0:0:0:
487,10,72813,2,0,L|482:75,1,53.9999983520508,8|8,0:1|0:1,0:0:0:0:
471,171,72975,5,12,0:1:0:0:
418,378,73138,1,8,0:1:0:0:
443,369,73219,1,8,0:0:0:0:
469,367,73300,1,8,0:0:0:0:
304,222,73462,5,8,0:0:0:0:
348,240,73543,1,8,0:0:0:0:
396,234,73624,1,12,0:1:0:0:
482,63,73786,6,0,P|425:61|370:80,1,99.0000030212403,0|8,0:0|0:1,0:0:0:0:
292,116,74111,1,8,0:0:0:0:
385,72,74273,5,0,0:0:0:0:
313,39,74435,1,0,0:0:0:0:
362,145,74597,1,8,0:0:0:0:
438,13,74759,2,0,P|454:37|464:76,1,49.5000015106202,0|0,0:0|0:0,0:0:0:0:
459,155,74921,6,0,P|411:142|362:145,1,99.0000030212403,8|0,0:1|0:0,0:0:0:0:
264,191,75246,1,8,0:1:0:0:
313,39,75408,1,8,0:0:0:0:
362,145,75570,5,8,0:1:0:0:
292,116,75732,1,8,0:1:0:0:
269,111,75813,2,0,P|237:115|208:128,1,49.5000015106202,8|0,0:1|0:0,0:0:0:0:
184,183,76057,1,8,0:1:0:0:
64,35,76219,6,0,P|87:97|149:118,1,135,12|0,0:1|0:0,0:0:0:0:
138,44,76543,1,8,0:1:0:0:
23,242,76705,6,0,B|127:255|73:164|210:186,1,180,8|8,0:0|0:0,0:0:0:0:
205,193,77111,1,0,0:0:0:0:
162,258,77192,6,0,P|171:322|231:346,1,135,12|0,0:1|0:0,0:0:0:0:
293,311,77516,1,8,0:1:0:0:
469,367,77678,6,0,B|435:335|435:335|324:360,1,135,8|0,0:0|0:0,0:0:0:0:
293,311,78003,1,8,0:0:0:0:
480,269,78165,1,8,0:1:0:0:
271,240,78327,6,0,P|331:247|360:275,1,90,8|8,0:0|0:1,0:0:0:0:
293,311,78651,1,8,0:0:0:0:
497,193,78813,6,0,P|465:193|426:209,1,45,12|0,0:1|0:0,0:0:0:0:
345,37,78975,5,2,0:0:0:0:
378,51,79057,1,2,0:0:0:0:
413,54,79138,2,0,P|445:54|484:38,1,45,10|0,0:1|0:0,0:0:0:0:
271,240,79300,5,10,0:1:0:0:
289,199,79381,1,2,0:0:0:0:
281,154,79462,2,0,P|281:122|262:80,1,53.9999983520508,10|0,0:0|0:0,0:0:0:0:
20,113,79624,5,10,0:0:0:0:
68,128,79705,1,2,0:0:0:0:
115,111,79786,1,10,0:0:0:0:
146,73,79867,1,2,0:0:0:0:
170,30,79948,1,10,0:0:0:0:
218,16,80030,1,2,0:0:0:0:
266,28,80111,5,12,0:1:0:0:
220,303,80273,1,12,0:1:0:0:
480,269,81084,6,0,B|474:303|423:313|423:313|391:268|414:225|447:200,1,188.999994232178,8|0,0:0|0:0,0:0:0:0:
508,198,81408,5,6,0:0:0:0:
491,166,81570,1,0,0:0:0:0:
486,130,81732,1,0,0:0:0:0:
503,26,81894,5,2,0:0:0:0:
410,138,82057,5,0,0:0:0:0:
378,155,82219,1,2,0:0:0:0:
342,160,82381,1,2,0:0:0:0:
486,130,82543,5,0,0:0:0:0:
354,83,82705,1,2,0:0:0:0:
221,40,82867,5,2,0:0:0:0:
227,75,83030,1,0,0:0:0:0:
223,110,83192,1,2,0:0:0:0:
150,80,83354,5,2,0:0:0:0:
209,144,83516,5,0,0:0:0:0:
203,179,83679,1,2,0:0:0:0:
207,214,83841,1,0,0:0:0:0:
253,319,84003,5,2,0:0:0:0:
220,303,84165,1,0,0:0:0:0:
184,302,84327,1,0,0:0:0:0:
201,378,84489,5,2,0:0:0:0:
61,369,84651,5,0,0:0:0:0:
91,348,84813,1,2,0:0:0:0:
110,317,84975,1,2,0:0:0:0:
34,297,85138,5,0,0:0:0:0:
184,302,85300,1,0,0:0:0:0:
331,310,85462,5,2,0:0:0:0:
364,294,85624,1,0,0:0:0:0:
400,293,85786,1,2,0:0:0:0:
383,368,85948,5,2,0:0:0:0:
415,217,86111,5,0,0:0:0:0:
448,233,86273,1,2,0:0:0:0:
484,234,86435,1,2,0:0:0:0:
466,158,86597,5,2,0:0:0:0:
466,158,86759,1,0,0:0:0:0:
466,158,86921,1,2,0:0:0:0:
415,217,87084,5,2,0:0:0:0:
434,87,87246,5,0,0:0:0:0:
434,87,87408,1,2,0:0:0:0:
434,87,87570,1,2,0:0:0:0:
484,234,87732,5,0,0:0:0:0:
347,196,87894,1,2,0:0:0:0:
434,87,88057,5,2,0:0:0:0:
434,87,88219,1,0,0:0:0:0:
434,87,88381,1,2,0:0:0:0:
466,158,88543,5,2,0:0:0:0:
501,47,88705,5,2,0:0:0:0:
395,20,88867,5,2,0:0:0:0:
367,126,89030,5,2,0:0:0:0:
