osu file format v14

[General]
AudioFilename: audio.mp3
AudioLeadIn: 0
PreviewTime: 57327
Countdown: 0
SampleSet: Soft
StackLeniency: 0.7
Mode: 0
LetterboxInBreaks: 0
WidescreenStoryboard: 1

[Editor]
Bookmarks: 976,6165,11354,16543,21732,26921,32111,37300,42489,47678,52867,58057,67138,68435,73624,76219,81408,86597,89030
DistanceSpacing: 0.8
BeatDivisor: 4
GridSize: 32
TimelineZoom: 2

[Metadata]
Title:km/h (TV Size)
TitleUnicode:♡km/h (TV Size)
Artist:Ray
ArtistUnicode:Ray
Creator:Realazy
Version:Dash's Normal
Source:ろんぐらいだぁす!
Tags:opening op long riders! heart kilometer per hour kmh meg rock y0c1e elsa_valentine xlolicore- elsa valentine Kibbleru Trynna eiri- Ayyri Dashyy-
BeatmapID:1635156
BeatmapSetID:775282

[Difficulty]
HPDrainRate:4
CircleSize:3
OverallDifficulty:4
ApproachRate:5
SliderMultiplier:1.2
SliderTickRate:1

[Events]
//Background and Video events
0,0,"alo.jpg",0,0
//Break Periods
//Storyboard Layer 0 (Background)
//Storyboard Layer 1 (Fail)
//Storyboard Layer 2 (Pass)
//Storyboard Layer 3 (Foreground)
//Storyboard Sound Samples

[TimingPoints]
976,324.324324324324,4,2,1,60,1,0
3165,-100,4,2,1,5,0,0
3246,-100,4,2,1,60,0,0
6165,-100,4,2,1,60,0,0
6408,-100,4,2,1,5,0,0
6489,-100,4,2,1,60,0,0
7705,-100,4,2,1,5,0,0
7786,-100,4,2,1,60,0,0
8759,-100,4,2,1,60,0,0
10786,-100,4,2,1,5,0,0
10867,-100,4,2,1,60,0,0
10948,-100,4,2,1,5,0,0
11030,-100,4,2,1,60,0,0
11273,-100,4,2,1,5,0,0
11354,-100,4,2,99,60,0,0
11597,-100,4,2,1,5,0,0
11678,-100,4,2,1,60,0,0
12894,-100,4,2,1,5,0,0
12975,-100,4,2,1,60,0,0
14192,-100,4,2,1,5,0,0
14273,-100,4,2,1,60,0,0
15165,-100,4,2,1,5,0,0
15246,-100,4,2,1,60,0,0
16786,-100,4,2,1,5,0,0
16867,-100,4,2,1,60,0,0
18084,-100,4,2,1,5,0,0
18165,-100,4,2,1,60,0,0
20759,-100,4,2,1,20,0,0
21651,-100,4,2,1,5,0,0
21732,-100,4,2,1,60,0,0
21975,-100,4,2,1,5,0,0
22057,-100,4,2,1,60,0,0
24570,-100,4,2,1,5,0,0
24651,-100,4,2,1,60,0,0
26840,-100,4,2,1,5,0,0
26921,-100,4,2,1,60,0,0
31543,-100,4,2,1,5,0,0
31624,-100,4,2,1,60,0,0
31705,-100,4,2,1,5,0,0
31786,-100,4,2,1,60,0,0
32030,-100,4,2,1,5,0,0
32111,-100,4,2,1,60,0,0
40786,-100,4,2,1,5,0,0
40867,-100,4,2,1,60,0,0
42408,-100,4,2,1,5,0,0
42489,-100,4,2,1,60,0,0
43057,-100,4,2,1,5,0,0
43138,-100,4,2,1,60,0,0
43867,-100,4,2,1,5,0,0
43948,-100,4,2,1,60,0,0
46462,-100,4,2,1,5,0,0
46543,-100,4,2,1,60,0,0
52867,-100,4,2,1,60,0,0
57975,-100,4,2,1,5,0,0
58057,-100,4,2,99,80,0,1
58300,-100,4,2,99,5,0,1
58381,-100,4,2,1,80,0,1
60570,-100,4,2,1,5,0,1
60651,-100,4,2,1,80,0,1
63489,-100,4,2,1,5,0,1
63570,-100,4,2,1,80,0,1
65111,-100,4,2,1,5,0,1
65192,-100,4,2,1,80,0,1
65759,-100,4,2,1,5,0,1
65840,-100,4,2,1,80,0,1
67138,-100,4,2,1,80,0,0
68111,-100,4,2,1,80,0,0
68354,-100,4,2,1,5,0,0
68435,-100,4,2,99,80,0,1
68678,-100,4,2,1,5,0,1
68759,-100,4,2,1,80,0,1
73624,-100,4,2,1,60,0,0
76462,-100,4,2,1,5,0,0
76543,-100,4,2,1,60,0,0
76705,-100,4,2,1,60,0,0
77192,-100,4,2,1,60,0,0
77435,-100,4,2,1,5,0,0
77516,-100,4,2,1,60,0,0
77678,-100,4,2,1,60,0,0
77921,-100,4,2,1,5,0,0
78003,-100,4,2,1,60,0,0
78651,-100,4,2,1,60,0,0
78813,-100,4,2,1,60,0,0
79300,-100,4,2,1,70,0,0
79624,-100,4,2,1,80,0,0
80273,-100,4,2,1,80,0,0
80435,-100,4,2,1,60,0,0
80840,-100,4,2,1,5,0,0
80921,-100,4,2,1,60,0,0
81084,-100,4,2,1,80,0,0
81327,-100,4,2,1,5,0,0
81408,-100,4,2,1,40,0,0
86597,-100,4,2,1,30,0,0

[Colours]
Combo1 : 136,196,255
Combo2 : 255,128,128
Combo3 : 255,255,128

[HitObjects]
36,227,6165,6,0,P|87:215|165:212,1,120,12|0,0:1|0:0,0:0:0:0:
196,189,6651,1,8,0:1:0:0:
196,189,6813,2,0,P|253:184|320:161,1,120,8|0,0:0|0:0,0:0:0:0:
407,179,7462,2,0,P|394:247|394:303,1,120,12|8,0:1|0:1,0:0:0:0:
351,319,7948,1,0,0:0:0:0:
351,319,8111,2,0,P|286:317|222:323,2,120,8|8|12,0:0|0:0|0:1,0:0:0:0:
301,236,9084,1,8,0:1:0:0:
301,236,9246,6,0,L|293:101,2,120,8|8|8,0:1|0:1|0:1,0:0:0:0:
214,277,10219,2,0,P|168:283|76:272,1,120,8|8,0:0|0:0,0:0:0:0:
55,249,10705,2,0,L|53:184,2,60,8|8|2,0:0|0:0|0:0,0:0:0:0:
136,197,11354,6,0,P|138:150|110:60,1,120,12|8,0:1|0:0,0:0:0:0:
160,54,11840,1,0,0:0:0:0:
160,54,12003,2,0,P|223:64|288:59,1,120,8|8,0:1|0:0,0:0:0:0:
371,35,12651,1,8,0:1:0:0:
430,109,12975,2,0,P|437:167|434:236,2,120,8|8|8,0:0|0:1|0:0,0:0:0:0:
333,111,13948,6,0,P|327:164|336:245,1,120,8|8,0:1|0:0,0:0:0:0:
301,267,14435,1,0,0:0:0:0:
301,267,14597,2,0,P|352:270|436:291,1,120,8|8,0:1|0:0,0:0:0:0:
452,375,15246,2,0,L|519:371,2,60,10|2|10,0:1|0:0|0:0,0:0:0:0:
404,371,15732,2,0,L|268:361,1,120,2|8,0:0|0:0,0:0:0:0:
237,373,16219,1,8,0:0:0:0:
220,278,16543,6,0,P|164:269|101:271,1,120,12|8,0:1|0:0,0:0:0:0:
55,295,17030,1,0,0:0:0:0:
55,295,17192,2,0,P|67:238|69:153,1,120,8|8,0:1|0:0,0:0:0:0:
51,82,17840,2,0,P|104:88|176:77,1,120,8|8,0:1|0:0,0:0:0:0:
208,108,18327,1,0,0:0:0:0:
208,108,18489,2,0,P|263:99|346:98,1,120,8|8,0:1|0:0,0:0:0:0:
414,136,19138,6,0,L|480:144,2,60,10|2|10,0:1|0:0|0:1,0:0:0:0:
336,191,19786,2,0,L|275:198,2,60,8|8|8,0:0|0:0|0:0,0:0:0:0:
378,214,20273,1,8,0:0:0:0:
287,326,20759,2,0,B|156:345|196:251|58:272,1,240,2|0,0:0|0:0,0:0:0:0:
4,194,21732,5,12,0:1:0:0:
44,106,22057,1,8,0:1:0:0:
124,157,22381,2,0,P|165:170|258:142,1,120,8|8,0:1|0:1,0:0:0:0:
279,180,22867,1,0,0:0:0:0:
279,180,23030,2,0,L|351:176,1,60,8|0,0:1|0:0,0:0:0:0:
426,215,23516,2,0,P|436:164|407:30,1,180,0|8,0:0|0:1,0:0:0:0:
317,21,24327,5,12,0:1:0:0:
246,86,24651,1,8,0:1:0:0:
304,162,24975,2,0,P|293:208|291:283,1,120,8|8,0:1|0:1,0:0:0:0:
249,305,25462,1,0,0:0:0:0:
249,305,25624,2,0,L|182:303,1,60,8|0,0:1|0:0,0:0:0:0:
93,313,26111,2,0,P|71:245|71:184,1,120,0|0,0:0|0:0,0:0:0:0:
82,150,26597,1,8,0:0:0:0:
135,70,26921,6,0,P|207:75|263:52,1,120,12|0,0:1|0:0,0:0:0:0:
284,94,27408,2,0,P|262:135|276:209,1,120,8|0,0:0|0:0,0:0:0:0:
313,231,27894,1,8,0:0:0:0:
406,208,28219,2,0,P|396:258|412:330,1,120,8|0,0:1|0:0,0:0:0:0:
446,354,28705,2,0,P|386:339|308:333,1,120,8|0,0:0|0:0,0:0:0:0:
285,354,29192,1,8,0:0:0:0:
260,261,29516,6,0,P|208:251|141:208,1,120,12|8,0:1|0:1,0:0:0:0:
160,170,30003,2,0,P|108:181|36:158,1,120,8|8,0:1|0:0,0:0:0:0:
4,137,30489,2,0,L|1:65,1,60,8|8,0:0|0:0,0:0:0:0:
19,32,30813,1,12,0:1:0:0:
19,32,30975,1,12,0:1:0:0:
209,52,31624,1,2,0:0:0:0:
209,52,31786,2,0,P|262:45|291:46,1,60,12|0,0:0|0:0,0:0:0:0:
314,59,32111,6,0,P|309:110|321:198,1,120,8|8,0:1|0:0,0:0:0:0:
333,272,32759,2,0,P|287:257|209:266,1,120,8|8,0:1|0:0,0:0:0:0:
184,299,33246,1,0,0:0:0:0:
184,299,33408,2,0,L|102:296,1,60,8|8,0:1|0:1,0:0:0:0:
51,233,33894,2,0,P|60:190|51:105,1,120,8|8,0:1|0:1,0:0:0:0:
41,68,34381,1,8,0:0:0:0:
132,38,34705,6,0,P|185:45|259:67,1,120,8|8,0:1|0:0,0:0:0:0:
340,93,35354,2,0,P|392:89|457:64,1,120,8|8,0:1|0:0,0:0:0:0:
495,38,35840,1,0,0:0:0:0:
495,38,36003,2,0,P|481:82|478:117,1,60,8|8,0:1|0:1,0:0:0:0:
494,198,36489,2,0,L|488:326,1,120,8|8,0:1|0:1,0:0:0:0:
470,362,36975,1,8,0:0:0:0:
400,295,37300,6,0,L|275:285,1,120,8|8,0:1|0:0,0:0:0:0:
235,302,37786,2,0,L|246:170,1,120,8|8,0:1|0:1,0:0:0:0:
250,134,38273,1,8,0:0:0:0:
162,173,38597,6,0,L|152:53,1,120,8|8,0:1|0:0,0:0:0:0:
169,8,39083,2,0,L|49:17,1,120,8|2,0:1|0:0,0:0:0:0:
3,23,39570,1,10,0:0:0:0:
42,110,39894,6,0,L|41:177,1,60,8|8,0:1|0:1,0:0:0:0:
41,218,40219,1,8,0:0:0:0:
64,311,40543,2,0,P|123:310|174:280,1,120,12|12,0:1|0:1,0:0:0:0:
261,321,41192,2,0,P|308:339|388:345,1,120,12|8,0:1|0:0,0:0:0:0:
413,314,41678,2,0,P|391:259|387:189,1,120,12|8,0:1|0:1,0:0:0:0:
381,150,42165,1,8,0:0:0:0:
421,80,42489,6,0,L|416:14,1,60,12|12,0:1|0:1,0:0:0:0:
224,17,43300,2,0,L|216:84,1,60,8|8,0:1|0:1,0:0:0:0:
210,124,43624,2,0,P|172:110|91:116,1,120,12|8,0:1|0:1,0:0:0:0:
52,139,44111,2,0,P|72:204|74:272,1,120,8|8,0:0|0:0,0:0:0:0:
49,347,44759,1,8,0:0:0:0:
142,325,45084,6,0,L|218:329,1,60,12|12,0:1|0:1,0:0:0:0:
384,270,45894,2,0,L|465:263,1,60,8|8,0:1|0:0,0:0:0:0:
491,272,46219,2,0,P|461:227|447:152,1,120,12|8,0:1|0:1,0:0:0:0:
466,119,46705,2,0,P|467:67|434:-4,1,120,8|8,0:0|0:0,0:0:0:0:
366,65,47354,1,8,0:0:0:0:
273,38,47678,6,0,L|146:36,1,120,12|0,0:1|0:0,0:0:0:0:
105,41,48165,2,0,P|136:89|161:165,1,120,8|8,0:0|0:1,0:0:0:0:
138,191,48651,1,8,0:0:0:0:
112,283,48975,6,0,P|176:269|241:278,1,120,12|8,0:1|0:1,0:0:0:0:
271,300,49462,2,0,L|398:296,1,120,8|8,0:0|0:1,0:0:0:0:
436,310,49948,1,8,0:0:0:0:
466,218,50273,6,0,L|457:74,1,120,12|8,0:1|0:1,0:0:0:0:
447,51,50759,2,0,P|383:84|318:98,1,120,8|8,0:0|0:1,0:0:0:0:
291,80,51246,1,8,0:0:0:0:
215,138,51570,6,0,L|78:134,1,120,8|8,0:0|0:1,0:0:0:0:
48,145,52057,2,0,P|61:197|66:285,1,120,8|8,0:0|0:0,0:0:0:0:
49,307,52543,1,8,0:1:0:0:
144,308,52867,6,0,B|289:285|289:285|337:290|387:326,1,240,12|8,0:1|0:1,0:0:0:0:
461,360,53840,2,0,P|482:314|491:227,1,120,8|8,0:0|0:0,0:0:0:0:
456,156,54489,1,8,0:0:0:0:
360,145,54813,1,8,0:0:0:0:
264,134,55138,1,8,0:0:0:0:
169,120,55462,6,0,L|87:110,1,60,12|12,0:1|0:1,0:0:0:0:
23,279,56273,2,0,L|90:274,1,60,8|8,0:1|0:0,0:0:0:0:
130,273,56597,2,0,P|174:296|263:287,1,120,12|8,0:1|0:1,0:0:0:0:
287,275,57084,1,8,0:0:0:0:
333,191,57408,2,0,P|328:141|341:46,1,120,8|8,0:0|0:0,0:0:0:0:
254,18,58057,6,0,P|226:33|126:44,1,120,12|8,0:1|0:0,0:0:0:0:
44,36,58705,2,0,P|64:94|64:168,1,120,8|8,0:1|0:0,0:0:0:0:
39,192,59192,2,0,P|29:235|34:326,1,120,0|0,0:0|0:0,0:0:0:0:
53,352,59678,1,8,0:0:0:0:
140,312,60003,1,8,0:1:0:0:
230,343,60327,1,8,0:0:0:0:
309,290,60651,6,0,P|341:282|436:286,1,120,8|8,0:1|0:0,0:0:0:0:
504,226,61300,2,0,P|482:180|464:96,1,120,8|8,0:1|0:0,0:0:0:0:
473,65,61786,2,0,P|426:80|337:86,1,120,0|2,0:0|0:0,0:0:0:0:
310,69,62273,1,10,0:0:0:0:
224,111,62597,1,12,0:1:0:0:
131,85,62921,1,8,0:0:0:0:
35,99,63246,6,0,P|50:145|54:223,1,120,12|8,0:1|0:0,0:0:0:0:
46,311,63894,2,0,P|116:286|176:288,1,120,8|8,0:1|0:0,0:0:0:0:
199,314,64381,2,0,L|339:309,1,120
362,290,64867,1,10,0:0:0:0:
317,205,65192,1,10,0:1:0:0:
370,125,65516,1,10,0:0:0:0:
357,29,65840,6,0,P|413:47|477:46,1,120,8|8,0:1|0:0,0:0:0:0:
507,136,66489,2,0,P|509:195|485:249,1,120,8|8,0:0|0:0,0:0:0:0:
429,328,67138,1,12,0:1:0:0:
348,278,67462,2,0,L|276:272,1,60,8|8,0:0|0:1,0:0:0:0:
241,282,67786,2,0,P|206:304|127:316,1,120,12|8,0:1|0:0,0:0:0:0:
39,283,68435,6,0,P|56:231|54:148,1,120,12|8,0:1|0:0,0:0:0:0:
43,71,69084,2,0,P|88:80|171:82,1,120,8|8,0:0|0:0,0:0:0:0:
203,58,69570,2,0,P|265:38|325:34,1,120,8|0,0:1|0:0,0:0:0:0:
366,45,70057,1,8,0:0:0:0:
457,81,70381,1,8,0:0:0:0:
414,166,70705,1,8,0:0:0:0:
447,256,71030,6,0,P|394:247|309:248,1,120,10|8,0:0|0:0,0:0:0:0:
238,212,71678,2,0,P|249:281|229:343,1,120,8|8,0:0|0:0,0:0:0:0:
206,366,72165,2,0,P|141:359|80:362,1,120,8|0,0:1|0:0,0:0:0:0:
40,373,72651,1,8,0:0:0:0:
11,281,72975,1,12,0:1:0:0:
11,281,73138,2,0,P|22:232|17:146,1,120,8|8,0:1|0:0,0:0:0:0:
68,166,73624,6,0,P|68:116|-18:17,2,180,12|8|8,0:1|0:0|0:0,0:0:0:0:
164,169,74921,2,0,P|176:113|268:21,2,180,8|8|0,0:1|0:0|0:0,0:0:0:0:
189,262,76219,6,0,P|261:247|327:245,1,120,12|8,0:1|0:1,0:0:0:0:
350,264,76705,1,8,0:0:0:0:
428,208,77030,1,8,0:0:0:0:
428,208,77192,2,0,P|417:164|425:79,1,120,12|8,0:1|0:1,0:0:0:0:
436,44,77678,1,8,0:0:0:0:
341,24,78003,1,8,0:0:0:0:
341,24,78165,2,0,L|265:27,1,60,8|8,0:1|0:0,0:0:0:0:
194,67,78651,1,8,0:0:0:0:
194,67,78813,6,0,P|127:52|58:52,1,120,12|8,0:1|0:1,0:0:0:0:
18,127,79462,2,0,P|41:181|55:252,1,120,8|8,0:0|0:0,0:0:0:0:
25,332,80111,1,12,0:1:0:0:
25,332,80273,1,12,0:1:0:0:
244,234,81084,5,8,0:0:0:0:
311,302,81408,1,4,0:0:0:0:
256,192,81732,12,0,86597,0:0:0:0:
