osu file format v14

[General]
AudioFilename: audio.mp3
AudioLeadIn: 0
PreviewTime: 57327
Countdown: 0
SampleSet: Soft
StackLeniency: 0.7
Mode: 0
LetterboxInBreaks: 0
WidescreenStoryboard: 0

[Editor]
Bookmarks: 976,6165,11354,16543,21732,26921,32111,33732,37300,42489,47678,52867,58057,67138,68435,73624,76219,81408,86597,89030
DistanceSpacing: 0.3
BeatDivisor: 4
GridSize: 32
TimelineZoom: 2

[Metadata]
Title:km/h (TV Size)
TitleUnicode:♡km/h (TV Size)
Artist:Ray
ArtistUnicode:Ray
Creator:Realazy
Version:Ayyri's Hard
Source:ろんぐらいだぁす!
Tags:opening op long riders! heart kilometer per hour kmh meg rock y0c1e elsa_valentine xlolicore- elsa valentine Kibbleru Trynna eiri- Ayyri Dashyy-
BeatmapID:1635156
BeatmapSetID:775282

[Difficulty]
HPDrainRate:5
CircleSize:3.7
OverallDifficulty:6
ApproachRate:7
SliderMultiplier:1.5
SliderTickRate:1

[Events]
//Background and Video events
0,0,"alo.jpg",0,0
//Break Periods
//Storyboard Layer 0 (Background)
//Storyboard Layer 1 (Fail)
//Storyboard Layer 2 (Pass)
//Storyboard Layer 3 (Foreground)
//Storyboard Sound Samples

[TimingPoints]
976,324.324324324324,4,2,1,40,1,0
976,-125,4,2,1,40,0,0
6165,-100,4,2,1,45,0,0
8759,-100,4,2,1,50,0,0
11030,-100,4,2,1,40,0,0
11354,-100,4,2,1,60,0,0
20759,-100,4,2,1,40,0,0
21732,-100,4,2,1,50,0,0
26921,-100,4,2,1,55,0,0
31786,-100,4,2,1,50,0,0
32111,-100,4,2,1,60,0,0
42489,-100,4,2,1,55,0,0
52867,-100,4,2,1,60,0,0
58057,-100,4,2,99,70,0,1
58381,-100,4,2,1,70,0,1
67138,-100,4,2,1,70,0,0
68111,-100,4,2,1,60,0,0
68435,-100,4,2,99,70,0,1
68759,-100,4,2,1,70,0,1
73624,-100,4,2,1,70,0,0
76705,-100,4,2,1,60,0,0
77192,-100,4,2,1,70,0,0
77678,-100,4,2,1,60,0,0
78003,-100,4,2,1,70,0,0
78651,-100,4,2,1,60,0,0
78813,-100,4,2,1,70,0,0
80273,-100,4,2,1,60,0,0
81084,-100,4,2,1,70,0,0
81327,-100,4,2,1,5,0,0
81408,-125,4,2,1,30,0,0
86597,-142.857142857143,4,2,1,20,0,0

[Colours]
Combo1 : 136,196,255
Combo2 : 255,128,128
Combo3 : 255,255,128

[HitObjects]
403,331,976,6,0,P|417:300|417:265,2,60,2|0|0,0:0|0:0|0:0,0:0:0:0:
338,287,1462,2,0,P|325:255|241:213,1,120,2|2,0:0|0:0,0:0:0:0:
176,208,1948,2,0,L|161:138,2,60,2|0|0,0:0|0:0|0:0,0:0:0:0:
129,270,2435,2,0,P|88:266|68:257,1,60,2|0,0:0|0:0,0:0:0:0:
10,209,2759,1,2,0:0:0:0:
73,153,2921,6,0,P|101:96|75:32,1,120,2|2,0:0|0:0,0:0:0:0:
12,91,3408,1,8,0:1:0:0:
85,44,3570,6,0,L|156:41,2,60,10|0|0,0:1|0:0|0:0,0:0:0:0:
12,91,4057,2,0,P|-16:148|10:212,1,120,10|2,0:1|0:0,0:0:0:0:
57,259,4543,1,2,0:0:0:0:
136,285,4705,2,0,P|143:329|141:346,1,60,8|8,0:1|0:1,0:0:0:0:
216,381,5030,2,0,P|242:344|331:325,1,120,2|0,0:0|0:0,0:0:0:0:
386,340,5516,5,8,0:0:0:0:
459,313,5678,1,8,0:3:0:0:
493,243,5840,1,8,0:1:0:0:
457,172,6003,1,8,0:1:0:0:
380,186,6165,6,0,L|229:179,1,150,12|0,0:1|0:0,0:0:0:0:
173,129,6651,1,8,0:1:0:0:
131,191,6813,2,0,P|141:239|135:266,1,75,8|0,0:0|0:0,0:0:0:0:
83,318,7138,1,0,0:0:0:0:
31,263,7300,1,8,0:2:0:0:
31,263,7381,1,8,0:2:0:0:
31,263,7462,6,0,L|14:108,1,150,12|8,0:1|0:1,0:0:0:0:
55,50,7948,1,0,0:0:0:0:
121,85,8111,2,0,P|171:83|202:70,1,75,8|8,0:0|0:1,0:0:0:0:
247,127,8436,2,0,P|297:129|328:142,1,75,8|0,0:0|0:0,0:0:0:0:
376,187,8759,6,0,P|395:266|345:330,1,150,12|8,0:1|0:1,0:0:0:0:
285,305,9246,1,8,0:1:0:0:
230,356,9408,2,0,P|193:363|141:353,2,75,8|8|8,0:1|0:1|0:1,0:0:0:0:
285,305,9894,1,8,0:1:0:0:
279,229,10057,6,0,L|263:156,1,75,8|8,0:0|0:0,0:0:0:0:
319,106,10381,2,0,L|303:33,1,75,8|8,0:0|0:0,0:0:0:0:
228,26,10705,1,8,0:0:0:0:
228,26,10867,1,8,0:0:0:0:
168,72,11030,6,0,L|47:84,1,112.5,2|0,0:0|0:0,0:0:0:0:
30,109,11354,6,0,P|32:181|94:217,1,150,12|8,0:1|0:0,0:0:0:0:
161,183,11840,1,0,0:0:0:0:
209,240,12003,2,0,L|193:313,2,75,8|8|8,0:1|0:1|0:0,0:0:0:0:
253,179,12489,1,0,0:0:0:0:
315,220,12651,6,0,P|328:262|351:281,1,75,10|0,0:1|0:0,0:0:0:0:
423,301,12975,2,0,P|465:288|484:265,1,75,10|0,0:0|0:0,0:0:0:0:
506,191,13300,2,0,P|493:149|470:130,1,75,10|8,0:1|0:1,0:0:0:0:
398,110,13624,2,0,P|356:123|337:146,1,75,10|0,0:0|0:0,0:0:0:0:
264,165,13948,6,0,P|194:187|131:150,1,150,10|8,0:1|0:0,0:0:0:0:
116,76,14435,1,0,0:3:0:0:
50,111,14597,2,0,L|31:264,1,150,10|8,0:1|0:0,0:0:0:0:
69,324,15084,1,0,0:0:0:0:
136,277,15246,6,0,P|131:241|146:206,2,75,10|2|10,0:1|0:0|0:0,0:0:0:0:
203,308,15732,1,2,0:0:0:0:
268,271,15894,1,8,0:1:0:0:
305,205,16057,1,8,0:0:0:0:
305,205,16138,1,8,0:0:0:0:
305,205,16219,2,0,L|293:161,2,37.5,8|0|8,0:0|0:0|0:1,0:0:0:0:
397,205,16543,6,0,L|444:347,1,150,14|8,0:1|0:0,0:0:0:0:
510,311,17030,1,0,0:0:0:0:
491,238,17192,2,0,L|464:157,2,75,8|8|8,0:1|0:1|0:0,0:0:0:0:
510,311,17678,1,0,0:0:0:0:
444,347,17840,6,0,P|374:320|300:329,1,150,10|8,0:1|0:0,0:0:0:0:
237,370,18327,1,0,0:0:0:0:
209,300,18489,2,0,P|162:301|126:315,1,75,8|8,0:1|0:1,0:0:0:0:
76,355,18813,1,8,0:0:0:0:
17,307,18975,1,0,0:0:0:0:
17,307,19057,1,8,0:0:0:0:
17,307,19138,6,0,P|21:268|6:227,1,75,10|2,0:1|0:0,0:0:0:0:
46,168,19462,1,10,0:1:0:0:
46,168,19624,1,10,0:1:0:0:
22,88,19786,2,0,L|102:83,1,75,8|8,0:0|0:0,0:0:0:0:
117,67,20030,1,0,0:0:0:0:
117,67,20111,2,0,L|122:147,1,75,8|8,0:1|0:0,0:0:0:0:
287,222,20597,5,0,0:0:0:0:
333,163,20759,2,0,L|328:138,3,25,2|2|2|0,0:0|0:0|0:0|0:0,0:0:0:0:
414,179,21084,1,2,0:3:0:0:
414,179,21246,1,2,0:3:0:0:
438,251,21408,2,0,P|422:289|460:353,1,112.5,0|0,0:0|0:0,0:0:0:0:
476,377,21732,6,0,L|395:375,1,75,12|0,0:1|0:0,0:0:0:0:
340,330,22057,2,0,L|326:180,2,150,8|8|8,0:1|0:1|0:1,0:0:0:0:
274,364,22867,1,0,0:0:0:0:
198,362,23030,5,8,0:1:0:0:
134,322,23192,2,0,P|116:289|116:251,1,75,0|8,0:0|0:1,0:0:0:0:
152,186,23516,2,0,P|222:169|247:101,1,150,0|0,0:0|0:1,0:0:0:0:
172,113,24003,1,8,0:1:0:0:
9,305,24327,6,0,L|86:299,1,75,12|0,0:1|0:0,0:0:0:0:
158,306,24651,2,0,P|185:336|224:349,1,75,8|0,0:1|0:0,0:0:0:0:
290,333,24975,2,0,P|320:306|301:198,1,150,8|8,0:1|0:1,0:0:0:0:
254,154,25462,1,0,0:0:0:0:
195,201,25624,6,0,P|140:210|117:204,2,75,8|0|8,0:1|0:0|0:1,0:0:0:0:
152,132,26111,2,0,P|155:60|93:24,1,150,0|0,0:0|0:0,0:0:0:0:
31,79,26597,2,0,P|31:129|88:171,1,112.5,8|0,0:0|0:0,0:0:0:0:
97,193,26921,6,0,L|109:267,1,75,12|0,0:1|0:0,0:0:0:0:
165,317,27246,1,0,0:0:0:0:
199,250,27408,2,0,L|187:176,2,75,8|0|0,0:0|0:0|0:0,0:0:0:0:
165,317,27894,1,8,0:0:0:0:
230,354,28057,1,0,0:0:0:0:
289,309,28219,6,0,L|277:235,1,75,8|0,0:0|0:0,0:0:0:0:
306,166,28543,1,0,0:0:0:0:
332,96,28705,2,0,L|320:22,2,75,8|0|0,0:0|0:0|0:0,0:0:0:0:
306,166,29192,1,8,0:0:0:0:
259,224,29354,1,0,0:0:0:0:
195,184,29516,6,0,L|121:172,1,75,12|0,0:1|0:0,0:0:0:0:
82,107,29840,2,0,L|8:95,1,75,8|8,0:1|0:1,0:0:0:0:
4,19,30165,5,8,0:0:0:0:
4,19,30327,1,8,0:0:0:0:
81,7,30489,1,8,0:0:0:0:
81,7,30651,1,8,0:0:0:0:
153,34,30813,5,12,0:1:0:0:
230,22,30975,1,12,0:1:0:0:
429,268,31624,5,2,0:0:0:0:
429,268,31705,1,2,0:0:0:0:
429,268,31786,2,0,P|461:209|431:148,1,112.5,12|0,0:0|0:0,0:0:0:0:
414,153,32111,6,0,L|328:147,1,75,8|0,0:1|0:0,0:0:0:0:
272,181,32435,2,0,P|303:116|271:50,1,150,8|8,0:0|0:1,0:0:0:0:
198,36,32921,1,0,0:0:0:0:
151,94,33084,2,0,L|170:187,1,75,8|0,0:0|0:0,0:0:0:0:
183,240,33408,6,0,P|161:267|116:278,2,75,8|8|8,0:1|0:1|0:0,0:0:0:0:
247,201,33894,2,0,P|304:156|375:170,1,150,8|8,0:1|0:1,0:0:0:0:
427,225,34381,2,0,L|389:297,1,75,8|0,0:0|0:0,0:0:0:0:
362,360,34705,2,0,L|290:322,1,75,8|0,0:1|0:0,0:0:0:0:
224,300,35030,6,0,P|185:317|160:345,1,75,8|0,0:0|0:0,0:0:0:0:
93,369,35354,2,0,P|54:352|29:324,2,75,8|0|8,0:1|0:0|0:0,0:0:0:0:
163,340,35840,1,0,0:0:0:0:
168,264,36003,5,8,0:1:0:0:
126,200,36165,2,0,P|139:166|168:143,1,75,8|8,0:1|0:0,0:0:0:0:
243,162,36489,2,0,P|306:142|294:64,1,150,8|8,0:1|0:1,0:0:0:0:
263,3,36975,1,8,0:0:0:0:
347,7,37138,1,8,0:0:0:0:
347,7,37219,1,8,0:0:0:0:
347,7,37300,6,0,L|495:27,1,150,8|10,0:1|0:0,0:0:0:0:
506,102,37786,2,0,L|468:180,1,75,8|0,0:1|0:0,0:0:0:0:
397,170,38111,2,0,L|359:248,2,75,8|8|0,0:1|0:0|0:0,0:0:0:0:
473,169,38597,1,8,0:1:0:0:
472,243,38759,2,0,L|434:321,1,75,2|8,0:0|0:0,0:0:0:0:
365,324,39084,6,0,L|202:320,1,150,2|2,0:0|0:0,0:0:0:0:
145,293,39570,1,10,0:0:0:0:
151,367,39732,1,2,0:0:0:0:
82,336,39894,1,8,0:1:0:0:
29,207,40219,6,0,P|37:177|20:129,1,75,12|0,0:1|0:0,0:0:0:0:
74,79,40543,2,0,P|104:87|152:70,1,75,12|0,0:1|0:0,0:0:0:0:
215,49,40867,1,8,0:0:0:0:
263,125,41030,1,8,0:0:0:0:
263,125,41111,1,8,0:0:0:0:
263,125,41192,6,0,P|294:144|387:90,1,150,12|8,0:1|0:0,0:0:0:0:
458,135,41678,2,0,P|439:166|493:259,1,150,12|8,0:1|0:1,0:0:0:0:
432,320,42165,2,0,P|401:301|354:301,1,75,8|0,0:0|0:0,0:0:0:0:
295,331,42489,5,12,0:1:0:0:
295,331,42651,1,12,0:1:0:0:
227,285,42813,6,0,L|77:279,1,150,0|10,0:0|0:1,0:0:0:0:
38,214,43300,1,8,0:1:0:0:
73,148,43462,1,8,0:1:0:0:
144,169,43624,6,0,L|232:173,1,75,12|0,0:1|0:0,0:0:0:0:
284,136,43948,1,8,0:1:0:0:
331,194,44111,2,0,L|327:282,1,75,8|8,0:0|0:1,0:0:0:0:
370,330,44435,2,0,P|421:324|442:331,1,75,8|8,0:0|0:1,0:0:0:0:
485,269,44759,2,0,P|479:218|486:197,1,75,8|8,0:0|0:1,0:0:0:0:
508,124,45084,5,12,0:1:0:0:
508,124,45246,1,12,0:1:0:0:
449,71,45408,6,0,L|357:68,1,75,2|2,0:0|0:1,0:0:0:0:
343,47,45651,1,8,0:3:0:0:
343,47,45732,2,0,L|346:139,1,75,8|8,0:3|0:1,0:0:0:0:
298,180,46057,1,8,0:0:0:0:
236,137,46219,6,0,P|190:135|158:149,1,75,12|0,0:1|0:0,0:0:0:0:
108,195,46543,1,8,0:1:0:0:
76,262,46705,2,0,L|102:350,1,75,8|8,0:0|0:1,0:0:0:0:
164,367,47030,1,8,0:0:0:0:
215,312,47192,1,8,0:0:0:0:
215,312,47273,1,8,0:0:0:0:
215,312,47354,2,0,L|202:264,2,37.5,8|0|0,0:0|0:0|0:0,0:0:0:0:
282,344,47678,6,0,L|360:336,1,75,14|0,0:1|0:0,0:0:0:0:
390,269,48003,2,0,L|468:277,2,75,0|8|10,0:0|0:0|0:1,0:0:0:0:
337,215,48489,1,8,0:1:0:0:
284,161,48651,2,0,L|206:169,1,75,8|0,0:0|0:0,0:0:0:0:
148,125,48975,6,0,P|131:92|136:49,1,75,14|0,0:1|0:0,0:0:0:0:
197,14,49300,2,0,L|275:6,1,75,8|8,0:1|0:0,0:0:0:0:
323,59,49624,2,0,L|401:67,2,75,10|8|8,0:1|0:1|0:0,0:0:0:0:
260,101,50111,1,8,0:1:0:0:
204,151,50273,6,0,L|126:143,1,75,14|0,0:1|0:0,0:0:0:0:
74,194,50597,2,0,P|74:236|93:267,1,75,8|8,0:1|0:0,0:0:0:0:
147,312,50921,2,0,P|189:319|223:306,1,75,10|8,0:1|0:1,0:0:0:0:
294,308,51246,2,0,P|329:319|366:312,1,75,8|0,0:0|0:0,0:0:0:0:
422,263,51570,6,0,P|444:192|412:126,1,150,8|8,0:0|0:1,0:0:0:0:
340,103,52057,2,0,P|288:155|215:150,1,150,8|8,0:0|0:0,0:0:0:0:
156,197,52543,2,0,L|161:238,2,37.5,8|8|8,0:1|0:1|0:0,0:0:0:0:
88,165,52867,6,0,P|45:144|63:47,1,150,12|8,0:1|0:1,0:0:0:0:
123,27,53354,1,8,0:1:0:0:
190,59,53516,6,0,L|272:56,1,75,8|8,0:1|0:1,0:0:0:0:
327,97,53840,2,0,L|409:94,1,75,8|8,0:0|0:1,0:0:0:0:
469,127,54165,6,0,L|472:209,1,75,8|8,0:0|0:0,0:0:0:0:
429,263,54489,2,0,L|432:345,1,75,8|8,0:0|0:0,0:0:0:0:
365,373,54813,5,8,0:0:0:0:
365,373,54975,1,8,0:0:0:0:
309,311,55138,1,8,0:0:0:0:
309,311,55300,1,8,0:0:0:0:
236,351,55462,5,12,0:1:0:0:
168,316,55624,1,12,0:1:0:0:
365,74,56273,5,8,0:1:0:0:
409,138,56435,1,8,0:0:0:0:
369,205,56597,2,0,P|334:215|255:138,1,150,12|8,0:1|0:1,0:0:0:0:
182,130,57084,2,0,L|166:207,1,75,8|0,0:0|0:0,0:0:0:0:
137,272,57408,2,0,L|95:272,2,37.5,8|8|8,0:0|0:0|0:0,0:0:0:0:
169,339,57732,2,0,L|285:328,1,112.5,8|0,0:0|0:0,0:0:0:0:
304,298,58057,6,0,P|361:267|434:308,1,150,12|8,0:1|0:0,0:0:0:0:
493,368,58543,1,0,0:0:0:0:
506,279,58705,2,0,L|503:196,1,75,8|8,0:1|0:1,0:0:0:0:
465,121,59030,1,8,0:0:0:0:
406,189,59192,1,0,0:0:0:0:
337,130,59354,6,0,P|264:124|208:180,1,150,8|8,0:1|0:0,0:0:0:0:
161,248,59840,1,0,0:0:0:0:
79,208,60003,2,0,L|50:120,1,75,8|0,0:1|0:0,0:0:0:0:
124,78,60327,2,0,L|153:-10,1,75,8|0,0:0|0:0,0:0:0:0:
225,51,60651,6,0,P|298:75|378:35,1,150,8|8,0:1|0:0,0:0:0:0:
440,2,61138,1,0,0:0:0:0:
482,81,61300,2,0,L|468:166,1,75,8|8,0:1|0:1,0:0:0:0:
479,244,61624,1,8,0:0:0:0:
398,284,61786,1,0,0:0:0:0:
326,229,61948,6,0,P|279:214|254:180,2,75,10|0|10,0:1|0:0|0:0,0:0:0:0:
381,157,62435,1,0,0:0:0:0:
323,87,62597,1,12,0:1:0:0:
401,43,62759,1,8,0:1:0:0:
401,43,62840,1,8,0:0:0:0:
401,43,62921,2,0,L|397:2,2,37.5,8|0|8,0:0|0:0|0:0,0:0:0:0:
467,103,63246,6,0,L|462:257,1,150,12|8,0:1|0:0,0:0:0:0:
404,321,63732,1,0,0:0:0:0:
329,270,63894,2,0,P|295:299|281:348,1,75,8|8,0:1|0:1,0:0:0:0:
202,367,64219,1,8,0:0:0:0:
160,287,64381,6,0,L|168:194,1,75,0|10,0:0|0:1,0:0:0:0:
142,125,64705,1,0,0:0:0:0:
207,62,64867,2,0,L|366:58,1,150,10|0,0:0|0:0,0:0:0:0:
447,57,65354,1,10,0:1:0:0:
394,130,65516,2,0,P|390:193|414:226,1,75,10|0,0:0|0:0,0:0:0:0:
421,287,65840,6,0,L|266:281,1,150,8|8,0:1|0:0,0:0:0:0:
222,205,66327,2,0,L|205:113,1,75,8|8,0:1|0:0,0:0:0:0:
123,102,66651,2,0,L|106:10,1,75,8|8,0:1|0:0,0:0:0:0:
19,19,66975,1,8,0:1:0:0:
0,106,67138,6,0,P|-2:157|78:217,1,150,12|8,0:1|0:0,0:0:0:0:
158,211,67624,1,8,0:1:0:0:
180,298,67786,2,0,L|224:390,1,75,12|8,0:1|0:1,0:0:0:0:
299,365,68111,6,0,L|352:258,1,112.5,8|0,0:0|0:0,0:0:0:0:
373,226,68435,6,0,P|336:161|379:99,1,150,12|8,0:1|0:0,0:0:0:0:
442,47,68921,1,8,0:1:0:0:
356,16,69084,2,0,P|316:11|274:28,1,75,8|8,0:0|0:1,0:0:0:0:
205,66,69408,1,8,0:0:0:0:
178,152,69570,1,8,0:1:0:0:
120,82,69732,6,0,P|46:77|-4:144,1,150,8|8,0:0|0:0,0:0:0:0:
78,159,70219,1,8,0:1:0:0:
57,246,70381,2,0,L|85:338,1,75,8|8,0:0|0:1,0:0:0:0:
160,354,70705,2,0,L|188:262,1,75,8|8,0:0|0:1,0:0:0:0:
228,204,71030,6,0,P|289:202|340:295,1,150,10|8,0:0|0:0,0:0:0:0:
317,353,71516,1,8,0:1:0:0:
401,382,71678,2,0,L|498:372,1,75,8|8,0:0|0:1,0:0:0:0:
510,290,72003,1,8,0:0:0:0:
431,245,72165,1,8,0:1:0:0:
497,184,72327,6,0,L|509:25,1,150,8|8,0:0|0:0,0:0:0:0:
423,4,72813,1,8,0:1:0:0:
379,82,72975,1,12,0:1:0:0:
307,26,73138,1,8,0:1:0:0:
307,26,73219,1,8,0:0:0:0:
307,26,73300,2,0,L|295:90,2,37.5,8|0|8,0:0|0:0|0:0,0:0:0:0:
218,12,73624,6,0,L|124:17,2,75,12|0|8,0:1|0:0|0:1,0:0:0:0:
221,89,74111,2,0,L|127:94,1,75,8|0,0:0|0:0,0:0:0:0:
103,154,74435,1,0,0:0:0:0:
137,220,74597,1,8,0:0:0:0:
209,196,74759,1,0,0:0:0:0:
209,196,74921,6,0,L|303:191,1,75,8|0,0:1|0:0,0:0:0:0:
335,247,75246,2,0,L|429:242,1,75,8|0,0:1|0:0,0:0:0:0:
470,198,75570,2,0,P|486:138|458:83,2,112.5,8|8|8,0:1|0:1|0:1,0:0:0:0:
409,243,76219,6,0,P|393:303|451:375,1,150,12|8,0:1|0:1,0:0:0:0:
511,345,76705,2,0,P|527:285|469:213,1,150,8|8,0:0|0:0,0:0:0:0:
443,150,77192,6,0,L|296:101,1,150,12|8,0:1|0:1,0:0:0:0:
211,102,77678,2,0,L|69:150,1,150,8|8,0:0|0:0,0:0:0:0:
45,227,78165,1,8,0:1:0:0:
44,226,78327,2,0,P|72:251|84:286,1,75,8|8,0:0|0:1,0:0:0:0:
70,361,78651,1,8,0:0:0:0:
146,348,78813,6,0,P|199:349|250:266,1,150,12|8,0:1|0:1,0:0:0:0:
230,202,79300,1,8,0:1:0:0:
299,173,79462,2,0,L|389:166,1,75,8|8,0:0|0:0,0:0:0:0:
408,100,79786,2,0,L|498:93,1,75,8|8,0:0|0:0,0:0:0:0:
508,23,80111,5,12,0:1:0:0:
508,23,80273,1,12,0:1:0:0:
245,349,81084,6,0,L|128:358,1,112.5,8|0,0:0|0:0,0:0:0:0:
95,328,81408,6,0,P|81:297|81:262,2,60,6|0|0,0:0|0:0|0:0,0:0:0:0:
160,284,81894,2,0,P|173:252|257:210,1,120,2|2,0:0|0:0,0:0:0:0:
322,205,82380,2,0,L|337:135,2,60,2|0|2,0:0|0:0|0:0,0:0:0:0:
369,267,82867,2,0,P|410:263|430:254,1,60,2|0,0:0|0:0,0:0:0:0:
488,206,83191,1,2,0:0:0:0:
425,150,83353,6,0,P|397:93|423:29,1,120,2|2,0:0|0:0,0:0:0:0:
486,88,83840,1,0,0:0:0:0:
413,41,84002,6,0,L|342:38,2,60,2|0|0,0:0|0:0|0:0,0:0:0:0:
486,88,84489,2,0,P|514:145|488:209,1,120,2|2,0:0|0:0,0:0:0:0:
441,256,84975,1,2,0:0:0:0:
362,282,85137,2,0,P|355:326|357:343,1,60,0|0,0:0|0:0,0:0:0:0:
282,378,85462,2,0,P|256:341|167:322,1,120,2|2,0:0|0:0,0:0:0:0:
105,334,85948,5,2,0:0:0:0:
37,304,86110,1,0,0:0:0:0:
12,233,86272,1,2,0:0:0:0:
45,164,86435,1,2,0:0:0:0:
119,175,86597,6,0,L|195:171,1,52.4999983978272,2|0,0:0|0:0,0:0:0:0:
244,139,86921,1,2,0:0:0:0:
244,139,87084,6,0,L|247:215,1,52.4999983978272,2|0,0:0|0:0,0:0:0:0:
280,264,87407,1,2,0:0:0:0:
280,264,87570,6,0,L|203:267,1,52.4999983978272,2|0,0:0|0:0,0:0:0:0:
154,300,87894,1,2,0:0:0:0:
154,300,88057,6,0,L|150:223,1,52.4999983978272,2|0,0:0|0:0,0:0:0:0:
128,171,88381,1,2,0:0:0:0:
128,171,88543,5,2,0:0:0:0:
136,93,88705,1,2,0:0:0:0:
214,101,88867,1,2,0:0:0:0:
206,179,89030,1,2,0:0:0:0:
