osu file format v14

[General]
AudioFilename: audio.mp3
AudioLeadIn: 0
PreviewTime: 57327
Countdown: 0
SampleSet: Normal
StackLeniency: 0.7
Mode: 1
LetterboxInBreaks: 0
WidescreenStoryboard: 1

[Editor]
DistanceSpacing: 0.8
BeatDivisor: 4
GridSize: 16
TimelineZoom: 2

[Metadata]
Title:km/h (TV Size)
TitleUnicode:km/h (TV Size)
Artist:Ray
ArtistUnicode:Ray
Creator:Player-
Version:High Speed (Simple SV)
Source:ろんぐらいだぁす!
Tags:long riders op opening kilometer kilometre per hour
BeatmapID:1790092
BeatmapSetID:856621

[Difficulty]
HPDrainRate:6
CircleSize:2
OverallDifficulty:6
ApproachRate:10
SliderMultiplier:1.3999999666214
SliderTickRate:1

[Events]
//Background and Video events
0,0,"image.jpg",0,0
//Break Periods
//Storyboard Layer 0 (Background)
//Storyboard Layer 1 (Fail)
//Storyboard Layer 2 (Pass)
//Storyboard Layer 3 (Foreground)
//Storyboard Sound Samples

[TimingPoints]
976,324.324324324324,4,1,0,65,1,0
3570,-100,4,1,0,80,0,0
11030,-100,4,1,0,100,0,0
11354,-100,4,1,0,80,0,0
26921,-90.9090909090909,4,1,0,80,0,0
31624,-83.3333333333333,4,1,0,80,0,0
31786,-76.9230769230769,4,1,0,100,0,0
32111,-100,4,1,0,80,0,0
40543,-86.9565217391304,4,1,0,80,0,0
43138,-100,4,1,0,80,0,0
57732,-100,4,1,0,100,0,0
58057,-86.9565217391304,4,1,0,90,0,1
81084,-86.9565217391304,4,1,0,100,0,1
81408,-100,4,1,0,65,0,0
84003,-111.111111111111,4,1,0,65,0,0
86597,-117.647058823529,4,1,0,50,0,0

[HitObjects]
192,160,976,5,8,0:0:0:0:
224,96,1138,1,0,0:0:0:0:
176,112,1300,1,0,0:0:0:0:
112,112,1462,1,8,0:0:0:0:
416,64,1786,1,0,0:0:0:0:
288,96,1948,1,8,0:0:0:0:
208,160,2111,1,0,0:0:0:0:
288,96,2273,1,0,0:0:0:0:
160,112,2435,1,8,0:0:0:0:
96,192,2759,1,0,0:0:0:0:
192,192,2921,1,8,0:0:0:0:
192,112,3246,1,8,0:0:0:0:
128,112,3408,1,0,0:0:0:0:
240,96,3570,1,8,0:0:0:0:
240,160,3732,1,0,0:0:0:0:
176,96,3894,1,0,0:0:0:0:
80,112,4057,1,8,0:0:0:0:
192,96,4381,1,0,0:0:0:0:
128,128,4543,1,8,0:0:0:0:
128,112,4705,1,0,0:0:0:0:
80,112,4867,1,0,0:0:0:0:
64,240,5030,1,8,0:0:0:0:
192,128,5354,1,0,0:0:0:0:
240,96,5516,1,8,0:0:0:0:
192,96,5678,1,0,0:0:0:0:
160,176,5840,1,0,0:0:0:0:
304,208,6003,1,0,0:0:0:0:
208,208,6165,1,8,0:0:0:0:
272,160,6489,1,8,0:0:0:0:
176,144,6651,1,0,0:0:0:0:
176,48,6813,1,8,0:0:0:0:
240,112,7138,1,8,0:0:0:0:
176,112,7300,1,0,0:0:0:0:
80,128,7381,1,0,0:0:0:0:
96,96,7462,1,8,0:0:0:0:
320,96,7624,1,8,0:0:0:0:
192,96,7786,1,0,0:0:0:0:
160,80,7948,1,0,0:0:0:0:
336,192,8111,1,8,0:0:0:0:
336,176,8273,1,0,0:0:0:0:
240,144,8435,1,8,0:0:0:0:
192,96,8759,1,8,0:0:0:0:
272,128,8921,1,0,0:0:0:0:
224,80,9084,1,0,0:0:0:0:
144,80,9246,1,8,0:0:0:0:
64,80,9408,1,0,0:0:0:0:
176,144,9570,1,0,0:0:0:0:
80,144,9732,1,0,0:0:0:0:
64,144,9894,1,0,0:0:0:0:
160,96,10057,1,8,0:0:0:0:
224,80,10219,1,0,0:0:0:0:
176,48,10300,1,0,0:0:0:0:
80,80,10381,1,8,0:0:0:0:
64,48,10543,1,0,0:0:0:0:
112,48,10705,1,8,0:0:0:0:
208,128,10867,1,8,0:0:0:0:
160,128,11030,1,4,0:0:0:0:
160,80,11354,1,8,0:0:0:0:
208,144,11516,1,0,0:0:0:0:
192,112,11678,1,8,0:0:0:0:
288,64,11840,1,8,0:0:0:0:
224,80,11921,1,8,0:0:0:0:
128,80,12003,1,0,0:0:0:0:
352,112,12165,1,0,0:0:0:0:
256,128,12327,1,8,0:0:0:0:
176,80,12651,1,8,0:0:0:0:
304,160,12813,1,0,0:0:0:0:
336,160,12975,1,8,0:0:0:0:
256,64,13300,1,0,0:0:0:0:
192,64,13462,1,0,0:0:0:0:
160,64,13624,1,8,0:0:0:0:
96,160,13948,1,8,0:0:0:0:
288,160,14273,1,8,0:0:0:0:
288,256,14435,1,8,0:0:0:0:
192,176,14597,1,0,0:0:0:0:
112,112,14759,1,0,0:0:0:0:
192,112,14921,1,8,0:0:0:0:
320,160,15084,1,0,0:0:0:0:
272,144,15165,1,0,0:0:0:0:
272,96,15246,1,0,0:0:0:0:
128,80,15408,1,0,0:0:0:0:
192,48,15570,1,8,0:0:0:0:
192,128,15732,1,0,0:0:0:0:
192,144,16057,1,8,0:0:0:0:
128,176,16138,1,8,0:0:0:0:
48,208,16219,1,0,0:0:0:0:
80,288,16300,1,0,0:0:0:0:
160,288,16381,1,8,0:0:0:0:
192,192,16543,1,4,0:0:0:0:
224,144,16867,1,8,0:0:0:0:
144,112,17030,1,0,0:0:0:0:
112,64,17192,1,0,0:0:0:0:
160,96,17516,1,8,0:0:0:0:
256,96,17678,1,0,0:0:0:0:
192,48,17840,1,8,0:0:0:0:
96,144,18165,1,8,0:0:0:0:
176,144,18327,1,8,0:0:0:0:
128,112,18489,1,0,0:0:0:0:
224,64,18651,1,0,0:0:0:0:
160,64,18813,1,8,0:0:0:0:
240,112,18975,1,0,0:0:0:0:
192,96,19057,1,0,0:0:0:0:
288,176,19138,1,8,0:0:0:0:
240,160,19300,1,0,0:0:0:0:
160,144,19462,1,8,0:0:0:0:
80,96,19624,1,8,0:0:0:0:
144,64,19786,1,0,0:0:0:0:
240,48,19948,1,0,0:0:0:0:
176,80,20030,1,0,0:0:0:0:
128,112,20111,1,8,0:0:0:0:
112,224,20273,1,0,0:0:0:0:
288,112,20759,1,8,0:0:0:0:
256,192,20813,1,8,0:0:0:0:
304,192,20867,1,8,0:0:0:0:
176,176,20921,1,0,0:0:0:0:
224,96,21084,1,8,0:0:0:0:
144,96,21246,1,8,0:0:0:0:
112,96,21408,1,0,0:0:0:0:
224,80,21732,1,12,0:0:0:0:
176,160,22057,1,8,0:0:0:0:
256,128,22219,1,0,0:0:0:0:
160,80,22381,1,8,0:0:0:0:
96,96,22705,1,8,0:0:0:0:
48,80,22867,1,0,0:0:0:0:
112,48,23030,1,8,0:0:0:0:
160,48,23111,1,8,0:0:0:0:
112,80,23192,1,0,0:0:0:0:
160,96,23354,1,0,0:0:0:0:
224,64,23516,1,8,0:0:0:0:
256,128,23597,1,0,0:0:0:0:
176,96,23678,1,0,0:0:0:0:
208,112,23840,1,0,0:0:0:0:
144,128,24003,1,8,0:0:0:0:
160,128,24327,1,4,0:0:0:0:
224,128,24651,1,8,0:0:0:0:
160,80,24813,1,0,0:0:0:0:
96,112,24975,1,8,0:0:0:0:
304,224,25300,1,8,0:0:0:0:
176,144,25462,1,8,0:0:0:0:
160,80,25624,1,8,0:0:0:0:
112,80,25705,1,0,0:0:0:0:
208,96,25786,1,0,0:0:0:0:
176,144,25948,1,0,0:0:0:0:
368,144,26111,1,8,0:0:0:0:
272,144,26273,1,0,0:0:0:0:
256,144,26435,1,0,0:0:0:0:
176,112,26597,1,8,0:0:0:0:
192,112,26759,1,0,0:0:0:0:
224,64,26921,1,12,0:0:0:0:
160,176,27246,1,8,0:0:0:0:
144,128,27408,1,8,0:0:0:0:
96,128,27570,1,0,0:0:0:0:
32,176,27651,1,0,0:0:0:0:
64,192,27732,1,0,0:0:0:0:
224,48,27894,1,8,0:0:0:0:
144,80,28057,1,8,0:0:0:0:
192,96,28219,1,0,0:0:0:0:
160,112,28381,1,0,0:0:0:0:
400,96,28462,1,8,0:0:0:0:
256,112,28543,1,0,0:0:0:0:
240,32,28705,1,8,0:0:0:0:
272,272,28786,1,8,0:0:0:0:
96,112,28867,1,0,0:0:0:0:
144,96,29030,1,0,0:0:0:0:
192,80,29192,1,8,0:0:0:0:
256,128,29354,1,8,0:0:0:0:
224,96,29516,1,4,0:0:0:0:
208,224,29678,1,8,0:0:0:0:
176,160,29759,1,0,0:0:0:0:
96,128,29840,1,8,0:0:0:0:
112,64,29921,1,8,0:0:0:0:
176,48,30003,1,0,0:0:0:0:
224,80,30084,1,0,0:0:0:0:
288,64,30165,1,8,0:0:0:0:
160,96,30327,1,0,0:0:0:0:
256,64,30489,1,8,0:0:0:0:
208,112,30651,1,8,0:0:0:0:
96,128,30813,1,0,0:0:0:0:
144,160,31138,1,0,0:0:0:0:
128,128,31300,1,8,0:0:0:0:
176,96,31624,1,0,0:0:0:0:
208,64,31786,1,12,0:0:0:0:
192,160,32111,1,0,0:0:0:0:
256,80,32273,1,0,0:0:0:0:
304,80,32435,1,8,0:0:0:0:
160,80,32759,1,8,0:0:0:0:
176,144,32921,1,0,0:0:0:0:
96,96,33083,1,8,0:0:0:0:
48,80,33245,1,0,0:0:0:0:
112,48,33408,1,8,0:0:0:0:
160,48,33489,1,8,0:0:0:0:
112,80,33570,1,0,0:0:0:0:
160,96,33732,1,0,0:0:0:0:
224,64,33894,1,8,0:0:0:0:
256,128,33975,1,0,0:0:0:0:
176,96,34056,1,0,0:0:0:0:
208,112,34218,1,0,0:0:0:0:
144,128,34381,1,8,0:0:0:0:
128,80,34543,1,8,0:0:0:0:
160,128,34705,1,0,0:0:0:0:
224,128,35029,1,8,0:0:0:0:
160,80,35191,1,0,0:0:0:0:
96,112,35353,1,8,0:0:0:0:
240,64,35516,1,0,0:0:0:0:
304,224,35678,1,8,0:0:0:0:
176,144,35840,1,8,0:0:0:0:
160,80,36002,1,8,0:0:0:0:
112,80,36083,1,0,0:0:0:0:
208,96,36164,1,0,0:0:0:0:
176,144,36326,1,0,0:0:0:0:
368,144,36489,1,8,0:0:0:0:
224,80,36651,1,0,0:0:0:0:
160,64,36813,1,0,0:0:0:0:
176,112,36975,1,8,0:0:0:0:
192,112,37137,1,0,0:0:0:0:
288,80,37219,1,0,0:0:0:0:
224,64,37299,1,8,0:0:0:0:
96,96,37462,1,8,0:0:0:0:
160,64,37543,1,0,0:0:0:0:
160,176,37624,1,8,0:0:0:0:
144,128,37786,1,8,0:0:0:0:
96,128,37948,1,0,0:0:0:0:
64,192,38110,1,0,0:0:0:0:
224,48,38272,1,8,0:0:0:0:
144,80,38435,1,8,0:0:0:0:
192,96,38597,1,0,0:0:0:0:
384,128,38759,1,8,0:0:0:0:
256,112,38921,1,0,0:0:0:0:
240,32,39083,1,8,0:0:0:0:
272,272,39164,1,8,0:0:0:0:
96,112,39245,1,0,0:0:0:0:
144,96,39408,1,0,0:0:0:0:
192,80,39570,1,8,0:0:0:0:
256,64,39732,1,0,0:0:0:0:
208,64,39894,1,0,0:0:0:0:
240,112,40057,1,0,0:0:0:0:
160,144,40138,1,0,0:0:0:0:
128,96,40219,1,8,0:0:0:0:
352,96,40543,1,0,0:0:0:0:
288,224,40705,1,0,0:0:0:0:
176,160,40867,1,8,0:0:0:0:
240,96,41030,1,0,0:0:0:0:
176,96,41111,1,0,0:0:0:0:
112,96,41192,1,8,0:0:0:0:
304,176,41516,1,0,0:0:0:0:
192,176,41678,1,12,0:0:0:0:
192,112,42003,1,8,0:0:0:0:
128,128,42165,1,0,0:0:0:0:
160,64,42327,1,8,0:0:0:0:
240,80,42408,1,8,0:0:0:0:
128,128,42489,1,0,0:0:0:0:
48,96,42651,1,0,0:0:0:0:
192,128,42813,1,8,0:0:0:0:
160,192,43138,1,0,0:0:0:0:
176,112,43462,1,0,0:0:0:0:
128,112,43624,1,12,0:0:0:0:
96,48,43948,1,8,0:0:0:0:
192,64,44111,1,0,0:0:0:0:
240,80,44273,1,0,0:0:0:0:
112,112,44435,1,8,0:0:0:0:
224,176,44597,1,0,0:0:0:0:
144,176,44678,1,0,0:0:0:0:
144,96,44759,1,8,0:0:0:0:
96,80,44921,1,0,0:0:0:0:
128,64,45084,1,8,0:0:0:0:
208,96,45246,1,8,0:0:0:0:
144,128,45408,1,0,0:0:0:0:
160,96,45732,1,8,0:0:0:0:
80,80,45894,1,0,0:0:0:0:
128,48,46057,1,8,0:0:0:0:
192,48,46219,1,4,0:0:0:0:
240,112,46543,1,0,0:0:0:0:
160,128,46705,1,8,0:0:0:0:
128,128,46867,1,8,0:0:0:0:
128,96,47030,1,0,0:0:0:0:
192,80,47192,1,0,0:0:0:0:
240,112,47273,1,0,0:0:0:0:
160,128,47354,1,8,0:0:0:0:
144,112,47435,1,0,0:0:0:0:
112,160,47516,1,0,0:0:0:0:
80,160,47597,1,0,0:0:0:0:
64,112,47678,1,8,0:0:0:0:
64,80,47840,1,0,0:0:0:0:
144,48,48003,1,8,0:0:0:0:
128,96,48165,1,0,0:0:0:0:
208,64,48327,1,8,0:0:0:0:
144,64,48489,1,8,0:0:0:0:
112,128,48651,1,0,0:0:0:0:
160,128,48813,1,0,0:0:0:0:
224,128,48894,1,0,0:0:0:0:
192,96,48975,1,8,0:0:0:0:
224,80,49138,1,0,0:0:0:0:
144,96,49219,1,0,0:0:0:0:
128,96,49300,1,0,0:0:0:0:
160,160,49462,1,0,0:0:0:0:
192,128,49624,1,8,0:0:0:0:
384,192,49786,1,0,0:0:0:0:
80,96,49948,1,8,0:0:0:0:
240,160,50273,1,8,0:0:0:0:
160,112,50435,1,0,0:0:0:0:
48,128,50516,1,0,0:0:0:0:
208,192,50597,1,8,0:0:0:0:
160,160,50759,1,0,0:0:0:0:
192,112,50921,1,8,0:0:0:0:
208,32,51003,1,8,0:0:0:0:
176,64,51084,1,0,0:0:0:0:
96,80,51246,1,8,0:0:0:0:
352,240,51408,1,0,0:0:0:0:
240,224,51570,1,8,0:0:0:0:
288,144,51732,1,8,0:0:0:0:
176,176,51813,1,8,0:0:0:0:
160,48,51894,1,0,0:0:0:0:
112,96,52057,1,8,0:0:0:0:
176,80,52219,1,0,0:0:0:0:
208,96,52300,1,0,0:0:0:0:
128,128,52381,1,8,0:0:0:0:
160,128,52462,1,8,0:0:0:0:
80,144,52543,1,0,0:0:0:0:
128,144,52624,1,0,0:0:0:0:
176,144,52705,1,0,0:0:0:0:
288,128,52786,1,0,0:0:0:0:
240,128,52867,1,8,0:0:0:0:
160,80,53030,1,0,0:0:0:0:
336,64,53192,1,8,0:0:0:0:
288,80,53273,1,0,0:0:0:0:
256,64,53354,1,8,0:0:0:0:
160,128,53435,1,8,0:0:0:0:
208,144,53516,1,0,0:0:0:0:
176,160,53597,1,0,0:0:0:0:
320,160,53678,1,0,0:0:0:0:
160,80,53759,1,0,0:0:0:0:
176,96,53840,1,8,0:0:0:0:
224,80,53921,1,8,0:0:0:0:
240,176,54003,1,0,0:0:0:0:
192,176,54165,1,8,0:0:0:0:
272,80,54327,1,8,0:0:0:0:
256,80,54408,1,0,0:0:0:0:
256,144,54489,1,0,0:0:0:0:
192,112,54570,1,0,0:0:0:0:
144,112,54651,1,8,0:0:0:0:
112,112,54732,1,0,0:0:0:0:
64,128,54813,1,8,0:0:0:0:
48,80,54975,1,8,0:0:0:0:
256,112,55030,1,8,0:0:0:0:
240,112,55084,1,8,0:0:0:0:
192,96,55138,1,0,0:0:0:0:
336,96,55219,1,0,0:0:0:0:
240,64,55300,1,8,0:0:0:0:
160,80,55381,1,8,0:0:0:0:
96,96,55462,1,0,0:0:0:0:
144,144,55624,1,8,0:0:0:0:
240,144,55786,1,8,0:0:0:0:
208,128,55948,1,0,0:0:0:0:
272,256,56111,1,8,0:0:0:0:
176,224,56273,1,0,0:0:0:0:
192,160,56435,1,0,0:0:0:0:
128,96,56597,1,8,0:0:0:0:
208,64,56921,1,0,0:0:0:0:
128,64,57084,1,8,0:0:0:0:
144,112,57408,1,8,0:0:0:0:
208,112,57489,1,8,0:0:0:0:
176,112,57570,1,8,0:0:0:0:
96,96,57732,1,4,0:0:0:0:
256,144,58057,1,0,0:0:0:0:
320,160,58219,1,0,0:0:0:0:
288,128,58381,1,8,0:0:0:0:
112,112,58543,1,0,0:0:0:0:
208,128,58624,1,0,0:0:0:0:
112,192,58705,1,0,0:0:0:0:
480,304,58867,1,0,0:0:0:0:
400,256,59030,1,8,0:0:0:0:
304,208,59192,1,8,0:0:0:0:
224,176,59354,1,0,0:0:0:0:
208,128,59435,1,8,0:0:0:0:
160,128,59516,1,0,0:0:0:0:
96,144,59597,1,0,0:0:0:0:
112,80,59678,1,8,0:0:0:0:
128,48,59840,1,0,0:0:0:0:
192,64,60003,1,8,0:0:0:0:
256,80,60165,1,0,0:0:0:0:
224,80,60327,1,8,0:0:0:0:
176,80,60651,1,0,0:0:0:0:
336,128,60813,1,0,0:0:0:0:
272,144,60975,1,8,0:0:0:0:
176,160,61138,1,0,0:0:0:0:
128,128,61300,1,8,0:0:0:0:
80,160,61462,1,0,0:0:0:0:
64,112,61624,1,8,0:0:0:0:
96,96,61786,1,8,0:0:0:0:
240,112,61948,1,0,0:0:0:0:
160,112,62111,1,0,0:0:0:0:
96,128,62192,1,0,0:0:0:0:
48,144,62273,1,8,0:0:0:0:
32,96,62435,1,0,0:0:0:0:
80,80,62597,1,8,0:0:0:0:
192,192,62759,1,0,0:0:0:0:
208,96,62840,1,0,0:0:0:0:
144,128,62921,1,8,0:0:0:0:
144,112,63084,1,0,0:0:0:0:
96,144,63165,1,0,0:0:0:0:
64,176,63246,1,0,0:0:0:0:
384,240,63408,1,0,0:0:0:0:
288,224,63570,1,8,0:0:0:0:
240,192,63894,1,8,0:0:0:0:
272,144,64057,1,0,0:0:0:0:
176,128,64219,1,8,0:0:0:0:
128,160,64381,1,0,0:0:0:0:
80,176,64462,1,0,0:0:0:0:
80,208,64543,1,0,0:0:0:0:
160,208,64705,1,0,0:0:0:0:
96,112,64867,1,8,0:0:0:0:
160,128,65192,1,8,0:0:0:0:
320,224,65354,1,0,0:0:0:0:
256,192,65516,1,8,0:0:0:0:
240,112,65597,1,0,0:0:0:0:
160,112,65678,1,0,0:0:0:0:
112,112,65840,1,8,0:0:0:0:
208,96,66165,1,8,0:0:0:0:
160,80,66327,1,0,0:0:0:0:
144,160,66489,1,8,0:0:0:0:
240,160,66651,1,8,0:0:0:0:
208,160,66732,1,0,0:0:0:0:
160,160,66813,1,8,0:0:0:0:
256,64,66975,1,0,0:0:0:0:
128,96,67138,1,8,0:0:0:0:
160,80,67300,1,0,0:0:0:0:
128,96,67381,1,0,0:0:0:0:
112,128,67462,1,8,0:0:0:0:
208,176,67543,1,8,0:0:0:0:
160,176,67624,1,0,0:0:0:0:
240,144,67705,1,0,0:0:0:0:
224,96,67786,1,8,0:0:0:0:
160,96,67867,1,0,0:0:0:0:
256,96,67948,1,0,0:0:0:0:
192,128,68030,1,0,0:0:0:0:
128,128,68111,1,8,0:0:0:0:
208,96,68435,1,4,0:0:0:0:
320,160,68597,1,0,0:0:0:0:
288,128,68759,1,8,0:0:0:0:
112,112,68921,1,0,0:0:0:0:
208,128,69002,1,0,0:0:0:0:
112,192,69083,1,0,0:0:0:0:
480,304,69245,1,0,0:0:0:0:
400,256,69408,1,8,0:0:0:0:
304,208,69570,1,8,0:0:0:0:
256,64,69651,1,8,0:0:0:0:
224,176,69732,1,0,0:0:0:0:
160,128,69894,1,0,0:0:0:0:
96,144,69975,1,0,0:0:0:0:
112,80,70056,1,8,0:0:0:0:
128,48,70218,1,0,0:0:0:0:
192,64,70381,1,8,0:0:0:0:
256,80,70543,1,0,0:0:0:0:
224,80,70705,1,8,0:0:0:0:
160,192,70867,1,8,0:0:0:0:
176,80,71029,1,0,0:0:0:0:
272,144,71353,1,8,0:0:0:0:
176,160,71516,1,0,0:0:0:0:
128,128,71678,1,8,0:0:0:0:
80,160,71840,1,0,0:0:0:0:
64,112,72002,1,8,0:0:0:0:
96,96,72164,1,8,0:0:0:0:
240,112,72326,1,0,0:0:0:0:
160,112,72489,1,0,0:0:0:0:
96,128,72570,1,0,0:0:0:0:
48,144,72651,1,8,0:0:0:0:
32,96,72813,1,0,0:0:0:0:
288,208,72975,1,8,0:0:0:0:
240,192,73138,1,0,0:0:0:0:
192,160,73219,1,0,0:0:0:0:
112,112,73300,1,8,0:0:0:0:
208,96,73381,1,8,0:0:0:0:
128,112,73462,1,0,0:0:0:0:
176,112,73543,1,0,0:0:0:0:
288,64,73624,1,8,0:0:0:0:
224,96,73786,1,0,0:0:0:0:
112,160,73948,1,8,0:0:0:0:
224,208,74111,1,0,0:0:0:0:
176,176,74273,1,8,0:0:0:0:
144,144,74435,1,0,0:0:0:0:
176,112,74597,1,8,0:0:0:0:
240,112,74678,1,8,0:0:0:0:
240,144,74759,1,0,0:0:0:0:
208,96,74921,1,8,0:0:0:0:
320,224,75246,1,0,0:0:0:0:
224,176,75408,1,8,0:0:0:0:
176,112,75570,1,8,0:0:0:0:
320,144,75813,1,0,0:0:0:0:
240,96,75894,1,8,0:0:0:0:
128,96,76057,1,8,0:0:0:0:
160,160,76219,1,4,0:0:0:0:
256,176,76543,1,0,0:0:0:0:
144,192,76705,1,8,0:0:0:0:
144,160,77030,1,0,0:0:0:0:
224,112,77192,1,12,0:0:0:0:
320,96,77516,1,0,0:0:0:0:
240,96,77678,1,8,0:0:0:0:
128,112,78003,1,8,0:0:0:0:
96,96,78165,1,0,0:0:0:0:
160,96,78327,1,8,0:0:0:0:
256,96,78651,1,8,0:0:0:0:
144,208,78813,1,0,0:0:0:0:
288,192,78975,1,0,0:0:0:0:
272,208,79057,1,0,0:0:0:0:
192,192,79138,1,8,0:0:0:0:
160,192,79219,1,0,0:0:0:0:
112,112,79300,1,8,0:0:0:0:
80,128,79381,1,8,0:0:0:0:
144,80,79462,1,0,0:0:0:0:
224,112,79543,1,0,0:0:0:0:
240,112,79624,1,0,0:0:0:0:
240,96,79705,1,0,0:0:0:0:
176,96,79786,1,8,0:0:0:0:
192,80,79867,1,0,0:0:0:0:
160,64,79948,1,8,0:0:0:0:
112,128,80030,1,8,0:0:0:0:
112,160,80111,1,0,0:0:0:0:
256,192,80273,1,0,0:0:0:0:
224,176,80435,1,8,0:0:0:0:
160,176,80597,1,0,0:0:0:0:
240,144,80921,1,0,0:0:0:0:
112,128,81084,1,12,0:0:0:0:
192,160,81408,5,8,0:0:0:0:
224,96,81570,1,0,0:0:0:0:
176,112,81732,1,0,0:0:0:0:
112,112,81894,1,8,0:0:0:0:
352,144,82057,1,0,0:0:0:0:
416,64,82218,1,0,0:0:0:0:
288,96,82380,1,8,0:0:0:0:
208,160,82543,1,0,0:0:0:0:
288,96,82705,1,0,0:0:0:0:
160,112,82867,1,8,0:0:0:0:
288,160,83030,1,0,0:0:0:0:
96,192,83191,1,0,0:0:0:0:
192,192,83353,1,8,0:0:0:0:
288,96,83516,1,0,0:0:0:0:
192,112,83678,1,8,0:0:0:0:
240,96,84003,1,8,0:0:0:0:
240,160,84164,1,0,0:0:0:0:
176,96,84326,1,0,0:0:0:0:
80,112,84489,1,8,0:0:0:0:
272,80,84651,1,0,0:0:0:0:
192,96,84813,1,0,0:0:0:0:
128,128,84975,1,8,0:0:0:0:
128,112,85137,1,0,0:0:0:0:
80,112,85299,1,0,0:0:0:0:
64,240,85462,1,8,0:0:0:0:
336,96,85624,1,0,0:0:0:0:
192,128,85786,1,0,0:0:0:0:
240,96,85948,1,8,0:0:0:0:
192,96,86110,1,0,0:0:0:0:
160,176,86272,1,0,0:0:0:0:
320,96,86435,1,8,0:0:0:0:
208,208,86597,1,8,0:0:0:0:
256,96,86759,1,0,0:0:0:0:
192,96,86921,1,0,0:0:0:0:
128,112,87084,1,8,0:0:0:0:
144,160,87246,1,0,0:0:0:0:
96,192,87408,1,8,0:0:0:0:
128,128,87570,1,0,0:0:0:0:
208,128,87732,1,0,0:0:0:0:
160,112,87894,1,8,0:0:0:0:
208,112,88057,1,8,0:0:0:0:
64,64,88219,1,0,0:0:0:0:
112,80,88381,1,8,0:0:0:0:
128,80,88543,1,8,0:0:0:0:
176,80,88705,1,0,0:0:0:0:
288,128,88867,1,0,0:0:0:0:
224,160,89030,1,8,0:0:0:0:
