osu file format v14

[General]
AudioFilename: audio.mp3
AudioLeadIn: 0
PreviewTime: 50386
Countdown: 0
SampleSet: Soft
StackLeniency: 0.7
Mode: 0
LetterboxInBreaks: 0
WidescreenStoryboard: 1

[Editor]
DistanceSpacing: 1.1
BeatDivisor: 2
GridSize: 4
TimelineZoom: 1

[Metadata]
Title:ebb and flow [TV Size]
TitleUnicode:ebb and flow [TV Size]
Artist:Ray
ArtistUnicode:Ray
Creator:Xoul
Version:Easy
Source:凪のあすから
Tags:Nagi no Asukara opening, _Meep_
BeatmapID:1542133
BeatmapSetID:727218

[Difficulty]
HPDrainRate:2
CircleSize:2.6
OverallDifficulty:2
ApproachRate:2
SliderMultiplier:0.8
SliderTickRate:1

[Events]
//Background and Video events
0,0,"anime_girl_nature_water_sadness_12728_1366x768.jpg",0,0
Video,0,"opening.avi"
//Break Periods
//Storyboard Layer 0 (Background)
//Storyboard Layer 1 (Fail)
//Storyboard Layer 2 (Pass)
//Storyboard Layer 3 (Foreground)
//Storyboard Sound Samples

[TimingPoints]
583,565.952309085421,4,2,2,25,1,0
52650,-100,4,2,2,50,0,1
68497,-100,4,2,2,50,0,0
70761,-100,4,2,2,50,0,1
88871,-100,4,2,2,20,0,0

[Colours]
Combo1 : 0,0,255
Combo2 : 0,255,128
Combo3 : 0,128,64
Combo4 : 0,255,255

[HitObjects]
120,76,583,6,0,P|128:120|120:160,1,80,2|0,0:0|0:0,0:0:0:0:
84,236,1714,2,0,P|76:276|84:328,1,80,2|0,0:0|0:0,0:0:0:0:
164,352,2846,2,0,B|232:292|324:348|388:276,1,240,2|0,0:0|0:0,0:0:0:0:
424,196,5110,6,0,P|384:184|352:156,1,80,2|0,0:0|0:0,0:0:0:0:
372,72,6242,2,0,P|344:40|292:20,1,80,2|0,0:0|0:0,0:0:0:0:
224,16,7374,2,0,B|176:80|248:184|196:260,1,240,2|0,0:0|0:0,0:0:0:0:
156,324,9638,6,0,P|96:296|24:312,2,120,4|0|8,0:0|0:0|0:0,0:0:0:0:
240,356,11902,2,0,P|308:368|360:356,2,120,0|0|2,0:0|0:0|3:0,0:0:0:0:
220,272,14165,6,0,B|220:208|220:208|244:156|244:156|244:112,1,160,2|0,0:0|0:0,0:0:0:0:
244,28,15863,1,8,0:0:0:0:
332,36,16429,2,0,B|360:68|344:116,1,80,0|8,0:0|0:0,0:0:0:0:
324,148,17278,2,0,P|308:212|324:276,1,120,0|8,0:0|0:0,0:0:0:0:
352,344,18693,6,0,P|420:352|472:336,2,120,0|0|8,0:0|0:0|0:0,0:0:0:0:
268,320,20957,2,0,P|204:316|148:280,2,120,0|0|8,0:0|0:0|0:0,0:0:0:0:
316,248,23221,6,0,B|288:188|228:196|228:140,2,120,2|8|8,0:0|0:0|0:0,0:0:0:0:
388,196,25484,2,0,B|377:66|377:66,2,120,2|8|8,0:0|0:0|0:0,0:0:0:0:
400,284,27748,5,4,0:0:0:0:
412,372,28314,2,0,L|508:372,2,80,8|0|8,0:0|0:0|0:0,0:0:0:0:
332,336,30012,2,0,P|292:328|248:336,1,80,0|8,0:0|0:0,0:0:0:0:
212,348,30861,2,0,P|156:328|120:280,1,120,0|8,0:0|0:0,0:0:0:0:
104,192,32276,6,0,L|104:68,2,120,0|0|8,0:0|0:0|0:0,0:0:0:0:
108,281,34540,2,0,P|148:292|192:281,1,80,0|8,0:0|0:0,0:0:0:0:
216,256,35389,2,0,P|276:244|336:256,1,120,0|8,0:0|0:0,0:0:0:0:
412,292,36803,6,0,P|384:352|332:376,2,120,0|0|8,0:0|0:0|0:0,0:0:0:0:
400,204,39067,2,0,L|300:136,1,120,0|4,0:0|0:0,0:0:0:0:
192,64,40765,1,0,0:0:0:0:
108,92,41331,6,0,P|56:184|88:316,1,240,4|8,0:0|0:0,0:0:0:0:
148,372,43595,2,0,P|228:280|228:164,1,240,2|8,0:0|0:0,0:0:0:0:
204,80,45859,5,2,0:0:0:0:
292,84,46425,1,8,0:0:0:0:
380,68,46991,1,0,0:0:0:0:
452,16,47557,1,8,0:0:0:0:
464,104,48122,2,0,B|440:280|272:144|248:344,1,320,2|2,0:0|0:0,0:0:0:0:
264,232,52650,6,0,L|264:320,2,80,4|8|0,0:0|0:0|0:0,0:0:0:0:
264,144,54348,1,8,0:0:0:0:
260,56,54914,2,0,P|300:48|344:56,2,80,0|8|0,0:0|0:0|0:0,0:0:0:0:
180,96,56612,1,8,0:0:0:0:
92,104,57178,6,0,P|84:144|92:188,1,80,4|8,0:0|0:0,0:0:0:0:
180,184,58310,2,0,P|188:228|180:272,1,80,0|8,0:0|0:0,0:0:0:0:
156,344,59442,2,0,B|256:384|288:268|396:312,1,240,2|8,0:0|0:0,0:0:0:0:
464,340,61705,5,4,0:0:0:0:
464,252,62271,2,0,P|468:228|464:204,1,40,8|0,0:0|0:0,0:0:0:0:
396,160,63120,2,0,P|388:136|396:108,1,40,0|8,0:0|0:0,0:0:0:0:
416,36,63969,2,0,L|504:36,2,80,0|8|0,0:0|0:0|0:0,0:0:0:0:
328,36,65667,1,8,0:0:0:0:
296,120,66233,6,0,P|304:158|295:197,1,80,4|8,0:0|0:0,0:0:0:0:
208,208,67365,2,0,P|199:246|208:285,1,80,0|8,0:0|0:0,0:0:0:0:
280,336,68497,2,0,L|340:336,2,40,0|0|8,0:0|0:0|0:0,0:0:0:0:
236,336,69346,1,0,0:0:0:0:
192,336,69629,2,0,L|132:336,2,40,0|0|8,0:0|0:0|0:0,0:0:0:0:
220,252,70761,6,0,P|244:140|164:36,1,240,4|8,0:0|0:0,0:0:0:0:
92,12,73024,2,0,L|36:96,2,80,0|8|0,0:0|0:0|0:0,0:0:0:0:
176,42,74722,1,8,0:0:0:0:
264,40,75288,6,0,P|324:28|384:40,2,120,4|8|8,0:0|0:0|0:0,0:0:0:0:
188,88,77552,2,0,P|152:116|128:176,1,80,0|8,0:0|0:0,0:0:0:0:
152,232,78684,2,0,P|140:272|92:320,1,80,0|8,0:0|0:0,0:0:0:0:
64,232,79816,5,4,0:0:0:0:
64,144,80382,2,0,P|84:140|108:144,1,40,8|0,0:0|0:0,0:0:0:0:
168,204,81231,2,0,P|192:208|220:204,1,40,0|8,0:0|0:0,0:0:0:0:
296,196,82080,2,0,L|296:284,2,80,0|8|0,0:0|0:0|0:0,0:0:0:0:
296,108,83778,1,8,0:0:0:0:
256,28,84344,6,0,P|295:20|334:29,1,80,4|8,0:0|0:0,0:0:0:0:
400,88,85476,2,0,P|390:127|400:165,1,80,0|8,0:0|0:0,0:0:0:0:
256,192,86324,12,0,88871,0:0:0:0:
